osu file format v12

[General]
AudioFilename: Nightcore - Monster (Dubstep) [HD].mp3
AudioLeadIn: 1511
PreviewTime: 11578
Countdown: 0
SampleSet: Soft
StackLeniency: 0.7
Mode: 0
LetterboxInBreaks: 1
WidescreenStoryboard: 0

[Editor]
DistanceSpacing: 0.5
BeatDivisor: 4
GridSize: 8

[Metadata]
Title:Monster (Nightcore Mix)
TitleUnicode:Monster (Nightcore Mix)
Artist:Meg & Dia
ArtistUnicode:Meg & Dia
Creator:Feel The Wind
Version:Hyper
Source:
Tags:dubstep
BeatmapID:289864
BeatmapSetID:111438

[Difficulty]
HPDrainRate:6
CircleSize:4
OverallDifficulty:6
ApproachRate:8
SliderMultiplier:1.6
SliderTickRate:1

[Events]
//Background and Video events
0,0,"hatsune_miku_headphones.jpg",0,0
//Break Periods
2,103200,107964
//Storyboard Layer 0 (Background)
//Storyboard Layer 1 (Fail)
//Storyboard Layer 2 (Pass)
//Storyboard Layer 3 (Foreground)
//Storyboard Sound Samples
//Background Colour Transformations
3,100,163,162,255

[TimingPoints]
144,714.285714285714,4,2,0,70,1,0
11572,-80,4,2,0,100,0,0
23001,357.142857142857,4,2,0,100,1,0
33715,-200,4,2,0,100,0,0
34429,-100,4,2,0,100,0,1
55858,-133.333333333333,4,2,0,100,0,0
57286,-100,4,2,0,100,0,1
78715,-133.333333333333,4,2,0,100,0,0
80143,714.285714285714,4,2,0,100,1,0
80143,-80,4,2,0,100,0,0
103000,357.142857142857,4,2,0,100,1,0
113714,-200,4,2,0,100,0,0
114428,-100,4,2,0,100,0,1
135857,-133.333333333333,4,2,0,100,0,0
137285,-100,4,2,0,100,0,1
160142,714.285714285714,4,2,0,100,1,0
160142,-80,4,2,0,100,0,0
171570,-80,4,2,0,50,0,0
177284,-100,4,2,0,50,0,0

[Colours]
Combo1 : 128,128,255
Combo2 : 0,255,255
Combo3 : 255,128,255
Combo4 : 255,128,128

[HitObjects]
80,192,144,2,0,P|160:200|224:120,1,160
256,320,1215,2,0,L|256:256,2,40
368,280,1929,2,0,P|352:217|264:168,1,160
264,88,2822,6,0,L|213:61,1,40
328,16,3358,2,0,B|368:56|357:109|357:109|384:121|406:147,1,160
464,200,4251,1,0,0:0:0:0:
464,200,4429,2,0,P|483:241|470:286,1,80
328,192,5143,2,0,P|305:151|308:112,1,80
256,320,5858,6,0,P|232:248|130:217,1,160
40,88,6929,2,0,L|40:40,2,40
40,208,7643,2,0,B|64:160|152:144|120:72,1,160
192,40,8536,2,0,L|208:80,1,40
176,192,9072,2,0,P|261:186|321:103,1,160
288,56,9965,1,0,0:0:0:0:
288,56,10143,2,0,P|336:56|376:88,1,80
432,240,10858,2,0,P|405:239|362:210,1,80
296,264,11393,5,0,0:0:0:0:
296,264,11572,2,0,P|236:270|196:321,1,100
48,176,12286,1,0,0:0:0:0:
112,40,12643,2,0,L|72:96,2,50
152,184,13358,1,0,0:0:0:0:
152,184,13536,2,0,L|208:112,1,50
88,280,14072,5,0,0:0:0:0:
112,304,14251,1,0,0:0:0:0:
144,312,14429,2,0,P|198:302|239:244,1,100
304,136,15143,1,0,0:0:0:0:
216,8,15501,5,0,0:0:0:0:
240,32,15679,1,0,0:0:0:0:
272,40,15858,2,0,P|328:38|386:93,1,100
432,128,16393,1,0,0:0:0:0:
432,128,16483,1,0,0:0:0:0:
432,128,16572,1,0,0:0:0:0:
478,271,16929,2,0,L|446:207,1,50,0|0,0:0|0:0,0:0:0:0:
356,207,17286,6,0,P|301:229|263:214,1,100
304,64,18001,1,0,0:0:0:0:
265,215,18358,2,0,L|248:272,1,50
168,328,18715,2,0,P|145:275|160:224,1,100
153,235,19251,1,0,0:0:0:0:
153,235,19429,1,0,0:0:0:0:
272,136,19786,6,0,L|216:136,1,50
120,136,20143,2,0,P|135:85|176:49,1,100
264,24,20679,1,0,0:0:0:0:
264,24,20768,1,0,0:0:0:0:
264,24,20858,1,0,0:0:0:0:
352,72,21036,1,0,0:0:0:0:
352,72,21215,1,0,0:0:0:0:
264,264,21572,6,0,P|286:314|344:336,1,100
416,288,22108,1,0,0:0:0:0:
416,288,22197,1,0,0:0:0:0:
416,288,22286,1,0,0:0:0:0:
464,200,22465,2,0,B|399:170|352:213|352:213|338:185|309:177,1,150
264,24,23358,1,0,0:0:0:0:
424,104,23715,6,0,B|383:98|360:109|360:109|334:104|319:104,1,80
240,120,24072,2,0,L|128:96,4,80
187,213,24965,1,0,0:0:0:0:
88,176,25143,2,0,P|56:120|98:26,1,160
192,8,25679,1,0,0:0:0:0:
296,32,25858,2,0,P|342:86|327:177,1,160
456,40,26572,6,0,L|472:136,1,80
432,216,26929,1,0,0:0:0:0:
432,216,27108,1,0,0:0:0:0:
432,216,27286,1,0,0:0:0:0:
432,216,27465,1,0,0:0:0:0:
432,216,27643,2,0,P|392:264|352:272,1,80
333,169,28001,2,0,P|280:208|274:304,1,160
176,344,28536,1,0,0:0:0:0:
78,303,28715,6,0,P|69:215|16:176,1,160
168,80,29429,1,0,0:0:0:0:
16,16,29786,2,0,L|75:91,1,80
120,168,30143,2,0,P|168:184|257:119,1,160
416,208,30858,2,0,P|400:256|455:341,1,160
288,272,31572,5,0,0:0:0:0:
288,272,31750,1,0,0:0:0:0:
288,272,31929,1,0,0:0:0:0:
288,272,32108,1,0,0:0:0:0:
328,176,32286,1,0,0:0:0:0:
328,176,32465,1,0,0:0:0:0:
328,176,32643,1,0,0:0:0:0:
328,176,32822,1,0,0:0:0:0:
400,96,33001,5,0,0:0:0:0:
385,82,33090,1,0,0:0:0:0:
368,71,33179,1,0,0:0:0:0:
349,65,33268,1,0,0:0:0:0:
329,62,33358,1,0,0:0:0:0:
310,64,33447,1,0,0:0:0:0:
290,70,33536,1,0,0:0:0:0:
273,80,33626,1,0,0:0:0:0:
258,93,33715,2,0,B|225:111|183:102|183:102|209:160|171:182,1,160,0|4,0:0|0:0,0:0:0:0:
400,272,34786,6,0,P|360:296|320:288,1,80
232,336,35143,2,0,B|183:339|161:317|161:317|120:336|64:336,1,160
328,292,35858,1,0,0:0:0:0:
240,232,36036,2,0,B|202:211|202:211|137:209,1,80
58,225,36393,2,0,B|80:184|46:137,1,80
152,104,36750,1,0,0:0:0:0:
56,56,36929,2,0,P|82:18|126:3,1,80
220,17,37286,2,0,B|250:34|256:67|256:67|301:109|370:64,1,160
480,280,38000,6,0,L|509:192,5,80
488,96,39072,2,0,P|448:59|412:50,1,80
424,51,39340,1,0,0:0:0:0:
424,51,39429,1,0,0:0:0:0:
404,157,39608,1,0,0:0:0:0:
296,168,39786,2,0,P|304:216|405:269,1,160
147,249,40500,1,0,0:0:0:0:
393,270,40858,6,0,B|375:319|327:343|327:343|295:327|247:319,2,160
480,208,41750,2,0,P|452:178|405:170,1,80
312,200,42108,1,0,0:0:0:0:
336,96,42286,2,0,P|366:69|405:62,1,80
308,11,42643,2,0,P|271:37|220:34,1,80
208,144,43000,2,0,B|158:127|141:88|141:88|99:85|62:124,1,160
152,344,43715,6,0,L|88:288,5,80
112,184,44786,2,0,B|200:256,1,80
173,234,45054,1,0,0:0:0:0:
173,234,45143,1,0,0:0:0:0:
261,300,45322,1,0,0:0:0:0:
361,341,45500,2,0,L|400:272,1,80
507,248,45858,1,0,0:0:0:0:
460,152,46036,6,0,P|410:149|377:118,1,80
386,132,46304,1,0,0:0:0:0:
386,132,46393,1,0,0:0:0:0:
344,35,46572,2,0,B|410:17|448:49|448:49|482:50|507:65,2,160
279,121,47465,2,0,P|244:86|239:51,2,80
387,133,48000,2,0,L|335:217,1,80
237,217,48358,2,0,L|161:280,1,80
80,320,48715,2,0,B|56:288|70:246|70:246|27:227|6:185,1,160
200,32,49429,6,0,L|136:112,5,80
70,22,50500,2,0,P|43:63|48:104,1,80
43,92,50768,1,0,0:0:0:0:
43,92,50858,1,0,0:0:0:0:
94,185,51036,1,0,0:0:0:0:
150,95,51215,2,0,P|198:143|179:238,1,160
436,251,51929,6,0,P|423:200|447:160,1,80
496,88,52286,2,0,B|456:61|419:69|419:69|399:31|336:20,2,160
432,176,53179,2,0,P|481:198|520:192,2,80
328,144,53715,2,0,P|320:192|352:224,1,80
312,320,54072,2,0,P|272:320|232:352,1,80
152,277,54429,2,0,B|183:244|225:231|225:231|205:189|223:138,1,160
416,320,55143,6,0,L|510:252,3,80
432,176,55858,2,0,B|450:167|471:159|471:159|472:112|441:75,1,120.000004577637
256,88,56572,2,0,B|238:97|217:105|217:105|216:152|247:189,1,120.000004577637
32,328,57286,6,0,B|56:296|32:264|32:264|24:208|88:192,1,160
163,262,57822,1,0,0:0:0:0:
163,262,57911,1,0,0:0:0:0:
163,262,58000,2,0,B|177:295|164:328|164:328|206:350|286:317,2,160
176,154,58893,2,0,P|221:168|250:214,1,80
328,256,59250,1,0,0:0:0:0:
337,148,59429,2,0,P|377:156|415:213,1,80
328,256,59786,2,0,P|361:282|414:288,1,80
405,182,60143,2,0,B|459:169|462:140|462:140|474:91|427:34,1,160
243,191,60858,6,0,L|242:83,5,80
336,56,61929,1,0,0:0:0:0:
242,1,62108,1,0,0:0:0:0:
242,1,62197,1,0,0:0:0:0:
242,1,62286,1,0,0:0:0:0:
151,59,62465,1,0,0:0:0:0:
48,24,62643,2,0,P|40:80|112:160,1,160
328,256,63358,1,0,0:0:0:0:
80,256,63715,6,0,B|120:262|144:248|144:248|184:264|192:328,1,160,0|0,0:0|0:0,0:0:0:0:
240,88,64429,2,0,P|272:128|320:128,1,80
400,168,64786,1,0,0:0:0:0:
376,64,64965,2,0,P|432:64|472:96,1,80
400,168,65322,1,0,0:0:0:0:
488,232,65500,2,0,P|462:262|410:275,1,80
319,252,65858,2,0,B|298:238|287:208|287:208|250:170|181:192,1,160
8,24,66572,6,0,L|80:88,5,80
8,168,67643,1,0,0:0:0:0:
116,179,67822,1,0,0:0:0:0:
116,179,67911,1,0,0:0:0:0:
116,179,68000,1,0,0:0:0:0:
8,168,68179,1,0,0:0:0:0:
67,78,68358,2,0,P|109:60|130:15,1,80
200,112,68715,1,0,0:0:0:0:
264,24,68893,6,0,P|300:66|304:112,1,80
305,88,69161,1,0,0:0:0:0:
305,88,69250,1,0,0:0:0:0:
272,192,69429,2,0,P|357:190|405:106,1,160
224,312,70143,2,0,P|180:286|156:229,1,80
83,335,70500,1,0,0:0:0:0:
58,230,70679,2,0,P|72:188|104:168,1,80
196,118,71036,1,0,0:0:0:0:
104,64,71215,2,0,P|142:20|186:17,1,80
268,34,71572,2,0,B|292:52|297:75|297:75|352:46|415:55,1,160
488,288,72286,6,0,L|432:224,5,80
368,141,73358,1,0,0:0:0:0:
474,123,73536,1,0,0:0:0:0:
474,123,73625,1,0,0:0:0:0:
474,123,73715,1,0,0:0:0:0:
402,43,73893,1,0,0:0:0:0:
368,141,74072,2,0,P|320:112|312:-2,1,160
312,264,74786,1,0,0:0:0:0:
303,15,75143,6,0,B|254:19|226:51|226:51|215:111|265:147,2,160
407,46,76036,2,0,P|447:70|464:111,1,80
484,206,76393,1,0,0:0:0:0:
440,304,76572,2,0,P|391:315|360:357,1,80
392,228,76929,2,0,B|378:198|392:168|392:168|373:124|314:100,1,160
216,328,77643,1,0,0:0:0:0:
19,174,78000,6,0,L|99:138,3,80
132,240,78715,2,0,P|176:208|198:142,1,120.000004577637
352,24,79429,2,0,P|392:64|480:72,1,120.000004577637
360,208,80143,6,0,P|406:227|441:286,1,100
280,288,80857,1,0,0:0:0:0:
272,136,81214,2,0,L|216:200,2,50
280,288,81928,1,0,0:0:0:0:
280,288,82107,2,0,L|224:352,1,50
152,136,82643,2,0,L|200:80,1,50
264,32,83000,2,0,P|322:40|361:94,1,100
152,136,83714,1,0,0:0:0:0:
280,288,84071,5,0,0:0:0:0:
280,288,84250,1,0,0:0:0:0:
280,288,84428,2,0,P|226:267|193:217,1,100
288,184,84964,1,0,0:0:0:0:
288,184,85053,1,0,0:0:0:0:
288,184,85143,1,0,0:0:0:0:
424,264,85500,1,0,0:0:0:0:
496,128,85857,6,0,P|466:80|483:26,1,100
264,32,86571,1,0,0:0:0:0:
112,16,86928,2,0,L|192:24,1,50
112,112,87285,2,0,P|56:120|8:157,1,100
88,224,87821,1,0,0:0:0:0:
88,224,88000,1,0,0:0:0:0:
192,336,88357,2,0,L|168:264,1,50
184,184,88714,2,0,P|211:128|204:86,1,100
400,16,89428,1,0,0:0:0:0:
288,192,89785,6,0,L|264:264,1,50
288,344,90143,2,0,P|341:322|370:273,1,100
392,192,90678,1,0,0:0:0:0:
392,192,90768,1,0,0:0:0:0:
392,192,90857,1,0,0:0:0:0:
112,112,91214,1,0,0:0:0:0:
88,320,91571,6,0,P|39:295|21:227,1,100
40,48,92285,1,0,0:0:0:0:
192,184,92643,2,0,L|216:136,1,50
184,40,93000,2,0,P|241:38|288:69,1,100
320,152,93535,1,0,0:0:0:0:
320,152,93714,1,0,0:0:0:0:
288,344,94071,6,0,L|248:280,1,50
352,248,94428,2,0,P|396:225|415:174,1,100
214,139,95143,1,0,0:0:0:0:
408,72,95500,2,0,L|336:24,1,50
264,48,95857,2,0,P|216:32|153:62,1,100
214,139,96393,1,0,0:0:0:0:
214,139,96482,1,0,0:0:0:0:
214,139,96571,1,0,0:0:0:0:
288,344,96928,1,0,0:0:0:0:
416,180,97285,6,0,P|447:220|435:278,1,100
232,288,98000,1,0,0:0:0:0:
216,136,98357,2,0,L|176:216,1,50
128,264,98714,2,0,P|94:223|98:157,1,100
128,80,99250,1,0,0:0:0:0:
128,80,99428,1,0,0:0:0:0:
320,152,99785,6,0,L|320:96,1,50
400,32,100143,2,0,P|424:83|468:102,1,100
417,193,100678,1,0,0:0:0:0:
417,193,100768,1,0,0:0:0:0:
417,193,100857,1,0,0:0:0:0:
320,152,101035,1,0,0:0:0:0:
320,152,101214,1,0,0:0:0:0:
448,320,101571,6,0,P|396:291|328:304,1,100
147,306,102285,2,0,P|199:335|267:322,1,100
216,136,103000,1,0,0:0:0:0:
448,192,108714,6,0,P|432:104|352:64,1,160
344,248,109428,1,0,0:0:0:0:
224,40,109785,1,0,0:0:0:0:
224,40,109964,1,0,0:0:0:0:
285,128,110142,2,0,P|192:144|134:96,1,160
344,248,110857,2,0,P|251:232|193:280,1,160
26,211,111571,5,0,0:0:0:0:
26,211,111750,1,0,0:0:0:0:
26,211,111928,1,0,0:0:0:0:
26,211,112107,1,0,0:0:0:0:
98,292,112285,1,0,0:0:0:0:
98,292,112464,1,0,0:0:0:0:
98,292,112642,1,0,0:0:0:0:
98,292,112821,1,0,0:0:0:0:
206,270,113000,5,0,0:0:0:0:
224,264,113089,1,0,0:0:0:0:
239,253,113178,1,0,0:0:0:0:
255,241,113267,1,0,0:0:0:0:
268,226,113357,1,0,0:0:0:0:
278,209,113446,1,0,0:0:0:0:
285,190,113535,1,0,0:0:0:0:
288,170,113624,1,0,0:0:0:0:
287,150,113714,2,8,B|290:107|260:77|260:77|272:24|328:24,1,160,0|4,0:0|0:0,0:0:0:0:
488,192,114785,5,0,0:0:0:0:
313,25,115142,2,0,B|360:16|376:40|376:40|408:80|386:143,1,160
272,344,115857,1,0,0:0:0:0:
352,272,116035,2,0,L|416:336,2,80
250,239,116571,2,0,P|196:267|181:304,1,80
88,328,116928,2,0,P|56:289|-8:280,1,80
104,200,117285,2,0,B|79:178|50:172|50:172|21:141|56:64,1,160
248,240,118000,6,0,L|248:152,5,80
154,105,119071,1,0,0:0:0:0:
249,51,119250,1,0,0:0:0:0:
249,51,119339,1,0,0:0:0:0:
249,51,119428,1,0,0:0:0:0:
343,106,119607,1,0,0:0:0:0:
400,16,119785,2,0,P|439:57|434:160,1,160
272,344,120500,1,0,0:0:0:0:
504,256,120857,6,0,B|472:272|464:304|464:304|408:336|352:288,1,160
152,192,121571,1,0,0:0:0:0:
246,246,121750,2,0,P|263:197|245:151,1,80
152,192,122107,1,0,0:0:0:0:
191,92,122285,2,0,P|146:82|90:110,1,80
48,176,122642,2,0,P|56:242|86:271,1,80
128,336,123000,2,0,B|160:296|160:296|207:357|272:336,1,160
299,96,123714,6,0,L|235:176,5,80
336,224,124785,2,0,L|400:144,1,80
385,161,125053,1,0,0:0:0:0:
385,161,125142,1,0,0:0:0:0:
400,56,125321,1,0,0:0:0:0:
385,161,125499,2,0,P|441:157|474:125,1,80
496,248,125857,1,0,0:0:0:0:
416,320,126035,6,0,P|368:312|323:330,1,80
338,320,126303,1,0,0:0:0:0:
338,320,126392,1,0,0:0:0:0:
240,272,126571,2,0,B|219:225|233:188|233:188|216:152|141:162,2,160
134,248,127464,2,0,P|130:291|159:338,1,80
46,280,127821,2,0,P|56:232|46:202,1,80
10,102,128178,1,0,0:0:0:0:
117,120,128357,2,0,B|136:144|136:144|163:142|194:162,1,80
201,50,128714,2,0,P|248:72|283:193,1,160
496,32,129428,6,0,L|416:112,5,80
390,184,130499,2,0,P|437:198|480:184,1,80
466,191,130767,1,0,0:0:0:0:
466,191,130857,1,0,0:0:0:0:
440,88,131035,1,0,0:0:0:0:
392,184,131214,2,0,B|347:208|346:248|346:248|299:277|248:232,1,160
352,16,131928,6,0,P|328:62|330:104,1,80
240,152,132285,2,0,B|218:126|220:93|220:93|194:47|135:50,2,160
176,240,133178,2,0,P|140:200|139:148,1,80
48,112,133535,2,0,P|27:78|32:35,2,80
136,175,134071,1,0,0:0:0:0:
136,175,134250,1,0,0:0:0:0:
38,222,134428,2,0,B|40:256|24:280|24:280|48:336|112:320,1,160
320,200,135142,6,0,L|264:288,3,80
356,343,135857,2,0,B|392:345|408:329|408:329|416:281|464:265,1,120.000004577637
354,104,136571,2,0,B|390:102|406:118|406:118|414:166|462:182,1,120.000004577637
240,336,137285,6,0,B|197:352|170:318|170:318|197:278|186:223,1,160,0|0,0:0|0:0,0:0:0:0:
312,24,138000,2,0,B|279:41|269:74|269:74|205:96|181:47,1,160
336,256,138714,1,0,0:0:0:0:
272,168,138892,2,0,P|240:196|234:253,1,80
336,256,139250,1,0,0:0:0:0:
376,156,139428,2,0,P|363:107|334:84,1,80
272,168,139785,2,0,P|241:124|249:64,1,80
185,4,140142,2,0,B|154:23|139:55|139:55|96:32|42:43,1,160
144,272,140857,5,0,0:0:0:0:
114,260,141035,1,0,0:0:0:0:
90,239,141214,1,0,0:0:0:0:
74,211,141392,1,0,0:0:0:0:
70,180,141571,1,0,0:0:0:0:
76,149,141749,1,0,0:0:0:0:
167,92,141928,6,0,P|183:142|167:202,1,80
180,168,142196,1,0,0:0:0:0:
180,168,142285,1,0,0:0:0:0:
248,256,142464,1,0,0:0:0:0:
280,152,142642,2,0,P|321:173|353:278,1,160
114,261,143357,1,0,0:0:0:0:
354,276,143714,6,0,B|386:292|395:311|395:311|446:271|424:209,1,160
272,24,144428,1,0,0:0:0:0:
344,104,144607,2,0,P|357:58|398:29,1,80
486,12,144964,1,0,0:0:0:0:
448,112,145142,2,0,P|436:161|393:189,1,80
344,104,145500,2,0,P|314:145|320:192,1,80
353,276,145857,2,0,B|312:289|282:276|282:276|270:326|210:336,1,160,0|0,0:0|0:0,0:0:0:0:
72,136,146571,5,0,0:0:0:0:
95,157,146749,1,0,0:0:0:0:
119,178,146928,1,0,0:0:0:0:
143,199,147106,1,0,0:0:0:0:
167,220,147285,1,0,0:0:0:0:
191,241,147463,1,0,0:0:0:0:
276,171,147642,6,0,P|303:210|299:247,1,80
301,240,147910,1,0,0:0:0:0:
301,240,147999,1,0,0:0:0:0:
243,331,148178,1,0,0:0:0:0:
352,336,148357,2,0,B|408:312|401:257,1,80
400,171,148714,1,0,0:0:0:0:
344,80,148892,6,0,P|306:57|264:60,1,80
271,57,149160,1,0,0:0:0:0:
271,57,149249,1,0,0:0:0:0:
184,120,149428,2,0,B|158:88|164:46|164:46|120:48|80:24,1,160
192,248,150142,1,0,0:0:0:0:
99,193,150321,2,0,P|80:232|109:295,1,80
192,248,150678,1,0,0:0:0:0:
272,176,150857,2,0,P|290:128|276:86,1,80
352,16,151214,2,0,P|368:56|406:84,1,80
494,127,151571,2,0,B|480:154|458:168|458:168|481:231|421:286,1,160
192,248,152285,5,0,0:0:0:0:
213,271,152463,1,0,0:0:0:0:
241,286,152642,1,0,0:0:0:0:
273,290,152820,1,0,0:0:0:0:
304,284,152999,1,0,0:0:0:0:
331,267,153177,1,0,0:0:0:0:
272,176,153357,6,0,P|236:145|194:143,1,80
205,141,153624,1,0,0:0:0:0:
205,141,153714,1,0,0:0:0:0:
106,183,153892,1,0,0:0:0:0:
192,248,154071,2,0,P|131:291|35:264,1,160
80,32,154785,2,0,P|101:80|146:96,1,80
217,40,155142,2,0,B|250:47|272:72|272:72|312:32|379:39,1,160
304,284,155857,1,0,0:0:0:0:
255,188,156035,6,0,B|297:160|354:189,1,80
304,284,156392,1,0,0:0:0:0:
408,256,156571,2,0,P|436:223|436:177,1,80
469,83,156928,2,0,P|430:75|392:94,1,80,0|0,0:0|0:0,0:0:0:0:
332,180,157285,2,0,B|322:137|288:118|288:118|268:73|307:30,1,160,0|0,0:0|0:0,0:0:0:0:
99,191,157999,2,0,L|192:208,3,80
256,192,158714,8,4,160142,0:0:0:0:
304,256,160856,5,0,0:0:0:0:
204,138,161213,2,0,L|264:200,2,50
304,256,161927,1,0,0:0:0:0:
304,256,162106,1,0,0:0:0:0:
304,256,162284,1,0,0:0:0:0:
448,200,162642,5,0,0:0:0:0:
448,200,162820,1,0,0:0:0:0:
448,200,162999,2,0,P|400:176|392:120,1,100
216,24,163713,1,0,0:0:0:0:
40,136,164070,5,0,0:0:0:0:
40,136,164249,1,0,0:0:0:0:
40,136,164427,2,0,P|64:80|116:61,1,100
142,155,164963,1,0,0:0:0:0:
142,155,165052,1,0,0:0:0:0:
142,155,165142,1,0,0:0:0:0:
114,307,165499,1,0,0:0:0:0:
248,232,165856,6,0,P|272:189|263:133,1,100
384,40,166570,1,0,0:0:0:0:
267,140,166927,2,0,L|329:91,1,50
384,40,167284,2,0,P|411:87|402:146,1,100
368,224,167820,1,0,0:0:0:0:
368,224,167999,1,0,0:0:0:0:
200,336,168356,5,0,0:0:0:0:
200,336,168534,1,0,0:0:0:0:
200,336,168713,2,0,P|249:304|317:322,1,100
439,345,169427,1,0,0:0:0:0:
496,144,169784,5,0,0:0:0:0:
496,144,169963,1,0,0:0:0:0:
496,144,170142,2,0,P|459:111|468:40,1,100
365,16,170677,1,0,0:0:0:0:
365,16,170767,1,0,0:0:0:0:
365,16,170856,1,0,0:0:0:0:
267,140,171213,2,0,L|314:85,1,50
336,200,171570,6,0,P|284:232|231:224,1,100
102,172,172284,1,0,0:0:0:0:
247,230,172642,2,0,L|168:200,2,50
88,72,173534,2,0,L|174:105,1,50
299,102,174070,5,0,0:0:0:0:
299,102,174249,1,0,0:0:0:0:
299,102,174427,2,0,B|336:88|336:48|336:48|376:32,1,100
456,160,175142,1,0,0:0:0:0:
328,248,175499,5,0,0:0:0:0:
328,248,175677,1,0,0:0:0:0:
328,248,175856,2,0,P|376:237|425:257,1,100
456,160,176392,1,0,0:0:0:0:
456,160,176481,1,0,0:0:0:0:
456,160,176570,1,0,0:0:0:0:
256,184,176927,2,0,P|230:226|252:288,1,100
384,80,177999,5,0,0:0:0:0:
152,136,178713,5,0,0:0:0:0:
301,326,179249,5,0,0:0:0:0:
301,326,179427,1,0,0:0:0:0:
136,272,180142,6,0,P|72:255|37:192,1,120
41,213,180767,1,0,0:0:0:0:
41,213,180856,1,0,0:0:0:0:
68,138,181034,1,0,0:0:0:0:
68,138,181213,1,0,0:0:0:0:
256,192,181570,8,0,182999,0:0:0:0:
