osu file format v13

[General]
AudioFilename: Meg & Dia - Monster (DotEXE Dubstep Remix).mp3
AudioLeadIn: 2000
PreviewTime: 13471
Countdown: 0
SampleSet: Soft
StackLeniency: 0.3
Mode: 0
LetterboxInBreaks: 0
StoryFireInFront: 0
EpilepsyWarning: 1
WidescreenStoryboard: 1

[Editor]
Bookmarks: 68328
DistanceSpacing: 1.1
BeatDivisor: 4
GridSize: 4
TimelineZoom: 1

[Metadata]
Title:Monster (DotEXE Remix)
TitleUnicode:Monster (DotEXE Remix)
Artist:Meg & Dia
ArtistUnicode:Meg & Dia
Creator:nold_1702
Version:Easy
Source:
Tags:NCL NewibornCLivee Nold Chewin Kloyd IamKwaN Zillah Irreversible _Gezo_ mingmichael ursa Ami Kyshiro happy623 dinka0403 dubstep
BeatmapID:387425
BeatmapSetID:157896

[Difficulty]
HPDrainRate:2
CircleSize:3
OverallDifficulty:2
ApproachRate:2
SliderMultiplier:0.9
SliderTickRate:1

[Events]
//Background and Video events
0,0,"Anime_vocaloid_185425.jpg",0,0
//Break Periods
//Storyboard Layer 0 (Background)
Sprite,Background,Centre,"Anime_vocaloid_185425.jpg",320,240 S,0,-1099,,0.8 F,0,-1099,13043,0 F,0,13471,13900,1 F,0,13900,14543,1,0 F,0,14543,27186,0 F,0,27186,27614,0,1 F,0,34043,34471,1 F,0,34471,36186,0 F,0,36186,41328,0 F,0,41328,67471,1 F,0,67043,68757,1,0 F,0,68757,123614,0 F,0,123614,125328,0,1 F,0,125328,127043,1,0
//Storyboard Layer 1 (Fail)
//Storyboard Layer 2 (Pass)
//Storyboard Layer 3 (Foreground)
Sprite,Foreground,Centre,"sb\mikubw.jpg",320,240 M,0,12186,,320,240 F,0,12186,12400,0,0.3 F,0,12400,12614,0.3,0 F,0,12614,12828,0,0.3 F,0,12828,13043,0.3,0 F,0,13043,13257,1,0.6 F,0,13257,13364,0.6,0 F,0,13364,13471,0,1 F,0,13471,13578,1,0 F,0,13578,13686,0,1 F,0,13686,13793,1,0 F,0,13793,13900,1,0 M,0,43043,,320,240 F,0,43043,43470,1,0 M,0,43471,,320,240 F,0,43471,43899,1,0 M,0,43900,,320,240 F,0,43900,44328,1,0 M,0,44328,,320,240 F,0,44328,44756,1,0
Sprite,Foreground,Centre,"sb\mikubw2.jpg",320,240 F,0,27614,34471,0,1 F,0,34471,36186,1 F,0,36186,37043,1,0
Sprite,Foreground,Centre,"Anime_vocaloid_185425.jpg",320,240 F,0,41328,42186,1,0.006992996 S,0,41328,42186,0.8,0.84
Sprite,Foreground,Centre,"sb\ly01.png",320,240 F,0,-28,78,0 F,0,78,186,0,0.5821936 M,0,186,,380,370 S,0,186,,0.5 F,0,186,1257,0.5821936,0
Sprite,Foreground,TopLeft,"sb\ly02.png",0,0 M,0,1364,,31,195 S,0,1364,,0.5 R,0,1364,,0.3138064 F,0,1364,1471,0,1 F,0,1471,1686,1,0
Sprite,Foreground,TopLeft,"sb\ly03.png",0,0 M,0,1686,,29,58 S,0,1686,,0.5 F,0,1686,1793,0,1 F,0,1793,2328,1,0 F,0,1793,2328,1,0.004672885
Sprite,Foreground,TopLeft,"sb\ly04.png",0,0 M,0,1793,,30,230 F,0,1793,1900,0,1 S,0,1900,,1 F,0,1900,2221,1,0.3385806 F,0,2221,2328,0.3385806,0
Sprite,Foreground,TopLeft,"sb\ly05.png",0,0 M,0,2221,,155,230 S,0,2221,,1 F,0,2221,2328,0,0.772129 F,0,2328,2971,0.772129,0
Sprite,Foreground,TopLeft,"sb\ly06.png",0,0 M,0,3078,,13,90 F,0,3078,3186,0,1 S,0,3186,,0.5 F,0,3186,3614,1,0
Sprite,Foreground,TopLeft,"sb\ly07.png",0,0 M,0,3507,,3,240 S,0,3507,,0.7 F,0,3507,3614,0,1 F,0,3614,4043,1,0.1610323
Sprite,Foreground,TopLeft,"sb\ly08.png",0,0 M,0,3936,,250,278 S,0,3936,,0.5 F,0,3936,4043,0,0.9992259 F,0,4043,4471,0.9992259,0
Sprite,Foreground,TopLeft,"sb\ly09.png",0,0 M,0,4793,,575,266 S,0,4793,,0.1 R,0,4793,,3.138065 F,0,4793,4900,0,1 F,0,4900,5328,1,0
Sprite,Foreground,TopLeft,"sb\ly10.png",0,0 M,0,5221,,425,266 S,0,5221,,0.1 R,0,5221,,3.138064 F,0,5221,5328,0,1 F,0,5328,5757,1,0
Sprite,Foreground,TopLeft,"sb\ly11.png",0,0 M,0,5650,,275,266 S,0,5650,,0.1 R,0,5650,,3.138064 F,0,5650,5757,0,1 F,0,5757,6186,1,0
Sprite,Foreground,TopLeft,"sb\ly12.png",0,0 M,0,6078,,225,266 S,0,6078,,0.2 R,0,6078,,3.121548 F,0,6078,6186,0,1 F,0,6186,6614,1,0.6093806 F,0,6614,7043,0.6093806,0
Sprite,Foreground,Centre,"sb\ly01.png",320,240 M,0,6936,,380,370 S,0,6936,,0.5 F,0,6936,7043,0,1 F,0,7043,8114,1,0
Sprite,Foreground,Centre,"sb\ly04.png",320,240 M,0,8543,,323,127 S,0,8543,,1 F,0,8543,8757,0,1 F,0,8757,9186,1,0.636601 F,0,9186,9828,0.636601,0
Sprite,Foreground,Centre,"sb\ly05.png",320,240 M,0,8971,,320,360 S,0,8971,,1 F,0,8971,9186,0,0.4714839 F,0,9186,9828,0.4714839,0
Sprite,Foreground,TopLeft,"sb\ly07.png",0,0 M,0,10257,,0,96 S,0,10257,,0.7 R,0,10257,,-0.29729 F,0,10257,10471,0,0.7308387 F,0,10471,11328,0.7308387,0
Sprite,Foreground,TopLeft,"sb\ly08.png",0,0 M,0,10686,,280,180 S,0,10686,,0.6 F,0,10686,10900,0,0.4838709 F,0,10900,11328,0.4838709,0
Sprite,Foreground,TopLeft,"sb\ly05.png",0,0 M,0,15828,,30,70 S,0,15828,,0.5 F,0,15828,16043,0,1 F,0,16043,20328,1 F,0,20328,20757,1,0
Sprite,Foreground,TopLeft,"sb\ly08.png",0,0 M,0,17543,,8,193 F,0,17543,17757,0,1 F,0,17757,20328,1 F,0,20328,20757,1,0.01316116
Sprite,Foreground,Centre,"sb\rmiku_.jpg",320,240 F,0,44650,44757,0,1 M,0,44650,48186,320,240
Sprite,Foreground,Centre,"sb\rmiku.jpg",320,240 F,0,45614,,0,1 F,0,45614,45814,1,0 M,0,45614,47957,320,240 F,0,46043,,0,1 F,0,46043,46243,1,0 F,0,46471,,0,1 F,0,46471,46671,1,0 F,0,46900,,0,1 F,0,46900,47100,1,0 F,0,47328,,0,1 F,0,47328,47528,1,0 F,0,47757,,0,1 F,0,47757,47957,1,0
Sprite,Foreground,Centre,"sb\F.png",320,240 F,0,41221,41328,0,1 M,0,41328,,-47,236 F,0,41328,41528,1,0 F,0,45507,45614,0,1 F,0,45614,45814,1,0 F,0,45936,46043,0,1 F,0,46043,46243,1,0 F,0,46364,46471,0,1 F,0,46471,46671,1,0 F,0,46793,46900,0,1 F,0,46900,47100,1,0 F,0,47221,47328,0,1 F,0,47328,47528,1,0 F,0,47650,47757,0,1 F,0,47757,47957,1,0
Sprite,Foreground,Centre,"sb\Fh.png",320,240 F,0,41221,41328,0,1 M,0,41328,,688,236 F,0,41328,41528,1,0 F,0,45507,45614,0,1 F,0,45614,45814,1,0 F,0,45936,46043,0,1 F,0,46043,46243,1,0 F,0,46364,46471,0,1 F,0,46471,46671,1,0 F,0,46793,46900,0,1 F,0,46900,47100,1,0 F,0,47221,47328,0,1 F,0,47328,47528,1,0 F,0,47650,47757,0,1 F,0,47757,47957,1,0
Sprite,Foreground,Centre,"sb\2miku.jpg",320,240 F,0,47986,48186,0,1 M,0,47986,49900,320,240 F,0,48186,50328,1 F,0,51086,51614,0,1
Sprite,Foreground,Centre,"Anime_vocaloid_185425.jpg",320,240 S,0,49900,,0.8 F,0,49900,50328,0,1 F,0,50328,50757,1,0 F,0,50328,51186,1 F,0,51186,51286,1,0
Sprite,Foreground,Centre,"sb\rmiku.jpg",320,240 F,0,50328,50757,0,1 F,0,50757,51186,1,0
Sprite,Foreground,Centre,"sb\F.png",320,240 M,0,48079,,-47,236 F,0,48079,48186,0,1 F,0,48186,48386,1,0 F,0,49793,49900,0,1 F,0,49900,50100,1,0 F,0,50221,50328,0,1 F,0,50328,50528,1,0 F,0,50650,50757,0,1 F,0,50757,50957,1,0 F,0,51079,51186,0,1 F,0,51186,51386,1,0
Sprite,Foreground,Centre,"sb\Fh.png",320,240 M,0,48079,,688,236 F,0,48079,48186,0,1 F,0,48186,48386,1,0 F,0,49793,49900,0,1 F,0,49900,50100,1,0 F,0,50221,50328,0,1 F,0,50328,50528,1,0 F,0,50650,50757,0,1 F,0,50757,50957,1,0 F,0,51079,51186,0,1 F,0,51186,51386,1,0
Sprite,Foreground,Centre,"sb\mi_ku_.jpg",320,240 F,0,51414,51614,0,1 M,0,51614,55043,320,240
Sprite,Foreground,Centre,"sb\mi_ku.jpg",320,240 F,0,52471,52671,1,0 F,0,52900,53100,1,0 F,0,53328,53528,1,0 F,0,53757,53957,1,0 F,0,54186,54386,1,0
Sprite,Foreground,Centre,"sb\F.png",320,240 M,0,51507,,-47,236 F,0,51507,51614,0,1 F,0,51614,51814,1,0 F,0,52364,52471,0,1 F,0,52471,52671,1,0 F,0,52793,52900,0,1 F,0,52900,53100,1,0 F,0,53221,53328,0,1 F,0,53328,53528,1,0 F,0,53650,53757,0,1 F,0,53757,53957,1,0 F,0,54079,54186,0,1 F,0,54186,54386,1,0
Sprite,Foreground,Centre,"sb\Fh.png",320,240 M,0,51507,,688,236 F,0,51507,51614,0,1 F,0,51614,51814,1,0 F,0,52364,52471,0,1 F,0,52471,52671,1,0 F,0,52793,52900,0,1 F,0,52900,53100,1,0 F,0,53221,53328,0,1 F,0,53328,53528,1,0 F,0,53650,53757,0,1 F,0,53757,53957,1,0 F,0,54079,54186,0,1 F,0,54186,54386,1,0
Sprite,Foreground,Centre,"sb\i.jpg",320,240 F,0,55043,55471,1,0.006992996 S,0,55043,55471,1,1.04
Sprite,Foreground,Centre,"sb\i.jpg",320,240 F,0,56757,57186,1,0.006992996 S,0,56757,57186,1,1.04
Sprite,Foreground,Centre,"sb\i.jpg",320,240 F,0,57614,58043,1,0.006992996 S,0,57614,58043,1,1.04
Sprite,Foreground,Centre,"sb\F.png",320,240 M,0,56650,,-47,236 F,0,56650,56757,0,1 F,0,56757,56957,1,0 F,0,57507,57614,0,1 F,0,57614,57814,1,0
Sprite,Foreground,Centre,"sb\Fh.png",320,240 M,0,56650,,688,236 F,0,56650,56757,0,1 F,0,56757,56957,1,0 F,0,57507,57614,0,1 F,0,57614,57814,1,0
Sprite,Foreground,Centre,"sb\miku_2_.jpg",320,240 M,0,58471,61900,320,240
Sprite,Foreground,Centre,"sb\miku_2.jpg",320,240 F,0,59328,59528,1,0 F,0,59757,59957,1,0 F,0,60186,60386,1,0 F,0,60614,60814,1,0 F,0,61043,61243,1,0
Sprite,Foreground,Centre,"sb\F.png",320,240 M,0,58364,,-47,236 F,0,58364,58471,0,1 F,0,58471,58671,1,0 F,0,59221,59328,0,1 F,0,59328,59528,1,0 F,0,59650,59757,0,1 F,0,59757,59957,1,0 F,0,60079,60186,0,1 F,0,60186,60386,1,0 F,0,60507,60614,0,1 F,0,60614,60814,1,0 F,0,60936,61043,0,1 F,0,61043,61243,1,0
Sprite,Foreground,Centre,"sb\Fh.png",320,240 M,0,58364,,688,236 F,0,58364,58471,0,1 F,0,58471,58671,1,0 F,0,59221,59328,0,1 F,0,59328,59528,1,0 F,0,59650,59757,0,1 F,0,59757,59957,1,0 F,0,60079,60186,0,1 F,0,60186,60386,1,0 F,0,60507,60614,0,1 F,0,60614,60814,1,0 F,0,60936,61043,0,1 F,0,61043,61243,1,0
Sprite,Foreground,Centre,"sb\mii.jpg",320,240 F,0,61900,62328,1,0.006992996 S,0,61900,62328,1,1.04
Sprite,Foreground,Centre,"sb\red.png",320,240 F,0,62757,63186,1,0.006992996 S,0,62757,63186,1,1.1
Sprite,Foreground,Centre,"sb\blue.png",320,240 F,0,63614,64043,1,0.006992996 S,0,63614,64043,1,1.1
Sprite,Foreground,Centre,"sb\green.png",320,240 F,0,64471,64900,1,0.006992996 S,0,64471,64900,1,1.1
Sprite,Foreground,Centre,"sb\mikune.jpg",320,240 F,0,65328,65757,1,0.006992996 S,0,65328,65757,1,1.04 F,0,66186,66614,1,0.006992996 S,0,66186,66614,1,1.04
Sprite,Foreground,Centre,"sb\F.png",320,240 M,0,61793,,-47,236 F,0,61793,61900,0,1 F,0,61900,62100,1,0 F,0,62650,62757,0,1 F,0,62757,62957,1,0 F,0,63507,63614,0,1 F,0,63614,63814,1,0 F,0,64364,64471,0,1 F,0,64471,64671,1,0 F,0,65221,65328,0,1 F,0,65328,65528,1,0 F,0,66079,66186,0,1 F,0,66186,66386,1,0
Sprite,Foreground,Centre,"sb\Fh.png",320,240 M,0,61793,,688,236 F,0,61793,61900,0,1 F,0,61900,62100,1,0 F,0,62650,62757,0,1 F,0,62757,62957,1,0 F,0,63507,63614,0,1 F,0,63614,63814,1,0 F,0,64364,64471,0,1 F,0,64471,64671,1,0 F,0,65221,65328,0,1 F,0,65328,65528,1,0 F,0,66079,66186,0,1 F,0,66186,66386,1,0
Sprite,Foreground,Centre,"sb\v.png",320,240 F,0,67043,67143,0,1 F,0,67143,67243,1,0
Sprite,Foreground,Centre,"sb\v2.png",320,240 F,0,67143,67243,0,1 F,0,67243,67343,1,0
Sprite,Foreground,Centre,"sb\v.png",320,240 F,0,67243,67343,0,1 F,0,67343,67443,1,0
Sprite,Foreground,Centre,"sb\v2.png",320,240 F,0,67343,67443,0,1 F,0,67443,67543,1,0
Sprite,Foreground,Centre,"sb\v.png",320,240 F,0,67443,67543,0,1 F,0,67543,67643,1,0
Sprite,Foreground,Centre,"sb\v2.png",320,240 F,0,67543,67643,0,1 F,0,67643,67743,1,0
Sprite,Foreground,Centre,"sb\v.png",320,240 F,0,67643,67743,0,1 F,0,67743,67843,1,0
Sprite,Foreground,Centre,"sb\v2.png",320,240 F,0,67743,67843,0,1 F,0,67843,67943,1,0
Sprite,Foreground,Centre,"sb\v.png",320,240 F,0,67843,67943,0,1 F,0,67943,68043,1,0
Sprite,Foreground,Centre,"sb\v2.png",320,240 F,0,67943,68043,0,1 F,0,68043,68143,1,0
Sprite,Foreground,Centre,"sb\v.png",320,240 F,0,68043,68143,0,1 F,0,68143,68243,1,0
Sprite,Foreground,Centre,"sb\v2.png",320,240 F,0,68143,68243,0,1 F,0,68243,68343,1,0
Sprite,Foreground,Centre,"sb\v.png",320,240 F,0,68243,68343,0,1 F,0,68343,68443,1,0
Sprite,Foreground,Centre,"sb\bu.jpg",320,240 M,0,40793,,320,240 S,0,40793,,1.148645 F,0,40793,40900,0,1 F,0,40900,41328,1,0
Sprite,Foreground,Centre,"sb\c.png",320,240 M,0,55043,,137,165 F,0,55043,55686,1,0 S,0,55043,55686,1,1.487226
Sprite,Foreground,Centre,"sb\pc.png",320,240 M,0,55043,,512,64 F,0,55043,55686,1,0 S,0,55043,55686,0.3310969,0.8678712
Sprite,Foreground,Centre,"sb\pc2.png",320,240 M,0,55043,,571,419 F,0,55043,55686,1,0 S,0,55043,55686,0.7027097,1.445936
Sprite,Foreground,Centre,"sb\bc.png",320,240 M,0,68650,,713,452 F,0,68650,68757,0,1 R,0,68650,72186,0,5.587632 S,0,68757,,0.975226 F,0,68757,82043,1 R,0,72186,75614,5.587632,11.85099 R,0,75614,79043,11.85099,18.11401 R,0,79043,,18.11401 R,0,79043,82471,18.11401,24.34059 F,0,82043,82471,1,0
Sprite,Foreground,Centre,"sb\bc.png",320,240 F,0,68650,68757,0,1 R,0,68650,72186,0,-6.969807 M,0,68757,,714,445 S,0,68757,,0.6779358 F,0,68757,82043,1 R,0,72186,75614,-6.969807,-13.27897 R,0,75614,79043,-13.27897,-19.58813 R,0,79043,82471,-19.58813,-25.94684 F,0,82043,82471,1,0
Sprite,Foreground,Centre,"sb\c.png",320,240 F,0,37900,38757,0,0.8720001 M,0,37900,40900,320,240,304,256 R,0,37900,40900,0,2.906839
Sprite,Foreground,Centre,"sb\Male.png",320,240 M,0,68757,,179,238 S,0,68757,,0.5 F,0,68757,68864,0.01729042,1 F,0,68864,68971,1,0 F,0,68971,69078,0,1 F,0,69078,69186,1,0.8051613 F,0,69186,69614,0.8051613,0.4654745 F,0,69614,70043,0.4654745,1 F,0,70043,72186,1 F,0,72186,72293,1,0 F,0,79043,79150,0.01729042,1 F,0,79150,79257,1,0 F,0,79257,79364,0,1 F,0,79364,79471,1,0.8051613 F,0,79471,79900,0.8051613,0.4654745 F,0,79900,80328,0.4654745,1 F,0,80328,82471,1 F,0,82471,83328,1,0 S,0,82471,83328,0.5,0.3
Sprite,Foreground,Centre,"sb\Female.png",320,240 M,0,72186,,432,240 S,0,72186,,0.5 F,0,72186,72614,0,1 F,0,72614,73043,1,0.7027097 F,0,73043,73471,0.7027097,1 F,0,73471,73900,1,0.6779355 F,0,73900,74328,0.6779355,1 F,0,74328,75614,1 F,0,75614,75721,1,0 M,0,79043,,463,240 F,0,79043,79150,0.01729042,1 F,0,79150,79257,1,0 F,0,79257,79364,0,1 F,0,79364,79471,1,0.8051613 F,0,79471,79900,0.8051613,0.4654745 F,0,79900,80328,0.4654745,1 F,0,80328,82471,1 F,0,82471,83328,1,0 S,0,82471,83328,0.5,0.3
Sprite,Foreground,Centre,"sb\ht.png",320,240 M,0,75614,,320,241 S,0,75614,,1 F,0,75614,76043,0,1 F,0,76043,76096,1,0.2518709 F,0,76096,76150,0.2518709,1 F,0,76150,76203,1,0.2518709 F,0,76203,76257,0.2518709,0.6861935 F,0,76257,76471,0.6861935,1 F,0,76471,76686,1,0.355871 F,0,76686,76900,0.355871,1 F,0,76900,77114,1,0.2815483 F,0,77114,77328,0.2815483,1 F,0,77328,82043,1 F,0,82043,82096,1,0.5169032 F,0,82096,82150,0.5169032,1 F,0,82150,82203,1,0.4425806 F,0,82203,82257,0.4425806,1 F,0,82257,82311,1,0.5499355 F,0,82311,82364,0.5499355,1 F,0,82364,82418,1,0.6449032 F,0,82418,82471,0.6449032,0
Sprite,Foreground,Centre,"sb\c.png",320,240 M,0,79043,,262,201 F,0,79043,79471,1,0 S,0,79043,79471,0.3806452,1.239484
Sprite,Foreground,Centre,"sb\c.png",320,240 M,0,79257,,381,220 F,0,79257,79686,1,0 S,0,79257,79686,0.355871,1.107355
Sprite,Foreground,Centre,"sb\c.png",320,240 M,0,79471,,286,277 F,0,79471,79900,1,0 S,0,79471,79900,0.4054193,1.024774
Sprite,Foreground,Centre,"sb\pc2.png",320,240 F,0,79043,79471,1,0 S,0,79043,79471,0.2815483,0.7770323 M,0,79471,,222,354
Sprite,Foreground,Centre,"sb\htb.png",320,240 M,0,82471,,320,240 F,0,82471,83328,1,0 S,0,82471,83328,1,1.3
Sprite,Foreground,Centre,"sb\bc.png",320,240 S,0,79043,,0.3310968 F,0,79043,79471,0,0.4384516 R,0,79043,82900,0,-5.086968 F,0,79471,80757,0.4384516,0.6779355 F,0,80757,82471,0.6779355,0.2732903 F,0,82471,82900,0.2732903,0
Sprite,Foreground,Centre,"sb\pdaf.png",320,240 F,0,96114,96186,0,0.6903228 F,0,96186,97043,0.6903228,0 S,0,96186,102936,0.8265806 M,0,96186,109793,338,249 F,0,97043,102989,0 S,0,102936,102989,0.8265806,1.074323 F,0,102989,103043,0,1 S,0,102989,109793,1.074323 F,0,103043,104328,1,0 F,0,104328,109846,0 M,0,109793,109846,338,249,496,225 S,0,109793,109846,1.074323,1.520259 F,0,109846,109900,0,1 F,0,109900,110757,1,0
Sprite,Foreground,Centre,"sb\F.png",320,240 M,0,43364,,-47,236 F,0,43364,43471,0,0.7679999 F,0,43471,43900,0.7679999,0 F,0,44221,44328,0,0.7679999 F,0,44328,44757,0.7679999,0
Sprite,Foreground,Centre,"sb\Fh.png",320,240 M,0,43364,,688,236 F,0,43364,43471,0,0.7679999 F,0,43471,43900,0.7679999,0 F,0,44221,44328,0,0.7679999 F,0,44328,44757,0.7679999,0
Sprite,Foreground,Centre,"sb\F.png",320,240 M,0,40793,,-47,236 F,0,40793,40900,0,0.7679999 F,0,40900,41328,0.7679999,0 F,0,41328,44650,0 F,0,42936,43043,0,0.7679999 F,0,43043,43471,0.7679999,0 F,0,43793,43900,0,0.7679999 F,0,43900,44328,0.7679999,0 F,0,44650,44757,0,0.7761037 F,0,44757,45614,0.7761037,0 F,0,45614,54936,0 F,0,54936,55043,0,0.7184516 F,0,55043,55900,0.7184516,0
Sprite,Foreground,Centre,"sb\Fh.png",320,240 M,0,40793,,688,236 F,0,40793,40900,0,0.7679999 F,0,40900,41328,0.7679999,0 F,0,41328,44650,0 F,0,42936,43043,0,0.7679999 F,0,43043,43471,0.7679999,0 F,0,43793,43900,0,0.7679999 F,0,43900,44328,0.7679999,0 F,0,44650,44757,0,0.7761037 F,0,44757,45614,0.7761037,0 F,0,45614,54936,0 F,0,54936,55043,0,0.7184516 F,0,55043,55900,0.7184516,0
Sprite,Foreground,Centre,"sb\F.png",320,240 M,0,20703,,-47,236 F,0,20703,20757,0,0.3104516 F,0,20757,21614,0.3104516,0 F,0,21614,24132,0 F,0,24132,24186,0,0.4170322 F,0,24186,25043,0.4170322,0
Sprite,Foreground,Centre,"sb\Fh.png",320,240 M,0,20703,,688,236 F,0,20703,20757,0,0.3104516 F,0,20757,21614,0.3104516,0 F,0,21614,24132,0 F,0,24132,24186,0,0.4170322 F,0,24186,25043,0.4170322,0
Sprite,Foreground,Centre,"sb\last03.png",320,240 M,0,97257,,46,283 S,0,97257,,0.6201291 F,0,97257,97471,0,0.7556131 F,0,97471,98757,0.7556131,0.3778065 F,0,98757,99186,0.3778065,0
Sprite,Foreground,Centre,"sb\last01.png",320,240 F,0,104114,104328,0,0.5334192 M,0,104328,,66,370 S,0,104328,,0.5127741 F,0,104328,105614,0.5334192,0.3509676 F,0,105614,106043,0.3509676,0.00373891
Sprite,Foreground,Centre,"sb\last02.png",320,240 F,0,110757,110971,0,0.4425806 M,0,110971,,314,432 S,0,110971,,0.5540643 F,0,110971,112043,0.4425806,0.5458063 F,0,112043,112900,0.5458063,0.001275245
Sprite,Foreground,Centre,"sb\Female.png",320,240 F,0,83221,83328,0,1 M,0,83328,,360,238 S,0,83328,,0.5 F,0,83328,83703,1,0.5416774 F,0,83703,83757,0.5416774,0.8265807 F,0,83757,84132,0.8265807 F,0,84132,84186,0.8265807,1 F,0,84186,94471,1 F,0,94471,95757,1,0
Sprite,Foreground,Centre,"sb\Male.png",320,240 F,0,83221,83328,0,1 M,0,83328,,297,238 S,0,83328,,0.5 F,0,83328,83703,1,0.5212055 F,0,83703,83757,0.5212055,0.8018064 F,0,83757,84132,0.8018064,0.7621331 F,0,84132,84186,0.7621331,1 F,0,84186,84614,1 F,0,84614,94471,1 F,0,94471,95757,1,0
Sprite,Foreground,Centre,"sb\Female.png",320,240 M,0,84186,,158,163 S,0,84186,,0.2 F,0,84186,84614,0,1 F,0,84614,94471,1
Sprite,Foreground,Centre,"sb\Male.png",320,240 M,0,84186,,130,163 S,0,84186,,0.2 F,0,84186,84614,0,1 F,0,84614,94471,1
Sprite,Foreground,Centre,"sb\Female.png",320,240 M,0,84186,,177,274 S,0,84186,,0.2 F,0,84186,84614,0,1 F,0,84614,94471,1
Sprite,Foreground,Centre,"sb\Male.png",320,240 M,0,84186,,149,274 S,0,84186,,0.2 F,0,84186,84614,0,1 F,0,84614,94471,1
Sprite,Foreground,Centre,"sb\Female.png",320,240 M,0,84186,,395,101 S,0,84186,,0.2 F,0,84186,84614,0,1 F,0,84614,94471,1
Sprite,Foreground,Centre,"sb\Male.png",320,240 M,0,84186,,367,101 S,0,84186,,0.2 F,0,84186,84614,0,1 F,0,84614,94471,1
Sprite,Foreground,Centre,"sb\Female.png",320,240 M,0,84186,,463,230 S,0,84186,,0.2 F,0,84186,84614,0,1 F,0,84614,94471,1
Sprite,Foreground,Centre,"sb\Male.png",320,240 M,0,84186,,435,230 S,0,84186,,0.2 F,0,84186,84614,0,1 F,0,84614,94471,1
Sprite,Foreground,Centre,"sb\Female.png",320,240 M,0,84186,,587,35 S,0,84186,,0.2 F,0,84186,84614,0,1 F,0,84614,94471,1
Sprite,Foreground,Centre,"sb\Male.png",320,240 M,0,84186,,559,35 S,0,84186,,0.2 F,0,84186,84614,0,1 F,0,84614,94471,1
Sprite,Foreground,Centre,"sb\Female.png",320,240 M,0,84186,,-42,304 S,0,84186,,0.2 F,0,84186,84614,0,1 F,0,84614,94471,1
Sprite,Foreground,Centre,"sb\Male.png",320,240 M,0,84186,,-70,304 S,0,84186,,0.2 F,0,84186,84614,0,1 F,0,84614,94471,1
Sprite,Foreground,Centre,"sb\Female.png",320,240 M,0,84186,,250,395 S,0,84186,,0.2 F,0,84186,84614,0,1 F,0,84614,94471,1
Sprite,Foreground,Centre,"sb\Male.png",320,240 M,0,84186,,222,395 S,0,84186,,0.2 F,0,84186,84614,0,1 F,0,84614,94471,1
Sprite,Foreground,Centre,"sb\Female.png",320,240 M,0,84186,,559,272 S,0,84186,,0.2 F,0,84186,84614,0,1 F,0,84614,94471,1
Sprite,Foreground,Centre,"sb\Male.png",320,240 M,0,84186,,531,272 S,0,84186,,0.2 F,0,84186,84614,0,1 F,0,84614,94471,1
Sprite,Foreground,Centre,"sb\Female.png",320,240 M,0,84614,,473,360 S,0,84614,,0.2 F,0,84614,85043,0,1 F,0,85043,94471,1
Sprite,Foreground,Centre,"sb\Male.png",320,240 M,0,84614,,445,360 S,0,84614,,0.2 F,0,84614,85043,0,1 F,0,85043,94471,1
Sprite,Foreground,Centre,"sb\Female.png",320,240 M,0,84614,,169,21 S,0,84614,,0.2 F,0,84614,85043,0,1 F,0,85043,94471,1
Sprite,Foreground,Centre,"sb\Male.png",320,240 M,0,84614,,141,21 S,0,84614,,0.2 F,0,84614,85043,0,1 F,0,85043,94471,1
Sprite,Foreground,Centre,"sb\Female.png",320,240 M,0,84614,,76,353 S,0,84614,,0.2 F,0,84614,85043,0,1 F,0,85043,94471,1
Sprite,Foreground,Centre,"sb\Male.png",320,240 M,0,84614,,48,353 S,0,84614,,0.2 F,0,84614,85043,0,1 F,0,85043,94471,1
Sprite,Foreground,Centre,"sb\Female.png",320,240 M,0,84614,,20,400 S,0,84614,,0.2 F,0,84614,85043,0,1 F,0,85043,94471,1
Sprite,Foreground,Centre,"sb\Male.png",320,240 M,0,84614,,-8,400 S,0,84614,,0.2 F,0,84614,85043,0,1 F,0,85043,94471,1
Sprite,Foreground,Centre,"sb\Female.png",320,240 M,0,84614,,530,127 S,0,84614,,0.2 F,0,84614,85043,0,1 F,0,85043,94471,1
Sprite,Foreground,Centre,"sb\Male.png",320,240 M,0,84614,,502,127 S,0,84614,,0.2 F,0,84614,85043,0,1 F,0,85043,94471,1
Sprite,Foreground,Centre,"sb\Female.png",320,240 M,0,84614,,671,177 S,0,84614,,0.2 F,0,84614,85043,0,1 F,0,85043,94471,1
Sprite,Foreground,Centre,"sb\Male.png",320,240 M,0,84614,,643,177 S,0,84614,,0.2 F,0,84614,85043,0,1 F,0,85043,94471,1
Sprite,Foreground,Centre,"sb\Female.png",320,240 M,0,84614,,694,-2 S,0,84614,,0.2 F,0,84614,85043,0,1 F,0,85043,94471,1
Sprite,Foreground,Centre,"sb\Male.png",320,240 M,0,84614,,666,-2 S,0,84614,,0.2 F,0,84614,85043,0,1 F,0,85043,94471,1
Sprite,Foreground,Centre,"sb\Female.png",320,240 M,0,85043,,70,240 S,0,85043,,0.2 F,0,85043,85471,0,1 F,0,85471,94471,1
Sprite,Foreground,Centre,"sb\Male.png",320,240 M,0,85043,,42,240 S,0,85043,,0.2 F,0,85043,85471,0,1 F,0,85471,94471,1
Sprite,Foreground,Centre,"sb\Female.png",320,240 M,0,85043,,248,97 S,0,85043,,0.2 F,0,85043,85471,0,1 F,0,85471,94471,1
Sprite,Foreground,Centre,"sb\Male.png",320,240 M,0,85043,,220,97 S,0,85043,,0.2 F,0,85043,85471,0,1 F,0,85471,94471,1
Sprite,Foreground,Centre,"sb\Female.png",320,240 M,0,85043,,324,-13 S,0,85043,,0.2 F,0,85043,85471,0,1 F,0,85471,94471,1
Sprite,Foreground,Centre,"sb\Male.png",320,240 M,0,85043,,296,-13 S,0,85043,,0.2 F,0,85043,85471,0,1 F,0,85471,94471,1
Sprite,Foreground,Centre,"sb\Female.png",320,240 M,0,85043,,375,442 S,0,85043,,0.2 F,0,85043,85471,0,1 F,0,85471,94471,1
Sprite,Foreground,Centre,"sb\Male.png",320,240 M,0,85043,,347,442 S,0,85043,,0.2 F,0,85043,85471,0,1 F,0,85471,94471,1
Sprite,Foreground,Centre,"sb\Female.png",320,240 M,0,85043,,-87,216 S,0,85043,,0.2 F,0,85043,85471,0,1 F,0,85471,94471,1
Sprite,Foreground,Centre,"sb\Male.png",320,240 M,0,85043,,-115,216 S,0,85043,,0.2 F,0,85043,85471,0,1 F,0,85471,94471,1
Sprite,Foreground,Centre,"sb\Female.png",320,240 M,0,85471,,470,8 S,0,85471,,0.2 F,0,85471,85900,0,1 F,0,85900,94471,1
Sprite,Foreground,Centre,"sb\Male.png",320,240 M,0,85471,,442,8 S,0,85471,,0.2 F,0,85471,85900,0,1 F,0,85900,94471,1
Sprite,Foreground,Centre,"sb\Female.png",320,240 M,0,85471,,349,429 S,0,85471,,0.2 F,0,85471,85900,0,1 F,0,85900,94471,1
Sprite,Foreground,Centre,"sb\Male.png",320,240 M,0,85471,,321,429 S,0,85471,,0.2 F,0,85471,85900,0,1 F,0,85900,94471,1
Sprite,Foreground,Centre,"sb\Female.png",320,240 M,0,85471,,555,459 S,0,85471,,0.2 F,0,85471,85900,0,1 F,0,85900,94471,1
Sprite,Foreground,Centre,"sb\Male.png",320,240 M,0,85471,,527,459 S,0,85471,,0.2 F,0,85471,85900,0,1 F,0,85900,94471,1
Sprite,Foreground,Centre,"sb\Female.png",320,240 M,0,85471,,762,238 S,0,85471,,0.2 F,0,85471,85900,0,1 F,0,85900,94471,1
Sprite,Foreground,Centre,"sb\Male.png",320,240 M,0,85471,,740,238 S,0,85471,,0.2 F,0,85471,85900,0,1 F,0,85900,94471,1
Sprite,Foreground,Centre,"sb\Female.png",320,240 M,0,85471,,379,415 S,0,85471,,0.2 F,0,85471,85900,0,1 F,0,85900,94471,1
Sprite,Foreground,Centre,"sb\Male.png",320,240 M,0,85471,,351,415 S,0,85471,,0.2 F,0,85471,85900,0,1 F,0,85900,94471,1
Sprite,Foreground,Centre,"sb\Female.png",320,240 M,0,85471,,151,424 S,0,85471,,0.2 F,0,85471,85900,0,1 F,0,85900,94471,1
Sprite,Foreground,Centre,"sb\Male.png",320,240 M,0,85471,,123,424 S,0,85471,,0.2 F,0,85471,85900,0,1 F,0,85900,94471,1
Sprite,Foreground,Centre,"sb\Female.png",320,240 M,0,85471,,712,101 S,0,85471,,0.2 F,0,85471,85900,0,1 F,0,85900,94471,1
Sprite,Foreground,Centre,"sb\Male.png",320,240 M,0,85471,,684,101 S,0,85471,,0.2 F,0,85471,85900,0,1 F,0,85900,94471,1
Sprite,Foreground,Centre,"sb\happppppppy.png",320,240 F,0,83650,83757,0,1 M,0,83757,,720,420 S,0,83757,,1.2 F,0,83757,84132,1,0.2030968 F,0,84132,84186,0.2030968,1 F,0,84186,94471,1 R,0,84757,95757,0,-25.133 F,0,94471,95757,1,0
Sprite,Foreground,Centre,"sb\saaaad.png",320,240 F,0,84078,84186,0,1 M,0,84132,,-70,50 S,0,84132,,1.2 F,0,84186,84614,1 F,0,84614,94471,1 R,0,84757,95757,0,-25.133 F,0,94471,95757,1,0
Sprite,Foreground,Centre,"sb\Crs.png",320,240 F,0,85793,85900,0,1 M,0,85900,,232,104 S,0,85900,,0.496258 F,0,85900,86703,1,0 R,0,85905,,0.1321289 R,0,85905,89328,0.1321289 F,0,86703,86757,0,0.5285161 F,0,86757,86864,0.5285161,0 F,0,86864,86971,0,0.8877419 F,0,86971,87132,0.8877419,0 F,0,87132,87186,0,0.4789677 F,0,87186,87346,0.4789677,0 F,0,87346,87400,0,0.8423226 F,0,87400,87561,0.8423226,0 F,0,87561,87614,0,1 F,0,87614,87775,1,0 F,0,87775,87828,0,1 F,0,87828,87989,1,0 F,0,87989,88043,0,1 F,0,88043,88471,1,0.4756129 F,0,88471,88900,0.4756129,0 F,0,88900,89328,0,1 F,0,89328,94471,1 R,0,89328,95757,0.1321289,0.3798706 F,0,94471,95757,1,0
Sprite,Foreground,Centre,"sb\Crs.png",320,240 F,0,89221,89328,0,1 M,0,89328,,449,230 S,0,89328,,0.7357419 F,0,89328,90132,1,0 R,0,89328,95757,-0.04954834,-0.1816773 F,0,90132,90186,0,1 F,0,90186,90561,1,0 F,0,90561,90614,0,1 F,0,90614,90989,1,0 F,0,90989,91043,0,1 F,0,91043,91900,1 F,0,91900,94471,1 F,0,94471,95757,1,0
Sprite,Foreground,Centre,"sb\Crs.png",320,240 S,0,92650,,0.5045164 F,0,92650,92757,0,1 M,0,92650,95757,165,271 R,0,92650,95757,0,0.198194 F,0,92757,93132,1,0.4622152 F,0,93132,93186,0.4622152,0.6077418 F,0,93186,93614,0.6077418,1 F,0,93614,94471,1 F,0,94471,95757,1,0
Sprite,Foreground,Centre,"sb\Crs.png",320,240 F,0,93561,93614,0,1 S,0,93614,,1.04129 R,0,93614,,-0.1486453 F,0,93614,94471,1 M,0,93614,95757,25,119,24,142 F,0,94471,95757,1,0
Sprite,Foreground,Centre,"sb\Crs.png",320,240 F,0,94203,94257,0,1 M,0,94203,95757,4,410,4,436 F,0,94257,94471,1 S,0,94471,,0.6696776 R,0,94471,,-0.4129034 F,0,94471,95757,1,0
Sprite,Foreground,Centre,"sb\Crs.png",320,240 S,0,93828,,1.066064 R,0,93828,,0.08258057 F,0,93828,94471,1 M,0,93828,95757,360,419,361,438 F,0,94471,95757,1,0
Sprite,Foreground,Centre,"sb\Crs.png",320,240 S,0,94043,,1.429419 R,0,94043,,0.2807742 F,0,94043,94471,1 M,0,94043,95757,568,50,568,68 F,0,94471,95757,1,0
Sprite,Foreground,Centre,"sb\hand.png",320,240 F,0,116650,116757,0,1 M,0,116757,,551,310 S,0,116757,,0.4301935 R,0,116757,,-0.2807739 F,0,116757,120186,1,0
Sprite,Foreground,Centre,"sb\hand_.png",320,240 M,0,118418,,329,120 S,0,118418,,0.5292904 R,0,118418,,0.6936771 F,0,118418,118471,0,1 F,0,118471,121900,1,0
Sprite,Foreground,Centre,"sb\hand.png",320,240 M,0,120025,,24,187 S,0,120025,,0.7 R,0,120025,,-0.4459351 F,0,120025,120132,0 F,0,120132,120186,0,1 F,0,120186,121793,1,0 F,0,121793,121900,0,0.3393549 F,0,121900,123614,0.3393549,0
Sprite,Foreground,Centre,"sb\ty.png",320,240 M,0,119757,,509,458 S,0,119757,,0.1 F,0,123614,124043,0,1 F,0,124043,125328,1 F,0,125328,127043,1,0
//Storyboard Sound Samples
//Background Colour Transformations
3,100,0,0,0

[TimingPoints]
186,428.571428571429,4,2,1,70,1,0
186,-100,4,2,1,70,0,0
1043,-100,4,2,2,50,0,0
1793,-100,4,2,0,10,0,0
1900,-100,4,2,1,50,0,0
2328,-100,4,2,1,10,0,0
2757,-100,4,2,2,50,0,0
3186,-100,4,2,2,10,0,0
3614,-100,4,2,2,70,0,0
4043,-100,4,2,1,10,0,0
4471,-100,4,2,1,10,0,0
5757,-100,4,2,2,50,0,0
6400,-100,4,1,3,100,0,0
6936,-100,4,2,1,30,0,0
7043,-100,4,2,1,50,0,0
7364,-100,4,2,1,10,0,0
7471,-100,4,2,1,50,0,0
7900,-100,4,2,2,50,0,0
8114,-100,4,2,1,50,0,0
9186,-100,4,2,2,10,0,0
10471,-100,4,2,1,50,0,0
10900,-100,4,2,1,5,0,0
11328,-100,4,2,1,10,0,0
11436,-100,4,2,1,50,0,0
12614,-100,4,2,1,60,0,0
13043,-100,4,2,2,70,0,0
13471,-100,4,1,5,70,0,0
13900,-100,4,1,98,80,0,0
14007,-100,4,1,5,80,0,0
14757,-100,4,1,5,60,0,0
15186,-100,4,2,5,80,0,0
15561,-100,4,1,97,80,0,0
15721,-100,4,2,5,30,0,0
16257,-100,4,1,5,60,0,0
16364,-100,4,2,5,30,0,0
16471,-100,4,1,5,70,0,0
16578,-100,4,2,5,80,0,0
17221,-100,4,1,96,60,0,0
17757,-100,4,1,5,60,0,0
17971,-100,4,2,5,100,0,0
18186,-100,4,1,5,60,0,0
18400,-100,4,1,5,80,0,0
18989,-100,4,1,98,60,0,0
19471,-100,4,1,5,60,0,0
19686,-100,4,1,5,50,0,0
19900,-100,4,1,5,60,0,0
20328,-100,4,1,3,100,0,0
20543,-100,4,1,5,100,0,0
20757,-100,4,1,5,80,0,0
20971,-100,4,2,5,30,0,0
21186,-100,4,2,5,30,0,0
21507,-100,4,1,5,60,0,0
21721,-100,4,2,5,30,0,0
22418,-100,4,1,97,60,0,0
22578,-100,4,1,5,30,0,0
23114,-100,4,1,5,70,0,0
23221,-100,4,2,5,30,0,0
23328,-100,4,1,5,70,0,0
23436,-100,4,2,5,30,0,0
24078,-100,4,1,96,80,0,0
24293,-100,4,2,5,30,0,0
24775,-100,4,1,5,80,0,0
25364,-100,4,2,5,30,0,0
25471,-100,4,1,5,80,0,0
25578,-100,4,2,5,30,0,0
25686,-100,4,1,5,80,0,0
25793,-100,4,2,5,30,0,0
25900,-100,4,1,5,80,0,0
26114,-100,4,2,5,80,0,0
26543,-100,4,1,5,50,0,0
27186,-100,4,1,5,30,0,0
27293,-100,4,2,5,30,0,0
27614,-100,4,1,6,60,0,0
28900,-100,4,1,6,100,0,0
29007,-100,4,2,1,70,0,0
29114,-100,4,2,7,70,0,0
29221,-100,4,2,1,70,0,0
29328,-100,4,1,6,100,0,0
29436,-100,4,2,1,70,0,0
29543,-100,4,2,7,70,0,0
29650,-100,4,2,1,70,0,0
29757,-100,4,1,6,100,0,0
29864,-100,4,2,0,70,0,0
30078,-100,4,2,0,20,0,0
30186,-100,4,1,6,100,0,0
30400,-100,4,2,0,70,0,0
30614,-100,4,1,5,70,0,0
31043,-100,4,1,6,60,0,0
32328,-100,4,1,6,100,0,0
32436,-100,4,2,1,70,0,0
32543,-100,4,2,7,70,0,0
32650,-100,4,2,1,30,0,0
32757,-100,4,1,6,100,0,0
32864,-100,4,2,1,70,0,0
32971,-100,4,2,7,70,0,0
33078,-100,4,2,1,70,0,0
33186,-100,4,1,6,100,0,0
33400,-100,4,2,0,70,0,0
33507,-100,4,2,0,20,0,0
33614,-100,4,1,6,100,0,0
33828,-100,4,2,0,70,0,0
34043,-100,4,1,5,80,0,0
34471,-100,4,1,6,80,0,0
35757,-100,4,1,6,100,0,0
35864,-100,4,2,2,30,0,0
35971,-100,4,2,7,70,0,0
36078,-100,4,2,2,70,0,0
36186,-100,4,1,6,70,0,0
36614,-100,4,1,6,75,0,0
37043,-100,4,1,6,80,0,0
37471,-100,4,1,6,100,0,0
37900,-100,4,1,6,30,0,0
38328,-100,4,1,6,50,0,0
38757,-100,4,1,6,70,0,0
39186,-100,4,1,6,90,0,0
39614,-100,4,1,5,90,0,0
40257,-100,4,1,5,100,0,0
40900,-100,4,1,99,80,0,0
41328,-100,4,1,8,80,0,0
42186,-100,4,1,8,80,0,0
42936,-100,4,1,5,100,0,0
43471,-100,4,1,8,80,0,0
44328,-100,4,1,8,80,0,0
44757,-100,4,1,80,80,0,0
45614,-100,4,1,8,80,0,0
46471,-100,4,1,8,80,0,0
47114,-100,4,1,8,80,0,0
47328,-100,4,1,8,80,0,0
47436,-100,4,1,8,80,0,0
47811,-100,4,1,8,80,0,0
48132,-100,4,1,80,80,0,0
48293,-100,4,1,8,80,0,0
49043,-100,4,1,8,80,0,0
49900,-100,4,1,8,80,0,0
50328,-100,4,1,8,80,0,0
51132,-100,4,1,80,80,0,0
51293,-100,4,1,8,80,0,0
51507,-100,4,1,80,80,0,0
51721,-100,4,1,8,80,0,0
52471,-100,4,1,8,80,0,0
53328,-100,4,1,8,80,0,0
53971,-100,4,1,8,80,0,0
54400,-100,4,1,8,80,0,0
54989,-100,4,1,80,80,0,0
55150,-100,4,1,8,80,0,0
56757,-100,4,1,8,80,0,0
57186,-100,4,1,8,80,0,0
58043,-100,4,1,8,80,0,0
58364,-100,4,1,80,80,0,0
58793,-100,4,1,8,80,0,0
59328,-100,4,1,8,80,0,0
60186,-100,4,1,8,80,0,0
60828,-100,4,1,8,80,0,0
61257,-100,4,1,8,80,0,0
61578,-100,4,1,8,80,0,0
61846,-100,4,1,80,80,0,0
62007,-100,4,1,8,80,0,0
62757,-100,4,1,8,80,0,0
63614,-100,4,1,8,80,0,0
64043,-100,4,1,8,80,0,0
65221,-100,4,1,80,80,0,0
65543,-100,4,1,8,80,0,0
66186,-100,4,1,8,80,0,0
66989,-100,4,1,80,100,0,0
68328,-100,4,1,3,100,0,0
68703,-100,4,1,80,80,0,0
69186,-100,4,1,8,80,0,0
69400,-100,4,1,8,80,0,0
69614,-100,4,1,8,80,0,0
70471,-100,4,1,8,80,0,0
70900,-100,4,1,8,80,0,0
71757,-100,4,1,8,80,0,0
71971,-100,4,1,8,80,0,0
72114,-100,4,1,80,80,0,0
73043,-100,4,1,8,80,0,0
73900,-100,4,1,8,80,0,0
74543,-100,4,1,8,80,0,0
74971,-100,4,1,8,80,0,0
75293,-100,4,1,8,80,0,0
75561,-100,4,1,80,80,0,0
76043,-100,4,1,8,80,0,0
76471,-100,4,1,8,80,0,0
77328,-100,4,1,8,80,0,0
77757,-100,4,1,8,80,0,0
78936,-100,4,1,80,80,0,0
79364,-100,4,1,8,80,0,0
79900,-100,4,1,8,80,0,0
80757,-100,4,1,8,80,0,0
81400,-100,4,1,8,80,0,0
81828,-100,4,1,8,80,0,0
82150,-100,4,1,8,80,0,0
82257,-100,4,1,8,80,0,0
82471,-100,4,1,8,80,0,0
84186,-100,4,1,8,80,0,0
84614,-100,4,1,8,80,0,0
85471,-100,4,1,8,80,0,0
85793,-100,4,1,80,80,0,0
86757,-100,4,1,8,80,0,0
87614,-100,4,1,8,80,0,0
88257,-100,4,1,8,80,0,0
88686,-100,4,1,8,80,0,0
89007,-100,4,1,8,80,0,0
89275,-100,4,1,80,80,0,0
90186,-100,4,1,8,80,0,0
91043,-100,4,1,8,80,0,0
91364,-100,4,1,8,80,0,0
92703,-100,4,1,80,80,0,0
93186,-100,4,1,8,80,0,0
93614,-100,4,1,8,80,0,0
94418,-100,4,1,80,80,0,0
95650,-100,4,1,3,100,0,0
96078,-100,4,1,5,30,0,0
96186,-100,4,1,5,60,0,0
97043,-100,4,1,5,80,0,0
97150,-100,4,1,5,30,0,0
97471,-100,4,2,5,60,0,0
97900,-100,4,1,5,80,0,0
98007,-100,4,1,5,30,0,0
98543,-100,4,1,5,80,0,0
98650,-100,4,1,5,30,0,0
98757,-100,4,1,5,80,0,0
98864,-100,4,2,5,30,0,0
99186,-100,4,2,5,60,0,0
99614,-100,4,1,5,80,0,0
100043,-100,4,2,5,30,0,0
100257,-100,4,2,5,30,0,0
100471,-100,4,1,5,80,0,0
100578,-100,4,2,5,60,0,0
101328,-100,4,1,5,80,0,0
101757,-100,4,2,5,60,0,0
101971,-100,4,1,5,80,0,0
102507,-100,4,2,5,80,0,0
102614,-100,4,1,3,80,0,0
102989,-100,4,1,10,80,0,0
103150,-100,4,2,10,80,0,0
103900,-100,4,1,10,80,0,0
104114,-100,4,2,10,80,0,0
104703,-100,4,1,10,80,0,0
104971,-100,4,2,10,80,0,0
105346,-100,4,1,10,65,0,0
105507,-100,4,2,10,80,0,0
105561,-100,4,1,10,80,0,0
105721,-100,4,2,10,80,0,0
106418,-100,4,1,10,80,0,0
106686,-100,4,2,10,80,0,0
107275,-100,4,1,10,80,0,0
107543,-100,4,2,10,80,0,0
108132,-100,4,1,10,80,0,0
108400,-100,4,2,10,80,0,0
108828,-100,4,1,10,80,0,0
109471,-100,4,1,3,100,0,0
109793,-100,4,2,10,30,0,0
109900,-100,4,1,10,80,0,0
110007,-100,4,2,10,80,0,0
110328,-100,4,2,10,80,0,0
110703,-100,4,1,10,60,0,0
110864,-100,4,2,10,60,0,0
111614,-100,4,1,10,60,0,0
111721,-100,4,2,10,60,0,0
112043,-100,4,2,10,60,0,0
112257,-100,4,1,10,60,0,0
112364,-100,4,2,10,60,0,0
112471,-100,4,1,10,60,0,0
112578,-100,4,2,10,60,0,0
113328,-100,4,1,10,60,0,0
113436,-100,4,2,10,60,0,0
113757,-100,4,2,10,60,0,0
114186,-100,4,1,10,60,0,0
114614,-100,4,2,10,60,0,0
115043,-100,4,1,10,35,0,0
115150,-100,4,2,10,35,0,0
115686,-100,4,1,10,20,0,0
115900,-100,4,1,10,20,0,0
116221,-100,4,2,10,20,0,0
116328,-100,4,1,3,100,0,0
116650,-100,4,2,10,15,0,0
116757,-100,4,1,10,15,0,0
116864,-100,4,2,10,15,0,0
117614,-100,4,1,10,15,0,0
117721,-100,4,2,10,15,0,0
118471,-100,4,1,10,10,0,0
118578,-100,4,2,10,10,0,0
119114,-100,4,1,10,10,0,0
119221,-100,4,2,10,10,0,0
119328,-100,4,1,10,10,0,0
119436,-100,4,2,10,10,0,0
120186,-100,4,1,10,10,0,0
120293,-100,4,2,10,10,0,0
120828,-100,4,1,10,10,0,0
121578,-100,4,2,10,10,0,0
121900,-100,4,1,10,8,0,0
123186,-100,4,2,10,8,0,0

[Colours]
Combo1 : 36,146,255
Combo2 : 196,136,255
Combo3 : 255,106,181
Combo4 : 255,255,176
Combo5 : 255,168,255
Combo6 : 172,255,172
Combo7 : 255,160,115

[HitObjects]
24,40,186,5,4,0:0:0:0:
88,228,1043,1,4,0:0:0:0:
192,60,1900,2,0,P|105:22|18:43,1,180,4|4,0:0|0:0,0:0:0:0:
24,236,3614,6,0,L|168:220,1,135,4|2,0:0|0:0,0:0:0:0:
380,328,5328,2,0,P|396:272|384:228,1,90,4|4,0:0|0:0,0:0:0:0:
248,100,6614,6,0,L|144:92,1,90,0|4,0:0|0:0,0:0:0:0:
24,236,7900,1,4,0:0:0:0:
212,180,8757,2,0,P|253:187|310:161,1,90,4|2,0:0|0:0,0:0:0:0:
492,372,10471,2,0,L|352:360,1,135,4|2,0:0|0:0,0:0:0:0:
112,344,12186,6,0,P|100:296|112:248,1,90,4|4,0:0|0:0,0:0:0:0:
176,184,13043,1,4,0:0:0:0:
76,164,13471,2,0,L|68:104,1,45,6|6,0:0|0:0,0:0:0:0:
64,68,13900,5,14,0:0:0:0:
176,232,14757,1,14,0:0:0:0:
268,56,15614,2,0,L|460:72,1,180,14|14,0:0|0:0,0:0:0:0:
484,264,17328,5,14,0:0:0:0:
392,224,17757,2,0,P|340:216|296:232,1,90,2|14,2:0|0:0,0:0:0:0:
148,344,19043,6,0,L|4:332,1,135,14|6,0:0|1:0,0:0:0:0:
36,184,20328,1,4,0:0:0:0:
128,224,20757,6,0,P|180:232|224:216,1,90,6|0,0:0|0:0,0:0:0:0:
296,164,21614,1,14,0:0:0:0:
124,68,22471,6,0,L|108:140,2,67.5,6|6|6,0:0|0:0|0:0,0:0:0:0:
136,20,23328,1,14,0:0:0:0:
324,76,24186,6,0,P|357:97|381:191,1,135,14|6,0:0|0:0,0:0:0:0:
300,308,25471,2,0,L|204:296,1,90,6|6,0:0|0:0,0:0:0:0:
20,240,26757,2,0,P|16:192|36:148,1,90,2|2,2:0|2:0,0:0:0:0:
96,80,27614,6,0,L|200:88,1,90,6|2,0:0|0:0,0:0:0:0:
128,168,28471,2,0,L|232:176,1,90,6|2,0:0|0:0,0:0:0:0:
160,256,29328,5,2,0:0:0:0:
64,240,29757,2,0,P|36:192|40:144,1,90,8|8,0:0|0:0,0:0:0:0:
96,80,30614,1,6,0:0:0:0:
196,88,31043,6,0,L|300:96,1,90,6|2,0:0|0:0,0:0:0:0:
228,176,31900,2,0,L|332:184,1,90,6|2,0:0|0:0,0:0:0:0:
260,264,32757,5,2,0:0:0:0:
164,248,33186,2,0,P|136:200|140:152,1,90,8|8,0:0|0:0,0:0:0:0:
196,88,34043,1,6,0:0:0:0:
296,96,34471,6,0,L|400:104,1,90,6|2,0:0|0:0,0:0:0:0:
328,184,35328,2,0,L|432:192,1,90,6|2,0:0|0:0,0:0:0:0:
504,240,36186,6,0,L|496:344,1,90,6|2,0:0|0:0,0:0:0:0:
408,284,37043,2,0,L|400:388,1,90,6|2,0:0|0:0,0:0:0:0:
304,348,37900,6,0,L|284:256,1,90,6|4,0:0|0:0,0:0:0:0:
208,196,38757,6,0,L|196:288,1,90,6|6,0:0|0:0,0:0:0:0:
112,340,39614,6,0,B|80:320|48:324|48:324|32:268|32:268|64:236|56:196|56:196|84:184|96:136,1,270,0|12,0:0|0:0,0:0:0:0:
171,207,41328,6,2,P|215:187|267:195,1,90,6|6,0:0|0:0,0:0:0:0:
351,163,42186,2,2,L|331:63,1,90,14|2,0:0|0:0,0:0:0:0:
235,87,43043,6,2,P|171:91|71:155,1,180,6|14,0:0|0:0,0:0:0:0:
28,236,44328,1,2,0:0:0:0:
24,336,44757,6,2,L|120:348,1,90,6|6,0:0|0:0,0:0:0:0:
212,352,45615,2,2,B|216:308|216:308|192:252,1,90,14|2,0:0|0:0,0:0:0:0:
104,232,46471,2,2,B|88:192|88:192|104:128,1,90,6|2,0:0|0:0,0:0:0:0:
184,92,47328,5,14,0:0:0:0:
100,44,47757,1,2,0:0:0:0:
24,108,48186,6,2,L|-4:200,1,90,6|6,0:0|0:0,0:0:0:0:
48,280,49043,2,2,P|92:300|144:292,1,90,14|2,0:0|0:0,0:0:0:0:
220,248,49900,6,2,B|248:220|280:216|280:216|264:332,1,180,6|14,0:0|0:0,0:0:0:0:
180,376,51186,1,2,0:0:0:0:
128,292,51614,6,2,P|120:240|136:196,1,90,6|6,0:0|0:0,0:0:0:0:
188,124,52471,2,2,P|234:100|281:101,1,90,14|2,0:0|0:0,0:0:0:0:
360,140,53328,2,2,P|398:175|414:219,1,90,6|2,0:0|0:0,0:0:0:0:
412,308,54186,5,12,0:0:0:0:
328,360,54614,2,2,P|272:368|228:344,1,90,4|6,0:0|0:0,0:0:0:0:
100,216,55900,1,14,0:0:0:0:
196,196,56328,1,2,0:0:0:0:
132,120,56757,6,0,P|124:92|140:32,1,90,6|2,0:0|0:0,0:0:0:0:
232,8,57614,1,12,0:0:0:0:
268,100,58043,1,2,0:0:0:0:
344,36,58471,6,0,B|380:8|380:8|360:152,1,180,6|14,0:0|0:0,0:0:0:0:
352,240,59757,1,2,0:0:0:0:
256,212,60186,2,2,P|252:256|272:300,1,90,6|2,0:0|0:0,0:0:0:0:
356,348,61043,1,0,0:0:0:0:
440,296,61471,1,2,0:0:0:0:
444,196,61900,6,2,L|420:100,1,90,6|6,0:0|0:0,0:0:0:0:
328,140,62757,2,12,P|284:148|240:132,1,90,2|2,0:0|0:0,0:0:0:0:
220,36,63614,5,6,0:0:0:0:
128,72,64043,2,0,L|32:60,1,90,2|14,0:0|0:0,0:0:0:0:
16,156,64900,1,2,0:0:0:0:
52,248,65328,6,2,B|80:240|104:204|104:204|68:320,1,180,6|14,0:0|0:0,0:0:0:0:
160,352,66614,2,0,L|192:248,1,90,2|6,0:0|0:0,0:0:0:0:
256,192,67150,12,0,68328,0:0:0:0:
241,107,68757,6,2,P|261:151|253:203,1,90,6|6,0:0|0:0,0:0:0:0:
212,280,69615,2,2,L|112:260,1,90,14|2,0:0|0:0,0:0:0:0:
24,248,70472,6,2,B|36:196|76:176|76:176|100:80,1,180,6|14,0:0|0:0,0:0:0:0:
172,24,71757,1,2,0:0:0:0:
204,116,72186,6,2,L|180:212,1,90,6|6,0:0|0:0,0:0:0:0:
216,296,73044,2,2,B|260:300|260:300|316:276,1,90,14|2,0:0|0:0,0:0:0:0:
392,240,73900,2,2,B|376:200|376:200|392:136,1,90,6|2,0:0|0:0,0:0:0:0:
408,56,74757,5,14,0:0:0:0:
312,80,75186,1,2,0:0:0:0:
216,104,75615,6,2,P|168:100|124:72,1,90,6|6,0:0|0:0,0:0:0:0:
44,120,76472,2,2,L|64:216,1,90,14|2,0:0|0:0,0:0:0:0:
84,304,77329,6,2,B|96:360|96:360|156:320|232:328,1,180,6|14,0:0|0:0,0:0:0:0:
308,348,78615,1,2,0:0:0:0:
408,356,79043,6,2,P|416:304|400:260,1,90,6|6,0:0|0:0,0:0:0:0:
308,244,79900,2,2,P|284:198|285:151,1,90,14|2,0:0|0:0,0:0:0:0:
312,64,80757,2,2,P|260:66|217:46,1,90,6|2,0:0|0:0,0:0:0:0:
132,16,81615,5,12,0:0:0:0:
136,116,82043,2,2,L|156:212,1,90,4|6,0:0|0:0,0:0:0:0:
344,318,83329,1,14,0:0:0:0:
244,306,83757,1,2,0:0:0:0:
148,290,84186,6,0,P|140:262|156:202,1,90,6|2,0:0|0:0,0:0:0:0:
220,132,85043,1,12,0:0:0:0:
260,224,85472,1,2,0:0:0:0:
328,152,85900,6,0,B|364:180|364:180|344:36,1,180,6|14,0:0|0:0,0:0:0:0:
248,28,87186,1,2,0:0:0:0:
176,96,87615,2,2,P|132:100|88:80,1,90,6|2,0:0|0:0,0:0:0:0:
8,28,88472,1,0,0:0:0:0:
0,128,88900,1,2,0:0:0:0:
20,224,89329,6,2,L|116:200,1,90,6|6,0:0|0:0,0:0:0:0:
204,176,90186,2,12,P|207:220|186:262,1,90,2|2,0:0|0:0,0:0:0:0:
98,301,91043,5,6,0:0:0:0:
108,202,91472,2,0,L|120:106,1,90,2|14,0:0|0:0,0:0:0:0:
132,16,92329,1,2,0:0:0:0:
204,84,92757,6,2,B|232:60|232:24|232:24|360:48,1,180,6|14,0:0|0:0,0:0:0:0:
432,80,94043,2,0,B|456:116|456:116|440:176,1,90,2|6,0:0|0:0,0:0:0:0:
256,192,94578,12,4,95756,0:0:0:0:
256,192,96186,5,6,0:0:0:0:
144,356,97043,1,14,0:0:0:0:
36,188,97900,2,0,P|8:108|40:20,1,180,6|14,0:0|0:0,0:0:0:0:
228,80,99614,5,6,0:0:0:0:
228,80,100043,2,0,P|280:72|324:88,1,90,2|14,2:0|0:0,0:0:0:0:
456,220,101329,6,0,L|444:364,1,135,6|6,0:0|0:0,0:0:0:0:
296,360,102614,1,4,0:0:0:0:
204,324,103043,6,0,P|212:272|196:228,1,90,6|0,0:0|0:0,0:0:0:0:
132,168,103900,1,14,0:0:0:0:
308,80,104757,6,0,L|324:8,2,67.5,6|6|6,0:0|1:0|0:0,0:0:0:0:
296,128,105614,1,14,0:0:0:0:
264,324,106472,6,0,P|302:332|385:282,1,135,6|6,0:0|1:0,0:0:0:0:
386,139,107757,2,0,L|290:127,1,90,2|6,0:0|0:0,0:0:0:0:
100,108,109043,2,0,P|52:112|8:92,1,90,14|0,1:0|0:0,0:0:0:0:
72,16,109900,5,6,0:0:0:0:
144,200,110757,1,14,0:0:0:0:
280,56,111614,2,0,L|468:40,1,180,6|14,0:0|0:0,0:0:0:0:
420,236,113328,5,6,0:0:0:0:
332,280,113757,2,0,P|324:228|340:184,1,90,2|14,2:0|0:0,0:0:0:0:
176,72,115043,6,0,L|32:60,1,135,6|6,0:0|0:0,0:0:0:0:
56,208,116328,1,4,0:0:0:0:
20,300,116757,6,0,P|72:302|156:212,1,180,6|14,0:0|0:0,0:0:0:0:
352,236,118471,6,0,L|336:44,1,180,6|14,0:0|0:0,0:0:0:0:
264,240,120186,6,0,P|277:276|363:321,1,135,6|6,0:0|1:0,0:0:0:0:
440,200,121471,2,0,L|420:104,1,90,6|14,0:0|0:0,0:0:0:0:
228,72,122757,6,0,P|180:76|136:56,1,90,2|2,2:0|2:0,0:0:0:0:
