osu file format v12

[General]
AudioFilename: Meg_&_Dia_-_Monster_(DotEXE_Remix).mp3
AudioLeadIn: 0
PreviewTime: 40150
Countdown: 0
SampleSet: Soft
StackLeniency: 0.7
Mode: 3
LetterboxInBreaks: 0
SpecialStyle: 0
WidescreenStoryboard: 1

[Editor]
Bookmarks: 13724,21867,27117,39867,102867,109724,110474,116634,121777,123438,204009
DistanceSpacing: 1
BeatDivisor: 2
GridSize: 8

[Metadata]
Title:Monster (DotEXE Remix)
TitleUnicode:Monster (DotEXE Remix)
Artist:Meg & Dia
ArtistUnicode:Meg & Dia
Creator:Zillah
Version:4K Illusion
Source:Meg & Dia
Tags:dubstep meg and dia monster remix EDM
BeatmapID:309880
BeatmapSetID:119741

[Difficulty]
HPDrainRate:6
CircleSize:4
OverallDifficulty:6
ApproachRate:5
SliderMultiplier:1.4
SliderTickRate:1

[Events]
//Background and Video events
0,0,"artworks-000024784978-vu97pe-original.jpg",0,0
//Break Periods
//Storyboard Layer 0 (Background)
//Storyboard Layer 1 (Fail)
//Storyboard Layer 2 (Pass)
//Storyboard Layer 3 (Foreground)
//Storyboard Sound Samples
//Background Colour Transformations
3,100,163,162,255

[TimingPoints]
-10.1360392262753,428.571428571429,4,2,0,50,1,0

[HitObjects]
64,192,13704,1,0,0:0:0:0:
448,192,13704,1,0,0:0:0:0:
192,192,14132,1,0,0:0:0:0:
448,192,14561,1,0,0:0:0:0:
320,192,14561,1,0,0:0:0:0:
64,192,14989,1,0,0:0:0:0:
320,192,15418,1,0,0:0:0:0:
448,192,15847,1,0,0:0:0:0:
320,192,16061,1,0,0:0:0:0:
64,192,16275,1,0,0:0:0:0:
64,192,16704,1,0,0:0:0:0:
192,192,16918,1,0,0:0:0:0:
320,192,17132,1,0,0:0:0:0:
448,192,17561,1,0,0:0:0:0:
192,192,17989,1,0,0:0:0:0:
448,192,17989,1,0,0:0:0:0:
320,192,18418,1,0,0:0:0:0:
64,192,18847,1,0,0:0:0:0:
448,192,18847,128,0,19275:0:0:0:0:
320,192,19275,128,0,19704:0:0:0:0:
64,192,19704,1,0,0:0:0:0:
192,192,20132,1,0,0:0:0:0:
320,192,20561,1,0,0:0:0:0:
448,192,20561,1,0,0:0:0:0:
192,192,20989,1,0,0:0:0:0:
448,192,21418,1,0,0:0:0:0:
192,192,21847,1,0,0:0:0:0:
448,192,22275,1,0,0:0:0:0:
64,192,22275,128,0,22704:0:0:0:0:
192,192,22704,128,0,23132:0:0:0:0:
448,192,23132,1,0,0:0:0:0:
448,192,23561,1,0,0:0:0:0:
320,192,23775,1,0,0:0:0:0:
192,192,23989,1,0,0:0:0:0:
64,192,24418,1,0,0:0:0:0:
192,192,24632,1,0,0:0:0:0:
320,192,24739,1,0,0:0:0:0:
448,192,24847,1,0,0:0:0:0:
320,192,25061,1,0,0:0:0:0:
320,192,25275,1,0,0:0:0:0:
448,192,25704,1,0,0:0:0:0:
64,192,26132,1,0,0:0:0:0:
448,192,26561,1,0,0:0:0:0:
64,192,26989,1,0,0:0:0:0:
320,192,27418,1,0,0:0:0:0:
192,192,27847,1,0,0:0:0:0:
448,192,27847,1,0,0:0:0:0:
64,192,28275,1,0,0:0:0:0:
320,192,28275,1,0,0:0:0:0:
448,192,28704,1,0,0:0:0:0:
320,192,28918,1,0,0:0:0:0:
64,192,29132,1,0,0:0:0:0:
320,192,29347,1,0,0:0:0:0:
448,192,29561,128,0,29989:0:0:0:0:
64,192,29989,128,0,30418:0:0:0:0:
192,192,30418,1,0,0:0:0:0:
448,192,30847,1,0,0:0:0:0:
64,192,31275,1,0,0:0:0:0:
448,192,31704,1,0,0:0:0:0:
64,192,32132,1,0,0:0:0:0:
448,192,32347,1,0,0:0:0:0:
64,192,32561,1,0,0:0:0:0:
448,192,32775,1,0,0:0:0:0:
320,192,32989,1,0,0:0:0:0:
64,192,33418,128,0,33847:0:0:0:0:
448,192,33847,1,0,0:0:0:0:
64,192,34275,1,0,0:0:0:0:
448,192,34275,1,0,0:0:0:0:
192,192,34704,1,0,0:0:0:0:
320,192,34704,1,0,0:0:0:0:
64,192,35132,1,0,0:0:0:0:
192,192,35347,1,0,0:0:0:0:
448,192,35561,1,0,0:0:0:0:
320,192,35775,1,0,0:0:0:0:
192,192,35989,1,0,0:0:0:0:
448,192,36418,1,0,0:0:0:0:
64,192,36847,1,0,0:0:0:0:
192,192,37275,1,0,0:0:0:0:
320,192,37704,1,0,0:0:0:0:
448,192,37918,1,0,0:0:0:0:
192,192,38132,1,0,0:0:0:0:
320,192,38347,1,0,0:0:0:0:
448,192,38561,1,0,0:0:0:0:
64,192,38775,1,0,0:0:0:0:
320,192,38989,1,0,0:0:0:0:
192,192,39204,1,0,0:0:0:0:
64,192,39418,128,0,39847:0:0:0:0:
192,192,39847,128,0,40275:0:0:0:0:
320,192,40275,128,0,40704:0:0:0:0:
448,192,40704,128,0,41132:0:0:0:0:
64,192,41132,1,0,0:0:0:0:
192,192,41561,1,0,0:0:0:0:
320,192,41989,1,0,0:0:0:0:
192,192,42418,1,0,0:0:0:0:
448,192,43061,1,0,0:0:0:0:
192,192,43275,1,0,0:0:0:0:
448,192,43489,1,0,0:0:0:0:
320,192,43704,1,0,0:0:0:0:
64,192,44132,1,0,0:0:0:0:
192,192,44347,1,0,0:0:0:0:
192,192,44989,1,0,0:0:0:0:
448,192,44989,1,0,0:0:0:0:
320,192,45418,1,0,0:0:0:0:
192,192,45632,1,0,0:0:0:0:
64,192,45847,1,0,0:0:0:0:
448,192,46061,1,0,0:0:0:0:
64,192,46275,1,0,0:0:0:0:
192,192,46489,1,0,0:0:0:0:
448,192,46704,128,0,46918:0:0:0:0:
64,192,46918,128,0,47132:0:0:0:0:
320,192,47132,128,0,47347:0:0:0:0:
448,192,47347,128,0,47561:0:0:0:0:
64,192,47561,128,0,47775:0:0:0:0:
320,192,47989,1,0,0:0:0:0:
448,192,48418,1,0,0:0:0:0:
192,192,48847,1,0,0:0:0:0:
320,192,48847,1,0,0:0:0:0:
448,192,49275,1,0,0:0:0:0:
64,192,49704,1,0,0:0:0:0:
448,192,49918,1,0,0:0:0:0:
192,192,50132,1,0,0:0:0:0:
320,192,50347,1,0,0:0:0:0:
64,192,50561,1,0,0:0:0:0:
448,192,50989,1,0,0:0:0:0:
64,192,51418,128,0,51847:0:0:0:0:
448,192,51847,128,0,52275:0:0:0:0:
64,192,52275,1,0,0:0:0:0:
320,192,52489,1,0,0:0:0:0:
64,192,52704,1,0,0:0:0:0:
448,192,52918,1,0,0:0:0:0:
320,192,53132,1,0,0:0:0:0:
192,192,53347,1,0,0:0:0:0:
448,192,53561,128,0,53775:0:0:0:0:
192,192,53775,1,0,0:0:0:0:
320,192,53989,1,0,0:0:0:0:
64,192,54204,128,0,54418:0:0:0:0:
448,192,54418,128,0,54847:0:0:0:0:
192,192,54847,128,0,55275:0:0:0:0:
448,192,55704,128,0,56132:0:0:0:0:
64,192,56132,128,0,56561:0:0:0:0:
448,192,56561,128,0,56989:0:0:0:0:
192,192,57204,1,0,0:0:0:0:
64,192,57418,1,0,0:0:0:0:
64,192,57847,1,0,0:0:0:0:
448,192,58061,1,0,0:0:0:0:
64,192,58275,1,0,0:0:0:0:
448,192,58704,1,0,0:0:0:0:
64,192,59132,1,0,0:0:0:0:
448,192,59561,1,0,0:0:0:0:
192,192,59989,1,0,0:0:0:0:
448,192,60204,1,0,0:0:0:0:
64,192,60418,128,0,60632:0:0:0:0:
448,192,60632,1,0,0:0:0:0:
320,192,60847,1,0,0:0:0:0:
192,192,61061,1,0,0:0:0:0:
64,192,61275,128,0,61704:0:0:0:0:
448,192,62132,1,0,0:0:0:0:
64,192,62561,1,0,0:0:0:0:
320,192,62989,1,0,0:0:0:0:
320,192,63418,1,0,0:0:0:0:
64,192,63847,1,0,0:0:0:0:
448,192,64061,1,0,0:0:0:0:
320,192,64275,1,0,0:0:0:0:
64,192,64275,1,0,0:0:0:0:
64,192,64704,1,0,0:0:0:0:
448,192,64918,1,0,0:0:0:0:
192,192,65132,1,0,0:0:0:0:
320,192,65561,1,0,0:0:0:0:
448,192,65989,1,0,0:0:0:0:
64,192,65989,1,0,0:0:0:0:
192,192,66204,1,0,0:0:0:0:
320,192,66418,1,0,0:0:0:0:
192,192,66632,1,0,0:0:0:0:
448,192,66847,1,0,0:0:0:0:
64,192,66847,128,0,67275:0:0:0:0:
320,192,67275,128,0,67704:0:0:0:0:
192,192,67704,128,0,68132:0:0:0:0:
64,192,68132,128,0,68561:0:0:0:0:
448,192,68561,1,0,0:0:0:0:
448,192,68989,1,0,0:0:0:0:
192,192,69204,1,0,0:0:0:0:
448,192,69418,1,0,0:0:0:0:
64,192,69418,1,0,0:0:0:0:
192,192,69847,128,0,70061:0:0:0:0:
448,192,70275,1,0,0:0:0:0:
192,192,70704,1,0,0:0:0:0:
448,192,71132,1,0,0:0:0:0:
448,192,71561,1,0,0:0:0:0:
320,192,71775,1,0,0:0:0:0:
192,192,71989,1,0,0:0:0:0:
192,192,72418,1,0,0:0:0:0:
64,192,72847,1,0,0:0:0:0:
448,192,73061,1,0,0:0:0:0:
192,192,73275,1,0,0:0:0:0:
320,192,73489,1,0,0:0:0:0:
64,192,73704,1,0,0:0:0:0:
448,192,73918,1,0,0:0:0:0:
64,192,74132,128,0,74347:0:0:0:0:
192,192,74347,128,0,74561:0:0:0:0:
448,192,74561,128,0,74775:0:0:0:0:
320,192,74775,128,0,74989:0:0:0:0:
64,192,74989,128,0,75418:0:0:0:0:
192,192,75418,1,0,0:0:0:0:
64,192,75847,128,0,76275:0:0:0:0:
448,192,76275,128,0,76489:0:0:0:0:
192,192,76704,128,0,76918:0:0:0:0:
64,192,77132,1,0,0:0:0:0:
192,192,77347,1,0,0:0:0:0:
320,192,77561,1,0,0:0:0:0:
448,192,77775,1,0,0:0:0:0:
192,192,77989,1,0,0:0:0:0:
192,192,78204,1,0,0:0:0:0:
448,192,78418,1,0,0:0:0:0:
64,192,78418,1,0,0:0:0:0:
192,192,78632,1,0,0:0:0:0:
64,192,78847,128,0,79275:0:0:0:0:
448,192,79275,128,0,79704:0:0:0:0:
64,192,79704,1,0,0:0:0:0:
448,192,79918,1,0,0:0:0:0:
192,192,80132,1,0,0:0:0:0:
320,192,80347,1,0,0:0:0:0:
192,192,80561,1,0,0:0:0:0:
320,192,80775,1,0,0:0:0:0:
448,192,80989,1,0,0:0:0:0:
64,192,81204,1,0,0:0:0:0:
320,192,81418,1,0,0:0:0:0:
448,192,81847,128,0,82275:0:0:0:0:
192,192,82061,1,0,0:0:0:0:
64,192,82275,1,0,0:0:0:0:
192,192,82489,1,0,0:0:0:0:
448,192,82704,1,0,0:0:0:0:
192,192,83132,1,0,0:0:0:0:
64,192,83132,1,0,0:0:0:0:
192,192,83561,1,0,0:0:0:0:
320,192,83561,1,0,0:0:0:0:
192,192,83989,1,0,0:0:0:0:
64,192,84204,1,0,0:0:0:0:
448,192,84204,1,0,0:0:0:0:
320,192,84418,1,0,0:0:0:0:
192,192,84632,1,0,0:0:0:0:
448,192,84847,1,0,0:0:0:0:
64,192,84847,1,0,0:0:0:0:
320,192,85275,1,0,0:0:0:0:
448,192,85704,128,0,86132:0:0:0:0:
320,192,86132,128,0,86561:0:0:0:0:
192,192,86561,1,0,0:0:0:0:
64,192,86775,1,0,0:0:0:0:
192,192,86989,1,0,0:0:0:0:
448,192,87204,1,0,0:0:0:0:
320,192,87418,1,0,0:0:0:0:
192,192,87632,1,0,0:0:0:0:
64,192,87847,128,0,88061:0:0:0:0:
192,192,88061,128,0,88275:0:0:0:0:
448,192,88275,128,0,88489:0:0:0:0:
320,192,88489,128,0,88704:0:0:0:0:
192,192,88704,128,0,89132:0:0:0:0:
448,192,89132,1,0,0:0:0:0:
64,192,89561,128,0,89775:0:0:0:0:
192,192,89989,1,0,0:0:0:0:
448,192,90418,128,0,90632:0:0:0:0:
192,192,90847,1,0,0:0:0:0:
320,192,91061,1,0,0:0:0:0:
448,192,91275,1,0,0:0:0:0:
320,192,91489,1,0,0:0:0:0:
192,192,91704,1,0,0:0:0:0:
64,192,91918,1,0,0:0:0:0:
192,192,92132,1,0,0:0:0:0:
64,192,92347,1,0,0:0:0:0:
320,192,92561,1,0,0:0:0:0:
64,192,92989,1,0,0:0:0:0:
448,192,93418,1,0,0:0:0:0:
192,192,93418,1,0,0:0:0:0:
448,192,93847,1,0,0:0:0:0:
192,192,94061,1,0,0:0:0:0:
64,192,94275,1,0,0:0:0:0:
192,192,94704,1,0,0:0:0:0:
320,192,95132,1,0,0:0:0:0:
448,192,95561,1,0,0:0:0:0:
448,192,95989,128,0,96204:0:0:0:0:
320,192,96204,128,0,96418:0:0:0:0:
192,192,96418,128,0,96632:0:0:0:0:
64,192,96632,128,0,96847:0:0:0:0:
448,192,96847,1,0,0:0:0:0:
448,192,97275,128,0,97489:0:0:0:0:
320,192,97489,128,0,97704:0:0:0:0:
192,192,97704,128,0,97918:0:0:0:0:
320,192,98132,1,0,0:0:0:0:
192,192,98347,1,0,0:0:0:0:
64,192,98561,1,0,0:0:0:0:
448,192,98561,1,0,0:0:0:0:
320,192,98989,1,0,0:0:0:0:
64,192,99204,1,0,0:0:0:0:
192,192,99418,128,0,99847:0:0:0:0:
448,192,99847,128,0,100275:0:0:0:0:
64,192,100275,1,0,0:0:0:0:
192,192,100704,1,0,0:0:0:0:
448,192,100918,1,0,0:0:0:0:
448,192,101132,128,0,101561:0:0:0:0:
64,192,101561,128,0,101989:0:0:0:0:
320,192,101989,128,0,102418:0:0:0:0:
192,192,102418,128,0,102847:0:0:0:0:
64,192,102847,128,0,103275:0:0:0:0:
448,192,103275,128,0,103704:0:0:0:0:
64,192,103704,1,0,0:0:0:0:
320,192,104132,1,0,0:0:0:0:
64,192,104561,1,0,0:0:0:0:
192,192,104989,1,0,0:0:0:0:
448,192,105204,1,0,0:0:0:0:
192,192,105418,1,0,0:0:0:0:
64,192,105418,1,0,0:0:0:0:
192,192,105847,1,0,0:0:0:0:
448,192,106061,1,0,0:0:0:0:
64,192,106275,128,0,106704:0:0:0:0:
448,192,106704,128,0,107132:0:0:0:0:
64,192,107132,1,0,0:0:0:0:
320,192,107561,1,0,0:0:0:0:
320,192,107989,1,0,0:0:0:0:
64,192,107989,1,0,0:0:0:0:
320,192,108418,1,0,0:0:0:0:
448,192,108418,1,0,0:0:0:0:
64,192,108847,1,0,0:0:0:0:
192,192,109275,128,0,109704:0:0:0:0:
64,192,109704,1,0,0:0:0:0:
320,192,109704,1,0,0:0:0:0:
192,192,110132,1,0,0:0:0:0:
448,192,110132,1,0,0:0:0:0:
320,192,110561,1,0,0:0:0:0:
64,192,110561,1,0,0:0:0:0:
64,192,110989,1,0,0:0:0:0:
192,192,111204,1,0,0:0:0:0:
448,192,111418,128,0,111632:0:0:0:0:
192,192,111847,128,0,112061:0:0:0:0:
64,192,112275,1,0,0:0:0:0:
448,192,112275,1,0,0:0:0:0:
320,192,112704,1,0,0:0:0:0:
448,192,112918,1,0,0:0:0:0:
192,192,113132,1,0,0:0:0:0:
320,192,113561,1,0,0:0:0:0:
64,192,113989,1,0,0:0:0:0:
192,192,114418,1,0,0:0:0:0:
320,192,114632,1,0,0:0:0:0:
448,192,114847,1,0,0:0:0:0:
64,192,115275,1,0,0:0:0:0:
320,192,115489,1,0,0:0:0:0:
448,192,115704,1,0,0:0:0:0:
64,192,115704,1,0,0:0:0:0:
320,192,116132,1,0,0:0:0:0:
192,192,116561,1,0,0:0:0:0:
448,192,116989,1,0,0:0:0:0:
64,192,117418,1,0,0:0:0:0:
192,192,117418,1,0,0:0:0:0:
448,192,117847,1,0,0:0:0:0:
64,192,118061,1,0,0:0:0:0:
448,192,118275,1,0,0:0:0:0:
64,192,118704,1,0,0:0:0:0:
192,192,118918,1,0,0:0:0:0:
320,192,119132,1,0,0:0:0:0:
64,192,119561,1,0,0:0:0:0:
192,192,119775,1,0,0:0:0:0:
320,192,119989,1,0,0:0:0:0:
192,192,120418,1,0,0:0:0:0:
320,192,120847,1,0,0:0:0:0:
64,192,121061,1,0,0:0:0:0:
448,192,121275,1,0,0:0:0:0:
320,192,121704,1,0,0:0:0:0:
320,192,122132,1,0,0:0:0:0:
192,192,122561,1,0,0:0:0:0:
320,192,122989,1,0,0:0:0:0:
192,192,123418,1,0,0:0:0:0:
64,192,123847,1,0,0:0:0:0:
448,192,124275,1,0,0:0:0:0:
192,192,124489,1,0,0:0:0:0:
320,192,124704,1,0,0:0:0:0:
192,192,124918,1,0,0:0:0:0:
320,192,125132,1,0,0:0:0:0:
64,192,125347,1,0,0:0:0:0:
320,192,125561,128,0,125989:0:0:0:0:
192,192,125989,128,0,126418:0:0:0:0:
448,192,126418,128,0,126632:0:0:0:0:
64,192,126632,1,0,0:0:0:0:
192,192,126847,1,0,0:0:0:0:
192,192,127275,1,0,0:0:0:0:
64,192,127704,1,0,0:0:0:0:
320,192,127704,1,0,0:0:0:0:
64,192,128132,1,0,0:0:0:0:
448,192,128132,1,0,0:0:0:0:
320,192,128347,1,0,0:0:0:0:
192,192,128561,1,0,0:0:0:0:
320,192,128775,1,0,0:0:0:0:
64,192,128989,128,0,129418:0:0:0:0:
448,192,129418,128,0,129847:0:0:0:0:
192,192,129847,1,0,0:0:0:0:
36,192,130275,128,0,130704:0:0:0:0:
475,192,130704,128,0,131132:0:0:0:0:
192,192,131347,1,0,0:0:0:0:
36,192,131561,1,0,0:0:0:0:
475,192,131775,1,0,0:0:0:0:
320,192,131989,128,0,132418:0:0:0:0:
192,192,132418,128,0,132847:0:0:0:0:
109,192,132846,128,0,133274:0:0:0:0:
448,192,133275,128,0,133704:0:0:0:0:
64,192,133704,1,0,0:0:0:0:
320,192,133918,1,0,0:0:0:0:
64,192,134132,1,0,0:0:0:0:
448,192,134347,1,0,0:0:0:0:
320,192,134561,1,0,0:0:0:0:
64,192,134775,1,0,0:0:0:0:
192,192,134989,1,0,0:0:0:0:
448,192,135204,1,0,0:0:0:0:
320,192,135418,1,0,0:0:0:0:
192,192,135632,1,0,0:0:0:0:
64,192,135847,1,0,0:0:0:0:
448,192,136061,1,0,0:0:0:0:
192,192,136275,1,0,0:0:0:0:
192,192,136704,128,0,137132:0:0:0:0:
320,192,136704,128,0,137132:0:0:0:0:
64,192,137561,1,0,0:0:0:0:
329,192,137989,1,0,0:0:0:0:
182,192,138418,1,0,0:0:0:0:
329,192,138847,1,0,0:0:0:0:
36,192,139275,1,0,0:0:0:0:
475,192,139704,1,0,0:0:0:0:
64,192,140132,1,0,0:0:0:0:
320,192,140561,1,0,0:0:0:0:
448,192,140561,1,0,0:0:0:0:
192,192,140989,1,0,0:0:0:0:
64,192,141418,1,0,0:0:0:0:
448,192,141632,1,0,0:0:0:0:
64,192,141847,1,0,0:0:0:0:
448,192,142061,1,0,0:0:0:0:
64,192,142275,1,0,0:0:0:0:
64,192,142704,1,0,0:0:0:0:
192,192,142918,1,0,0:0:0:0:
320,192,143132,1,0,0:0:0:0:
448,192,143347,1,0,0:0:0:0:
192,192,143561,1,0,0:0:0:0:
64,192,143989,128,0,144632:0:0:0:0:
448,192,144418,128,0,144632:0:0:0:0:
448,192,144847,1,0,0:0:0:0:
192,192,145275,1,0,0:0:0:0:
448,192,145704,1,0,0:0:0:0:
192,192,145918,1,0,0:0:0:0:
64,192,146132,1,0,0:0:0:0:
448,192,146347,1,0,0:0:0:0:
320,192,146561,128,0,146775:0:0:0:0:
64,192,146775,1,0,0:0:0:0:
192,192,146989,1,0,0:0:0:0:
320,192,147204,1,0,0:0:0:0:
448,192,147418,1,0,0:0:0:0:
320,192,147847,1,0,0:0:0:0:
64,192,148275,1,0,0:0:0:0:
448,192,148704,1,0,0:0:0:0:
64,192,149132,1,0,0:0:0:0:
320,192,149561,128,0,149775:0:0:0:0:
64,192,149775,128,0,149989:0:0:0:0:
320,192,149989,1,0,0:0:0:0:
448,192,150204,1,0,0:0:0:0:
192,192,150632,1,0,0:0:0:0:
320,192,150847,1,0,0:0:0:0:
448,192,151275,1,0,0:0:0:0:
448,192,151704,1,0,0:0:0:0:
320,192,152132,1,0,0:0:0:0:
64,192,152561,1,0,0:0:0:0:
192,192,152775,1,0,0:0:0:0:
320,192,152989,1,0,0:0:0:0:
448,192,153204,1,0,0:0:0:0:
64,192,153418,1,0,0:0:0:0:
448,192,154275,128,0,154704:0:0:0:0:
64,192,154704,128,0,155132:0:0:0:0:
320,192,155132,1,0,0:0:0:0:
448,192,155561,1,0,0:0:0:0:
64,192,155989,1,0,0:0:0:0:
448,192,156418,1,0,0:0:0:0:
64,192,156847,1,0,0:0:0:0:
448,192,157061,1,0,0:0:0:0:
320,192,157275,128,0,157704:0:0:0:0:
64,192,157704,1,0,0:0:0:0:
320,192,158132,128,0,158347:0:0:0:0:
64,192,158561,1,0,0:0:0:0:
192,192,158561,128,0,158775:0:0:0:0:
448,192,158989,128,0,159204:0:0:0:0:
320,192,159204,1,0,0:0:0:0:
64,192,159418,1,0,0:0:0:0:
192,192,159632,1,0,0:0:0:0:
320,192,159847,1,0,0:0:0:0:
448,192,160061,1,0,0:0:0:0:
64,192,160275,1,0,0:0:0:0:
320,192,160704,1,0,0:0:0:0:
64,192,161132,1,0,0:0:0:0:
448,192,161132,128,0,161561:0:0:0:0:
320,192,161561,128,0,161989:0:0:0:0:
192,192,161989,1,0,0:0:0:0:
64,192,162204,1,0,0:0:0:0:
320,192,162418,1,0,0:0:0:0:
64,192,162632,1,0,0:0:0:0:
192,192,162847,1,0,0:0:0:0:
448,192,163275,1,0,0:0:0:0:
320,192,163704,1,0,0:0:0:0:
192,192,164132,1,0,0:0:0:0:
64,192,164561,1,0,0:0:0:0:
320,192,164561,1,0,0:0:0:0:
192,192,164989,1,0,0:0:0:0:
448,192,164989,1,0,0:0:0:0:
192,192,165418,1,0,0:0:0:0:
320,192,165418,1,0,0:0:0:0:
64,192,165847,1,0,0:0:0:0:
448,192,165847,1,0,0:0:0:0:
64,192,166275,1,0,0:0:0:0:
448,192,166275,1,0,0:0:0:0:
320,192,166489,1,0,0:0:0:0:
192,192,166704,1,0,0:0:0:0:
320,192,166918,1,0,0:0:0:0:
448,192,167132,1,0,0:0:0:0:
448,192,167561,1,0,0:0:0:0:
192,192,167989,1,0,0:0:0:0:
320,192,168418,1,0,0:0:0:0:
64,192,168847,1,0,0:0:0:0:
448,192,168847,1,0,0:0:0:0:
192,192,169061,1,0,0:0:0:0:
320,192,169275,1,0,0:0:0:0:
448,192,169489,1,0,0:0:0:0:
320,192,169704,1,0,0:0:0:0:
192,192,169918,1,0,0:0:0:0:
64,192,170132,1,0,0:0:0:0:
192,192,170347,1,0,0:0:0:0:
320,192,170561,1,0,0:0:0:0:
64,192,170561,1,0,0:0:0:0:
448,192,170775,1,0,0:0:0:0:
320,192,170989,1,0,0:0:0:0:
64,192,171418,1,0,0:0:0:0:
448,192,171847,128,0,172275:0:0:0:0:
192,192,172275,1,0,0:0:0:0:
64,192,172275,1,0,0:0:0:0:
64,192,172704,128,0,172918:0:0:0:0:
448,192,173132,128,0,173347:0:0:0:0:
192,192,173561,1,0,0:0:0:0:
64,192,173775,1,0,0:0:0:0:
448,192,173989,1,0,0:0:0:0:
64,192,174418,1,0,0:0:0:0:
192,192,174632,1,0,0:0:0:0:
448,192,174847,1,0,0:0:0:0:
192,192,175275,1,0,0:0:0:0:
448,192,175704,1,0,0:0:0:0:
64,192,175918,1,0,0:0:0:0:
320,192,176132,1,0,0:0:0:0:
192,192,176347,1,0,0:0:0:0:
64,192,176561,1,0,0:0:0:0:
320,192,176775,1,0,0:0:0:0:
448,192,176989,1,0,0:0:0:0:
64,192,177204,1,0,0:0:0:0:
192,192,177418,1,0,0:0:0:0:
320,192,177632,1,0,0:0:0:0:
448,192,177847,128,0,178275:0:0:0:0:
64,192,178061,1,0,0:0:0:0:
64,192,178489,1,0,0:0:0:0:
448,192,178704,1,0,0:0:0:0:
192,192,178918,1,0,0:0:0:0:
64,192,179132,128,0,179561:0:0:0:0:
448,192,179132,1,0,0:0:0:0:
192,192,179561,128,0,179989:0:0:0:0:
448,192,179989,1,0,0:0:0:0:
320,192,180204,1,0,0:0:0:0:
192,192,180418,1,0,0:0:0:0:
64,192,180632,1,0,0:0:0:0:
192,192,180847,1,0,0:0:0:0:
448,192,181275,1,0,0:0:0:0:
320,192,181489,1,0,0:0:0:0:
192,192,181704,1,0,0:0:0:0:
320,192,182132,1,0,0:0:0:0:
64,192,182561,1,0,0:0:0:0:
192,192,182989,1,0,0:0:0:0:
448,192,183418,1,0,0:0:0:0:
192,192,183847,1,0,0:0:0:0:
320,192,184275,1,0,0:0:0:0:
448,192,184275,1,0,0:0:0:0:
192,192,184704,1,0,0:0:0:0:
448,192,185132,1,0,0:0:0:0:
64,192,185561,1,0,0:0:0:0:
192,192,185775,1,0,0:0:0:0:
448,192,185989,1,0,0:0:0:0:
320,192,185989,1,0,0:0:0:0:
448,192,186418,1,0,0:0:0:0:
192,192,186847,1,0,0:0:0:0:
448,192,187275,1,0,0:0:0:0:
64,192,187704,1,0,0:0:0:0:
192,192,187704,1,0,0:0:0:0:
320,192,188132,1,0,0:0:0:0:
64,192,188347,1,0,0:0:0:0:
448,192,188561,128,0,188989:0:0:0:0:
320,192,188561,128,0,188989:0:0:0:0:
192,192,188989,128,0,189204:0:0:0:0:
64,192,188989,128,0,189204:0:0:0:0:
448,192,189418,1,0,0:0:0:0:
192,192,189847,1,0,0:0:0:0:
448,192,190275,1,0,0:0:0:0:
320,192,190704,1,0,0:0:0:0:
192,192,191132,1,0,0:0:0:0:
320,192,191561,1,0,0:0:0:0:
448,192,191989,1,0,0:0:0:0:
64,192,192418,128,0,192847:0:0:0:0:
448,192,192418,128,0,192847:0:0:0:0:
320,192,192847,1,0,0:0:0:0:
192,192,193275,1,0,0:0:0:0:
64,192,193597,1,0,0:0:0:0:
192,192,193704,1,0,0:0:0:0:
448,192,194132,128,0,194561:0:0:0:0:
64,192,194347,1,0,0:0:0:0:
192,192,194561,1,0,0:0:0:0:
448,192,194989,1,0,0:0:0:0:
64,192,195418,1,0,0:0:0:0:
64,192,195847,128,0,196275:0:0:0:0:
448,192,196275,1,0,0:0:0:0:
320,192,196704,1,0,0:0:0:0:
192,192,196918,1,0,0:0:0:0:
448,192,197132,1,0,0:0:0:0:
64,192,197132,1,0,0:0:0:0:
64,192,197561,1,0,0:0:0:0:
192,192,197775,1,0,0:0:0:0:
448,192,197989,1,0,0:0:0:0:
64,192,198418,128,0,198847:0:0:0:0:
448,192,198418,1,0,0:0:0:0:
448,192,198847,1,0,0:0:0:0:
192,192,199275,128,0,199704:0:0:0:0:
448,192,199704,1,0,0:0:0:0:
448,192,200132,1,0,0:0:0:0:
320,192,200347,1,0,0:0:0:0:
64,192,200561,1,0,0:0:0:0:
320,192,200989,1,0,0:0:0:0:
192,192,201418,1,0,0:0:0:0:
448,192,201418,1,0,0:0:0:0:
320,192,201847,1,0,0:0:0:0:
192,192,202275,1,0,0:0:0:0:
320,192,202704,1,0,0:0:0:0:
192,192,203132,1,0,0:0:0:0:
64,192,203561,1,0,0:0:0:0:
320,192,203989,128,0,204418:0:0:0:0:
64,192,204418,128,0,204847:0:0:0:0:
320,192,204847,128,0,205275:0:0:0:0:
448,192,205275,128,0,205704:0:0:0:0:
64,192,205704,1,0,0:0:0:0:
192,192,206132,128,0,206561:0:0:0:0:
448,192,206561,1,0,0:0:0:0:
320,192,206989,1,0,0:0:0:0:
64,192,207204,1,0,0:0:0:0:
192,192,207418,1,0,0:0:0:0:
448,192,207847,1,0,0:0:0:0:
320,192,208275,1,0,0:0:0:0:
64,192,208275,1,0,0:0:0:0:
320,192,208704,1,0,0:0:0:0:
64,192,209132,128,0,209561:0:0:0:0:
448,192,209561,128,0,209989:0:0:0:0:
320,192,209989,1,0,0:0:0:0:
64,192,210418,1,0,0:0:0:0:
192,192,210632,1,0,0:0:0:0:
320,192,210847,1,0,0:0:0:0:
320,192,211275,1,0,0:0:0:0:
64,192,211489,128,0,211704:0:0:0:0:
448,192,211704,1,0,0:0:0:0:
320,192,212132,1,0,0:0:0:0:
192,192,212561,1,0,0:0:0:0:
448,192,212561,1,0,0:0:0:0:
