osu file format v12

[General]
AudioFilename: Meg_&_Dia_-_Monster_(DotEXE_Remix).mp3
AudioLeadIn: 0
PreviewTime: 40150
Countdown: 0
SampleSet: Soft
StackLeniency: 0.7
Mode: 3
LetterboxInBreaks: 0
SpecialStyle: 0
WidescreenStoryboard: 1

[Editor]
Bookmarks: 13724,21867,27117,39867,102867,109724,110474,116634,121777,123438,204009
DistanceSpacing: 1
BeatDivisor: 8
GridSize: 8

[Metadata]
Title:Monster (DotEXE Remix)
TitleUnicode:Monster (DotEXE Remix)
Artist:Meg & Dia
ArtistUnicode:Meg & Dia
Creator:Zillah
Version:4K Hallucination
Source:Meg & Dia
Tags:dubstep meg and dia monster remix EDM
BeatmapID:308231
BeatmapSetID:119741

[Difficulty]
HPDrainRate:7
CircleSize:4
OverallDifficulty:7
ApproachRate:5
SliderMultiplier:1.4
SliderTickRate:1

[Events]
//Background and Video events
0,0,"artworks-000024784978-vu97pe-original.jpg",0,0
//Break Periods
//Storyboard Layer 0 (Background)
//Storyboard Layer 1 (Fail)
//Storyboard Layer 2 (Pass)
//Storyboard Layer 3 (Foreground)
//Storyboard Sound Samples
//Background Colour Transformations
3,100,163,162,255

[TimingPoints]
-10.1360392262753,428.571428571429,4,2,0,100,1,0
41132,-153.846153846154,4,2,0,100,0,0
41347,-80,4,2,0,100,0,0
41561,-153.846153846154,4,2,0,100,0,0
41775,-80,4,2,0,100,0,0
41989,-153.846153846154,4,2,0,100,0,0
42204,-80,4,2,0,100,0,0
42418,-153.846153846154,4,2,0,100,0,0
42632,-80,4,2,0,100,0,0
42847,-100,4,2,0,100,0,0
44561,-153.846153846154,4,2,0,100,0,0
44775,-80,4,2,0,100,0,0
44989,-153.846153846154,4,2,0,100,0,0
45204,-80,4,2,0,100,0,0
45418,-153.846153846154,4,2,0,100,0,0
45472,-80,4,2,0,100,0,0
45632,-400,4,2,0,100,0,0
45686,-80,4,2,0,100,0,0
45847,-400,4,2,0,100,0,0
45900,-80,4,2,0,100,0,0
46061,-400,4,2,0,100,0,0
46114,-80,4,2,0,100,0,0
46275,-400,4,2,0,100,0,0
46329,-80,4,2,0,100,0,0
46489,-400,4,2,0,100,0,0
46543,-80,4,2,0,100,0,0
46704,-100,4,2,0,100,0,0
47989,-153.846153846154,4,2,0,100,0,0
48204,-80,4,2,0,100,0,0
48418,-153.846153846154,4,2,0,100,0,0
48632,-80,4,2,0,100,0,0
48847,-153.846153846154,4,2,0,100,0,0
49061,-80,4,2,0,100,0,0
49275,-153.846153846154,4,2,0,100,0,0
49489,-80,4,2,0,100,0,0
49704,-100,4,2,0,100,0,0
51418,-153.846153846154,4,2,0,100,0,0
51632,-80,4,2,0,100,0,0
51847,-153.846153846154,4,2,0,100,0,0
52061,-80,4,2,0,100,0,0
52275,-400,4,2,0,100,0,0
52329,-80,4,2,0,100,0,0
52489,-400,4,2,0,100,0,0
52543,-80,4,2,0,100,0,0
52704,-400,4,2,0,100,0,0
52757,-80,4,2,0,100,0,0
52918,-400,4,2,0,100,0,0
52972,-80,4,2,0,100,0,0
53132,-100,4,2,0,100,0,0
55061,-1000,4,2,0,100,0,0
55088,-153.846153846154,4,2,0,100,0,0
55114,-71.4285714285714,4,2,0,100,0,0
55168,-1000,4,2,0,100,0,0
55195,-153.846153846154,4,2,0,100,0,0
55222,-71.4285714285714,4,2,0,100,0,0
55275,-1000,4,2,0,100,0,0
55302,-153.846153846154,4,2,0,100,0,0
55329,-71.4285714285714,4,2,0,100,0,0
55382,-1000,4,2,0,100,0,0
55409,-153.846153846154,4,2,0,100,0,0
55436,-71.4285714285714,4,2,0,100,0,0
55489,-100,4,2,0,100,0,0
55543,-400,4,2,0,100,0,0
55597,-80,4,2,0,100,0,0
55704,-200,4,2,0,100,0,0
55811,-100,4,2,0,100,0,0
55918,-400,4,2,0,100,0,0
55945,-80,4,2,0,100,0,0
56025,-400,4,2,0,100,0,0
56052,-80,4,2,0,100,0,0
56132,-400,4,2,0,100,0,0
56159,-80,4,2,0,100,0,0
56239,-400,4,2,0,100,0,0
56266,-80,4,2,0,100,0,0
56347,-400,4,2,0,100,0,0
56400,-80,4,2,0,100,0,0
56561,-100,4,2,0,100,0,0
58275,-153.846153846154,4,2,0,100,0,0
58489,-80,4,2,0,100,0,0
58704,-153.846153846154,4,2,0,100,0,0
58918,-80,4,2,0,100,0,0
59132,-200,4,2,0,100,0,0
59239,-66.6666666666667,4,2,0,100,0,0
59347,-200,4,2,0,100,0,0
59454,-66.6666666666667,4,2,0,100,0,0
59561,-200,4,2,0,100,0,0
59668,-66.6666666666667,4,2,0,100,0,0
59775,-200,4,2,0,100,0,0
59882,-66.6666666666667,4,2,0,100,0,0
59989,-200,4,2,0,100,0,0
60097,-66.6666666666667,4,2,0,100,0,0
60204,-200,4,2,0,100,0,0
60311,-66.6666666666667,4,2,0,100,0,0
60418,-400,4,2,0,100,0,0
60472,-133.333333333333,4,2,0,100,0,0
60525,-66.6666666666667,4,2,0,100,0,0
60632,-400,4,2,0,100,0,0
60659,-133.333333333333,4,2,0,100,0,0
60686,-66.6666666666667,4,2,0,100,0,0
60739,-400,4,2,0,100,0,0
60766,-133.333333333333,4,2,0,100,0,0
60793,-66.6666666666667,4,2,0,100,0,0
60847,-400,4,2,0,100,0,0
60900,-133.333333333333,4,2,0,100,0,0
60954,-66.6666666666667,4,2,0,100,0,0
61061,-400,4,2,0,100,0,0
61114,-133.333333333333,4,2,0,100,0,0
61168,-66.6666666666667,4,2,0,100,0,0
61275,-100,4,2,0,100,0,0
61329,-76.9230769230769,4,2,0,100,0,0
61382,-62.5,4,2,0,100,0,0
61436,-52.6315789473684,4,2,0,100,0,0
61489,-47.6190476190476,4,2,0,100,0,0
61543,-52.6315789473684,4,2,0,100,0,0
61597,-62.5,4,2,0,100,0,0
61650,-76.9230769230769,4,2,0,100,0,0
61704,-133.333333333333,4,2,0,100,0,0
61918,-83.3333333333333,4,2,0,100,0,0
62132,-133.333333333333,4,2,0,100,0,0
62347,-83.3333333333333,4,2,0,100,0,0
62561,-133.333333333333,4,2,0,100,0,0
62775,-83.3333333333333,4,2,0,100,0,0
62989,-133.333333333333,4,2,0,100,0,0
63204,-83.3333333333333,4,2,0,100,0,0
63418,-100,4,2,0,100,0,0
65132,-133.333333333333,4,2,0,100,0,0
65347,-83.3333333333333,4,2,0,100,0,0
65561,-133.333333333333,4,2,0,100,0,0
65775,-83.3333333333333,4,2,0,100,0,0
66097,-200,4,2,0,100,0,0
66204,-100,4,2,0,100,0,0
66311,-200,4,2,0,100,0,0
66418,-100,4,2,0,100,0,0
66525,-200,4,2,0,100,0,0
66632,-100,4,2,0,100,0,0
66739,-200,4,2,0,100,0,0
66847,-100,4,2,0,100,0,0
68561,-133.333333333333,4,2,0,100,0,0
68775,-83.3333333333333,4,2,0,100,0,0
68989,-133.333333333333,4,2,0,100,0,0
69204,-200,4,2,0,100,0,0
69311,-100,4,2,0,100,0,0
69418,-200,4,2,0,100,0,0
69525,-133.333333333333,4,2,0,100,0,0
69632,-100,4,2,0,100,0,0
71989,-133.333333333333,4,2,0,100,0,0
72204,-83.3333333333333,4,2,0,100,0,0
72418,-133.333333333333,4,2,0,100,0,0
72632,-83.3333333333333,4,2,0,100,0,0
72954,-200,4,2,0,100,0,0
73061,-100,4,2,0,100,0,0
73168,-200,4,2,0,100,0,0
73275,-100,4,2,0,100,0,0
73382,-200,4,2,0,100,0,0
73489,-100,4,2,0,100,0,0
73597,-200,4,2,0,100,0,0
73704,-100,4,2,0,100,0,0
73811,-200,4,2,0,100,0,0
73918,-100,4,2,0,100,0,0
74025,-200,4,2,0,100,0,0
74132,-100,4,2,0,100,0,0
75418,-133.333333333333,4,2,0,100,0,0
75632,-83.3333333333333,4,2,0,100,0,0
75847,-133.333333333333,4,2,0,100,0,0
76061,-83.3333333333333,4,2,0,100,0,0
76275,-133.333333333333,4,2,0,100,0,0
76489,-83.3333333333333,4,2,0,100,0,0
76704,-133.333333333333,4,2,0,100,0,0
76918,-83.3333333333333,4,2,0,100,0,0
77132,-133.333333333333,4,2,0,100,0,0
77347,-100,4,2,0,100,0,0
78847,-133.333333333333,4,2,0,100,0,0
79061,-83.3333333333333,4,2,0,100,0,0
79275,-133.333333333333,4,2,0,100,0,0
79489,-83.3333333333333,4,2,0,100,0,0
79811,-200,4,2,0,100,0,0
80025,-200,4,2,0,100,0,0
80132,-100,4,2,0,100,0,0
80239,-200,4,2,0,100,0,0
80347,-100,4,2,0,100,0,0
80454,-200,4,2,0,100,0,0
80561,-100,4,2,0,100,0,0
80668,-200,4,2,0,100,0,0
80775,-100,4,2,0,100,0,0
80882,-200,4,2,0,100,0,0
80989,-100,4,2,0,100,0,0
81954,-90.9090909090909,4,2,0,100,0,0
82061,-86.9565217391304,4,2,0,100,0,0
82168,-90.9090909090909,4,2,0,100,0,0
82275,-100,4,2,0,100,0,0
83132,-133.333333333333,4,2,0,100,0,0
83347,-83.3333333333333,4,2,0,100,0,0
83561,-133.333333333333,4,2,0,100,0,0
83775,-83.3333333333333,4,2,0,100,0,0
83989,-100,4,2,0,100,0,0
85704,-133.333333333333,4,2,0,100,0,0
85918,-83.3333333333333,4,2,0,100,0,0
86132,-133.333333333333,4,2,0,100,0,0
86347,-83.3333333333333,4,2,0,100,0,0
86561,-200,4,2,0,100,0,0
86668,-100,4,2,0,100,0,0
86775,-200,4,2,0,100,0,0
86882,-100,4,2,0,100,0,0
86989,-200,4,2,0,100,0,0
87097,-100,4,2,0,100,0,0
87204,-200,4,2,0,100,0,0
87311,-100,4,2,0,100,0,0
87418,-200,4,2,0,100,0,0
87525,-100,4,2,0,100,0,0
87632,-200,4,2,0,100,0,0
87739,-100,4,2,0,100,0,0
89132,-133.333333333333,4,2,0,100,0,0
89347,-83.3333333333333,4,2,0,100,0,0
89561,-133.333333333333,4,2,0,100,0,0
89775,-83.3333333333333,4,2,0,100,0,0
89989,-133.333333333333,4,2,0,100,0,0
90204,-83.3333333333333,4,2,0,100,0,0
90418,-133.333333333333,4,2,0,100,0,0
90632,-83.3333333333333,4,2,0,100,0,0
90847,-133.333333333333,4,2,0,100,0,0
91061,-83.3333333333333,4,2,0,100,0,0
92561,-133.333333333333,4,2,0,100,0,0
92775,-83.3333333333333,4,2,0,100,0,0
92989,-133.333333333333,4,2,0,100,0,0
93204,-83.3333333333333,4,2,0,100,0,0
93418,-200,4,2,0,100,0,0
93525,-100,4,2,0,100,0,0
93632,-200,4,2,0,100,0,0
93739,-100,4,2,0,100,0,0
93847,-200,4,2,0,100,0,0
93954,-100,4,2,0,100,0,0
94061,-200,4,2,0,100,0,0
94168,-100,4,2,0,100,0,0
95561,-95.2380952380952,4,2,0,100,0,0
95668,-90.9090909090909,4,2,0,100,0,0
95775,-86.9565217391304,4,2,0,100,0,0
95882,-90.9090909090909,4,2,0,100,0,0
95989,-95.2380952380952,4,2,0,100,0,0
96097,-100,4,2,0,100,0,0
96204,-111.111111111111,4,2,0,100,0,0
102847,-125,4,2,0,100,0,0
106275,-111.111111111111,4,2,0,100,0,0
109704,-100,4,2,0,100,0,0
121704,-50,4,2,0,100,0,0
121811,-33.3333333333333,4,2,0,100,0,0
121918,-25,4,2,0,100,0,0
122025,-20,4,2,0,100,0,0
122132,-16.6666666666667,4,2,0,100,0,0
122239,-14.2857142857143,4,2,0,100,0,0
122347,-12.5,4,2,0,100,0,0
122454,-11.1111111111111,4,2,0,100,0,0
122561,-10,4,2,0,100,0,0
122668,-12.5,4,2,0,100,0,0
122775,-16.6666666666667,4,2,0,100,0,0
122882,-25,4,2,0,100,0,0
122989,-50,4,2,0,100,0,0
123097,-1000,4,2,0,100,0,0
123204,-200,4,2,0,100,0,0
123311,-111.111111111111,4,2,0,100,0,0
123418,-100,4,2,0,100,0,0
153418,-16.6666666666667,4,2,0,100,0,0
153847,-1000,4,2,0,100,0,0
154275,-100,4,2,0,100,0,0
192850,-66.6666666666667,4,2,0,100,0,0
193275,-250,4,2,0,100,0,0
193704,-100,4,2,0,50,0,0

[HitObjects]
192,192,13704,1,0,0:0:0:0:
448,192,13704,1,0,0:0:0:0:
64,192,14132,1,0,0:0:0:0:
320,192,14132,1,0,0:0:0:0:
320,192,14561,1,0,0:0:0:0:
64,192,14989,1,0,0:0:0:0:
320,192,15418,1,0,0:0:0:0:
64,192,15847,1,0,0:0:0:0:
448,192,15847,1,0,0:0:0:0:
192,192,16061,1,0,0:0:0:0:
64,192,16275,1,0,0:0:0:0:
192,192,16704,1,0,0:0:0:0:
448,192,16704,1,0,0:0:0:0:
192,192,17132,1,0,0:0:0:0:
64,192,17132,128,0,18418:0:0:0:0:
192,192,17989,1,0,0:0:0:0:
448,192,17989,1,0,0:0:0:0:
320,192,18418,1,0,0:0:0:0:
192,192,18847,1,0,0:0:0:0:
64,192,19275,1,0,0:0:0:0:
448,192,19275,1,0,0:0:0:0:
192,192,19489,1,0,0:0:0:0:
64,192,19597,1,0,0:0:0:0:
448,192,19704,1,0,0:0:0:0:
448,192,20132,128,0,20561:0:0:0:0:
64,192,20561,1,0,0:0:0:0:
320,192,20561,1,0,0:0:0:0:
192,192,20561,128,0,22275:0:0:0:0:
64,192,20989,1,0,0:0:0:0:
448,192,21418,1,0,0:0:0:0:
64,192,21847,1,0,0:0:0:0:
448,192,22275,128,0,23561:0:0:0:0:
64,192,22275,1,0,0:0:0:0:
192,192,22704,1,0,0:0:0:0:
64,192,22918,1,0,0:0:0:0:
320,192,23132,1,0,0:0:0:0:
64,192,23561,1,0,0:0:0:0:
192,192,23989,128,0,25275:0:0:0:0:
448,192,23989,1,0,0:0:0:0:
64,192,24632,1,0,0:0:0:0:
320,192,24739,1,0,0:0:0:0:
64,192,24847,1,0,0:0:0:0:
448,192,25061,1,0,0:0:0:0:
320,192,25275,1,0,0:0:0:0:
320,192,25704,128,0,26561:0:0:0:0:
64,192,25704,1,0,0:0:0:0:
64,192,26132,1,0,0:0:0:0:
448,192,26347,1,0,0:0:0:0:
192,192,26454,1,0,0:0:0:0:
64,192,26561,1,0,0:0:0:0:
192,192,26775,1,0,0:0:0:0:
320,192,26775,1,0,0:0:0:0:
64,192,26989,128,0,27418:0:0:0:0:
192,192,27418,1,0,0:0:0:0:
448,192,27418,1,0,0:0:0:0:
320,192,27847,1,0,0:0:0:0:
448,192,27847,1,0,0:0:0:0:
64,192,28275,1,0,0:0:0:0:
192,192,28275,1,0,0:0:0:0:
192,192,28704,1,0,0:0:0:0:
448,192,28704,1,0,0:0:0:0:
320,192,28918,1,0,0:0:0:0:
64,192,28918,1,0,0:0:0:0:
192,192,29132,1,0,0:0:0:0:
320,192,29132,1,0,0:0:0:0:
192,192,29347,1,0,0:0:0:0:
320,192,29347,1,0,0:0:0:0:
64,192,29561,1,0,0:0:0:0:
192,192,29775,1,0,0:0:0:0:
320,192,29989,1,0,0:0:0:0:
448,192,29989,1,0,0:0:0:0:
192,192,30418,1,0,0:0:0:0:
64,192,30847,1,0,0:0:0:0:
448,192,30847,1,0,0:0:0:0:
192,192,31275,1,0,0:0:0:0:
448,192,31275,1,0,0:0:0:0:
320,192,31704,1,0,0:0:0:0:
448,192,31704,1,0,0:0:0:0:
192,192,32132,1,0,0:0:0:0:
448,192,32132,1,0,0:0:0:0:
320,192,32347,1,0,0:0:0:0:
448,192,32347,1,0,0:0:0:0:
320,192,32561,1,0,0:0:0:0:
448,192,32561,1,0,0:0:0:0:
448,192,32775,1,0,0:0:0:0:
192,192,32989,128,0,33204:0:0:0:0:
64,192,33418,128,0,33632:0:0:0:0:
320,192,33418,128,0,33632:0:0:0:0:
448,192,33847,1,0,0:0:0:0:
192,192,34061,1,0,0:0:0:0:
320,192,34061,1,0,0:0:0:0:
64,192,34275,1,0,0:0:0:0:
320,192,34275,1,0,0:0:0:0:
448,192,34275,1,0,0:0:0:0:
64,192,34704,1,0,0:0:0:0:
192,192,34704,1,0,0:0:0:0:
448,192,34704,1,0,0:0:0:0:
64,192,35132,1,0,0:0:0:0:
192,192,35347,1,0,0:0:0:0:
320,192,35561,1,0,0:0:0:0:
448,192,35775,1,0,0:0:0:0:
320,192,35989,1,0,0:0:0:0:
192,192,36204,1,0,0:0:0:0:
64,192,36418,1,0,0:0:0:0:
192,192,36632,1,0,0:0:0:0:
192,192,36847,1,0,0:0:0:0:
448,192,36847,1,0,0:0:0:0:
192,192,37061,1,0,0:0:0:0:
320,192,37061,1,0,0:0:0:0:
64,192,37275,1,0,0:0:0:0:
320,192,37275,1,0,0:0:0:0:
64,192,37489,1,0,0:0:0:0:
448,192,37489,1,0,0:0:0:0:
448,192,37704,1,0,0:0:0:0:
320,192,37811,1,0,0:0:0:0:
192,192,37918,1,0,0:0:0:0:
64,192,38025,1,0,0:0:0:0:
192,192,38132,1,0,0:0:0:0:
192,192,38239,1,0,0:0:0:0:
64,192,38347,1,0,0:0:0:0:
448,192,38347,1,0,0:0:0:0:
192,192,38454,1,0,0:0:0:0:
320,192,38561,1,0,0:0:0:0:
448,192,38668,1,0,0:0:0:0:
192,192,38775,1,0,0:0:0:0:
64,192,38882,1,0,0:0:0:0:
448,192,38989,1,0,0:0:0:0:
64,192,39097,1,0,0:0:0:0:
64,192,39418,1,0,0:0:0:0:
192,192,39525,1,0,0:0:0:0:
192,192,39632,1,0,0:0:0:0:
320,192,39632,1,0,0:0:0:0:
320,192,39739,1,0,0:0:0:0:
448,192,39847,1,0,0:0:0:0:
64,192,39954,1,0,0:0:0:0:
192,192,40061,1,0,0:0:0:0:
320,192,40168,1,0,0:0:0:0:
448,192,40275,1,0,0:0:0:0:
192,192,41132,128,0,41561:0:0:0:0:
320,192,41561,1,0,0:0:0:0:
448,192,41561,128,0,41989:0:0:0:0:
320,192,41989,1,0,0:0:0:0:
64,192,41989,128,0,42418:0:0:0:0:
192,192,42418,1,0,0:0:0:0:
448,192,42418,128,0,42847:0:0:0:0:
320,192,42847,1,0,0:0:0:0:
64,192,42847,128,0,43275:0:0:0:0:
448,192,43061,1,0,0:0:0:0:
192,192,43275,1,0,0:0:0:0:
320,192,43275,1,0,0:0:0:0:
448,192,43489,1,0,0:0:0:0:
320,192,43704,1,0,0:0:0:0:
64,192,44132,1,0,0:0:0:0:
448,192,44132,1,0,0:0:0:0:
192,192,44347,1,0,0:0:0:0:
448,192,44347,1,0,0:0:0:0:
448,192,44561,1,0,0:0:0:0:
64,192,44561,128,0,44989:0:0:0:0:
192,192,44989,1,0,0:0:0:0:
448,192,44989,128,0,45418:0:0:0:0:
320,192,45418,1,0,0:0:0:0:
192,192,45632,1,0,0:0:0:0:
64,192,45847,1,0,0:0:0:0:
448,192,46061,1,0,0:0:0:0:
192,192,46275,1,0,0:0:0:0:
320,192,46489,1,0,0:0:0:0:
448,192,46704,1,0,0:0:0:0:
64,192,46918,1,0,0:0:0:0:
192,192,47025,1,0,0:0:0:0:
320,192,47132,1,0,0:0:0:0:
448,192,47347,1,0,0:0:0:0:
320,192,47561,1,0,0:0:0:0:
320,192,47989,128,0,48418:0:0:0:0:
192,192,48418,128,0,48847:0:0:0:0:
320,192,48847,128,0,49275:0:0:0:0:
448,192,49275,128,0,49704:0:0:0:0:
320,192,49704,1,0,0:0:0:0:
64,192,49704,128,0,50347:0:0:0:0:
192,192,49918,1,0,0:0:0:0:
320,192,50132,1,0,0:0:0:0:
448,192,50347,1,0,0:0:0:0:
64,192,50561,1,0,0:0:0:0:
320,192,50775,1,0,0:0:0:0:
448,192,50989,1,0,0:0:0:0:
192,192,51204,1,0,0:0:0:0:
64,192,51418,128,0,51847:0:0:0:0:
192,192,51847,1,0,0:0:0:0:
448,192,51847,128,0,52275:0:0:0:0:
320,192,52275,1,0,0:0:0:0:
320,192,52489,1,0,0:0:0:0:
64,192,52704,1,0,0:0:0:0:
448,192,52918,1,0,0:0:0:0:
320,192,53132,1,0,0:0:0:0:
192,192,53347,1,0,0:0:0:0:
448,192,53561,1,0,0:0:0:0:
64,192,53775,1,0,0:0:0:0:
192,192,53882,1,0,0:0:0:0:
320,192,53989,1,0,0:0:0:0:
448,192,54204,1,0,0:0:0:0:
320,192,54311,1,0,0:0:0:0:
64,192,54418,1,0,0:0:0:0:
192,192,54525,1,0,0:0:0:0:
320,192,54632,1,0,0:0:0:0:
448,192,54740,1,0,0:0:0:0:
320,192,54847,1,0,0:0:0:0:
192,192,54847,1,0,0:0:0:0:
64,192,55061,1,0,0:0:0:0:
320,192,55061,1,0,0:0:0:0:
192,192,55275,1,0,0:0:0:0:
448,192,55275,1,0,0:0:0:0:
320,192,55382,1,0,0:0:0:0:
64,192,55382,1,0,0:0:0:0:
192,192,55490,1,0,0:0:0:0:
448,192,55490,1,0,0:0:0:0:
192,192,55704,1,0,0:0:0:0:
448,192,55704,128,0,55918:0:0:0:0:
64,192,55918,1,0,0:0:0:0:
320,192,56132,1,0,0:0:0:0:
192,192,56239,1,0,0:0:0:0:
64,192,56347,1,0,0:0:0:0:
192,192,56561,1,0,0:0:0:0:
320,192,56668,1,0,0:0:0:0:
448,192,56775,1,0,0:0:0:0:
192,192,57204,1,0,0:0:0:0:
448,192,57204,1,0,0:0:0:0:
64,192,57418,1,0,0:0:0:0:
448,192,57418,1,0,0:0:0:0:
192,192,57847,1,0,0:0:0:0:
64,192,57847,1,0,0:0:0:0:
320,192,57954,1,0,0:0:0:0:
320,192,58061,1,0,0:0:0:0:
448,192,58061,1,0,0:0:0:0:
192,192,58168,1,0,0:0:0:0:
192,192,58275,1,0,0:0:0:0:
64,192,58275,1,0,0:0:0:0:
448,192,58275,128,0,58918:0:0:0:0:
64,192,59132,1,0,0:0:0:0:
192,192,59347,1,0,0:0:0:0:
320,192,59561,1,0,0:0:0:0:
448,192,59561,1,0,0:0:0:0:
320,192,59775,1,0,0:0:0:0:
192,192,59989,1,0,0:0:0:0:
448,192,60204,1,0,0:0:0:0:
64,192,60418,1,0,0:0:0:0:
192,192,60525,1,0,0:0:0:0:
320,192,60632,1,0,0:0:0:0:
448,192,60739,1,0,0:0:0:0:
320,192,60847,1,0,0:0:0:0:
192,192,61704,1,0,0:0:0:0:
448,192,61704,128,0,62132:0:0:0:0:
64,192,62132,128,0,62561:0:0:0:0:
192,192,62561,128,0,62989:0:0:0:0:
448,192,62561,1,0,0:0:0:0:
448,192,62989,128,0,63418:0:0:0:0:
320,192,63418,1,0,0:0:0:0:
64,192,63418,128,0,63847:0:0:0:0:
448,192,63632,1,0,0:0:0:0:
192,192,63847,1,0,0:0:0:0:
448,192,64061,1,0,0:0:0:0:
320,192,64275,1,0,0:0:0:0:
192,192,64489,1,0,0:0:0:0:
64,192,64704,128,0,64918:0:0:0:0:
192,192,64704,128,0,64918:0:0:0:0:
448,192,64918,128,0,65132:0:0:0:0:
320,192,64918,1,0,0:0:0:0:
64,192,65132,128,0,65561:0:0:0:0:
192,192,65561,128,0,65989:0:0:0:0:
64,192,66204,1,0,0:0:0:0:
448,192,66418,1,0,0:0:0:0:
192,192,66632,1,0,0:0:0:0:
64,192,66847,1,0,0:0:0:0:
448,192,66847,128,0,67275:0:0:0:0:
192,192,67275,128,0,67704:0:0:0:0:
320,192,67704,128,0,68132:0:0:0:0:
192,192,68239,1,0,0:0:0:0:
64,192,68347,1,0,0:0:0:0:
320,192,68454,1,0,0:0:0:0:
192,192,68561,1,0,0:0:0:0:
448,192,68561,128,0,68989:0:0:0:0:
320,192,68989,1,0,0:0:0:0:
192,192,69204,1,0,0:0:0:0:
320,192,69311,1,0,0:0:0:0:
64,192,69418,128,0,69632:0:0:0:0:
320,192,69847,128,0,70061:0:0:0:0:
64,192,70275,1,0,0:0:0:0:
192,192,70275,1,0,0:0:0:0:
448,192,70275,128,0,70489:0:0:0:0:
320,192,70489,1,0,0:0:0:0:
192,192,70704,1,0,0:0:0:0:
320,192,70918,1,0,0:0:0:0:
64,192,71132,1,0,0:0:0:0:
192,192,71132,1,0,0:0:0:0:
448,192,71132,1,0,0:0:0:0:
320,192,71347,1,0,0:0:0:0:
448,192,71775,1,0,0:0:0:0:
320,192,71989,1,0,0:0:0:0:
192,192,71989,128,0,72418:0:0:0:0:
448,192,72418,1,0,0:0:0:0:
64,192,72418,128,0,72847:0:0:0:0:
320,192,72847,128,0,73061:0:0:0:0:
448,192,73061,128,0,73275:0:0:0:0:
192,192,73275,128,0,73489:0:0:0:0:
64,192,73489,128,0,73704:0:0:0:0:
320,192,73704,128,0,73918:0:0:0:0:
448,192,73918,128,0,74132:0:0:0:0:
192,192,74132,1,0,0:0:0:0:
64,192,74347,1,0,0:0:0:0:
192,192,74454,1,0,0:0:0:0:
320,192,74561,1,0,0:0:0:0:
320,192,74775,1,0,0:0:0:0:
448,192,74989,1,0,0:0:0:0:
64,192,75418,128,0,76061:0:0:0:0:
192,192,75847,1,0,0:0:0:0:
448,192,76061,1,0,0:0:0:0:
448,192,76275,128,0,76704:0:0:0:0:
320,192,76704,1,0,0:0:0:0:
192,192,76918,1,0,0:0:0:0:
64,192,77132,128,0,77347:0:0:0:0:
448,192,77132,128,0,77347:0:0:0:0:
192,192,77561,1,0,0:0:0:0:
448,192,77561,1,0,0:0:0:0:
320,192,77775,1,0,0:0:0:0:
448,192,77775,1,0,0:0:0:0:
448,192,77989,1,0,0:0:0:0:
320,192,77989,1,0,0:0:0:0:
64,192,78204,1,0,0:0:0:0:
320,192,78204,1,0,0:0:0:0:
64,192,78418,1,0,0:0:0:0:
448,192,78418,1,0,0:0:0:0:
192,192,78632,1,0,0:0:0:0:
64,192,78632,1,0,0:0:0:0:
64,192,78847,1,0,0:0:0:0:
320,192,78847,128,0,79489:0:0:0:0:
448,192,79061,1,0,0:0:0:0:
64,192,79275,1,0,0:0:0:0:
448,192,79489,1,0,0:0:0:0:
64,192,79704,128,0,79918:0:0:0:0:
448,192,79918,128,0,80132:0:0:0:0:
192,192,80132,128,0,80347:0:0:0:0:
448,192,80347,128,0,80561:0:0:0:0:
320,192,80561,128,0,80775:0:0:0:0:
448,192,80775,128,0,80989:0:0:0:0:
64,192,80989,128,0,81204:0:0:0:0:
192,192,81204,1,0,0:0:0:0:
448,192,81204,128,0,81418:0:0:0:0:
320,192,81311,1,0,0:0:0:0:
192,192,81418,1,0,0:0:0:0:
64,192,81418,128,0,81632:0:0:0:0:
448,192,81632,128,0,81847:0:0:0:0:
320,192,81847,1,0,0:0:0:0:
192,192,81954,1,0,0:0:0:0:
64,192,82061,1,0,0:0:0:0:
192,192,82168,1,0,0:0:0:0:
448,192,82275,1,0,0:0:0:0:
320,192,82489,1,0,0:0:0:0:
64,192,82597,1,0,0:0:0:0:
192,192,82704,1,0,0:0:0:0:
320,192,82811,1,0,0:0:0:0:
448,192,82918,1,0,0:0:0:0:
192,192,83132,1,0,0:0:0:0:
64,192,83132,128,0,83454:0:0:0:0:
320,192,83561,128,0,83882:0:0:0:0:
320,192,83989,1,0,0:0:0:0:
192,192,84097,1,0,0:0:0:0:
64,192,84204,1,0,0:0:0:0:
448,192,84204,128,0,84418:0:0:0:0:
320,192,84418,1,0,0:0:0:0:
64,192,84632,1,0,0:0:0:0:
320,192,84632,1,0,0:0:0:0:
192,192,84847,1,0,0:0:0:0:
448,192,84847,1,0,0:0:0:0:
320,192,85275,128,0,85704:0:0:0:0:
448,192,85275,1,0,0:0:0:0:
64,192,85489,1,0,0:0:0:0:
448,192,85704,1,0,0:0:0:0:
64,192,85704,128,0,86132:0:0:0:0:
320,192,85918,1,0,0:0:0:0:
448,192,86132,128,0,86561:0:0:0:0:
192,192,86132,1,0,0:0:0:0:
320,192,86239,1,0,0:0:0:0:
192,192,86347,1,0,0:0:0:0:
320,192,86454,1,0,0:0:0:0:
64,192,86561,1,0,0:0:0:0:
192,192,86561,1,0,0:0:0:0:
192,192,86775,1,0,0:0:0:0:
448,192,86775,1,0,0:0:0:0:
64,192,86989,1,0,0:0:0:0:
448,192,86989,1,0,0:0:0:0:
192,192,87204,1,0,0:0:0:0:
320,192,87204,1,0,0:0:0:0:
64,192,87418,1,0,0:0:0:0:
320,192,87418,1,0,0:0:0:0:
320,192,87632,1,0,0:0:0:0:
64,192,87847,1,0,0:0:0:0:
448,192,87847,1,0,0:0:0:0:
192,192,88061,1,0,0:0:0:0:
320,192,88168,1,0,0:0:0:0:
448,192,88275,1,0,0:0:0:0:
320,192,88489,1,0,0:0:0:0:
64,192,88704,1,0,0:0:0:0:
448,192,89132,1,0,0:0:0:0:
320,192,89132,128,0,89775:0:0:0:0:
64,192,89561,128,0,89775:0:0:0:0:
192,192,89989,128,0,90632:0:0:0:0:
448,192,90418,128,0,90632:0:0:0:0:
64,192,90847,1,0,0:0:0:0:
448,192,90847,128,0,91061:0:0:0:0:
192,192,91489,1,0,0:0:0:0:
320,192,91489,1,0,0:0:0:0:
64,192,91704,1,0,0:0:0:0:
320,192,91704,1,0,0:0:0:0:
64,192,91918,1,0,0:0:0:0:
448,192,91918,1,0,0:0:0:0:
192,192,92132,1,0,0:0:0:0:
448,192,92132,1,0,0:0:0:0:
64,192,92347,1,0,0:0:0:0:
448,192,92347,1,0,0:0:0:0:
320,192,92561,128,0,93204:0:0:0:0:
64,192,92989,128,0,93204:0:0:0:0:
320,192,93418,128,0,94275:0:0:0:0:
64,192,93632,1,0,0:0:0:0:
448,192,93847,1,0,0:0:0:0:
192,192,94061,1,0,0:0:0:0:
448,192,94275,1,0,0:0:0:0:
64,192,94275,128,0,94704:0:0:0:0:
192,192,94704,128,0,95132:0:0:0:0:
320,192,95132,128,0,95561:0:0:0:0:
448,192,95561,128,0,95989:0:0:0:0:
64,192,95989,1,0,0:0:0:0:
192,192,96204,1,0,0:0:0:0:
320,192,96418,1,0,0:0:0:0:
448,192,96632,1,0,0:0:0:0:
192,192,96847,1,0,0:0:0:0:
64,192,97061,1,0,0:0:0:0:
320,192,97275,1,0,0:0:0:0:
448,192,97489,1,0,0:0:0:0:
192,192,97704,1,0,0:0:0:0:
320,192,97918,1,0,0:0:0:0:
64,192,98132,1,0,0:0:0:0:
448,192,98347,1,0,0:0:0:0:
192,192,98561,1,0,0:0:0:0:
448,192,98775,1,0,0:0:0:0:
192,192,98989,1,0,0:0:0:0:
64,192,99204,1,0,0:0:0:0:
64,192,99418,1,0,0:0:0:0:
320,192,99632,1,0,0:0:0:0:
192,192,99847,1,0,0:0:0:0:
320,192,100061,1,0,0:0:0:0:
192,192,100275,1,0,0:0:0:0:
448,192,100489,1,0,0:0:0:0:
320,192,100704,1,0,0:0:0:0:
448,192,100918,1,0,0:0:0:0:
320,192,101132,1,0,0:0:0:0:
320,192,101561,1,0,0:0:0:0:
192,192,101561,1,0,0:0:0:0:
64,192,101775,1,0,0:0:0:0:
192,192,101882,1,0,0:0:0:0:
320,192,101989,1,0,0:0:0:0:
320,192,102418,1,0,0:0:0:0:
448,192,102418,1,0,0:0:0:0:
64,192,102847,1,0,0:0:0:0:
320,192,102847,1,0,0:0:0:0:
448,192,103061,1,0,0:0:0:0:
192,192,103275,1,0,0:0:0:0:
64,192,103489,1,0,0:0:0:0:
192,192,103704,1,0,0:0:0:0:
448,192,103918,1,0,0:0:0:0:
320,192,104132,1,0,0:0:0:0:
192,192,104347,1,0,0:0:0:0:
192,192,104561,1,0,0:0:0:0:
64,192,104561,1,0,0:0:0:0:
320,192,104775,1,0,0:0:0:0:
448,192,104775,1,0,0:0:0:0:
192,192,104989,1,0,0:0:0:0:
320,192,104989,1,0,0:0:0:0:
320,192,105204,1,0,0:0:0:0:
448,192,105204,1,0,0:0:0:0:
64,192,105418,1,0,0:0:0:0:
64,192,106275,1,0,0:0:0:0:
320,192,106275,1,0,0:0:0:0:
320,192,106489,1,0,0:0:0:0:
448,192,106704,1,0,0:0:0:0:
320,192,106918,1,0,0:0:0:0:
448,192,107132,1,0,0:0:0:0:
192,192,107132,1,0,0:0:0:0:
64,192,107132,1,0,0:0:0:0:
320,192,107561,1,0,0:0:0:0:
448,192,107722,1,0,0:0:0:0:
64,192,107989,1,0,0:0:0:0:
192,192,107989,1,0,0:0:0:0:
320,192,107989,128,0,108418:0:0:0:0:
448,192,108418,1,0,0:0:0:0:
64,192,108632,1,0,0:0:0:0:
192,192,108739,1,0,0:0:0:0:
320,192,108847,1,0,0:0:0:0:
448,192,108847,128,0,109275:0:0:0:0:
320,192,109275,1,0,0:0:0:0:
64,192,109489,1,0,0:0:0:0:
192,192,109704,1,0,0:0:0:0:
320,192,109704,128,0,110132:0:0:0:0:
448,192,110132,128,0,110561:0:0:0:0:
192,192,110132,1,0,0:0:0:0:
64,192,110561,1,0,0:0:0:0:
192,192,110989,128,0,111204:0:0:0:0:
320,192,111204,128,0,111418:0:0:0:0:
448,192,111418,128,0,111632:0:0:0:0:
320,192,111847,128,0,112275:0:0:0:0:
64,192,112061,1,0,0:0:0:0:
192,192,112275,1,0,0:0:0:0:
64,192,112704,1,0,0:0:0:0:
192,192,112704,1,0,0:0:0:0:
320,192,112918,1,0,0:0:0:0:
448,192,112918,1,0,0:0:0:0:
192,192,113132,1,0,0:0:0:0:
320,192,113132,128,0,113561:0:0:0:0:
448,192,113561,128,0,113989:0:0:0:0:
192,192,113989,1,0,0:0:0:0:
192,192,114418,1,0,0:0:0:0:
320,192,114579,1,0,0:0:0:0:
448,192,114847,128,0,115275:0:0:0:0:
64,192,115275,128,0,115704:0:0:0:0:
192,192,115704,128,0,116132:0:0:0:0:
320,192,116132,128,0,116561:0:0:0:0:
448,192,116561,128,0,116989:0:0:0:0:
64,192,116989,128,0,117418:0:0:0:0:
192,192,117418,1,0,0:0:0:0:
320,192,117418,1,0,0:0:0:0:
64,192,117847,1,0,0:0:0:0:
192,192,117847,1,0,0:0:0:0:
320,192,118061,1,0,0:0:0:0:
448,192,118061,1,0,0:0:0:0:
192,192,118275,1,0,0:0:0:0:
320,192,118275,1,0,0:0:0:0:
448,192,118704,1,0,0:0:0:0:
64,192,118704,1,0,0:0:0:0:
64,192,118918,1,0,0:0:0:0:
320,192,118918,1,0,0:0:0:0:
192,192,119132,1,0,0:0:0:0:
448,192,119132,1,0,0:0:0:0:
64,192,119561,128,0,119775:0:0:0:0:
192,192,119561,128,0,119775:0:0:0:0:
320,192,119775,128,0,119989:0:0:0:0:
448,192,119775,128,0,119989:0:0:0:0:
192,192,119989,128,0,120418:0:0:0:0:
320,192,120418,128,0,120847:0:0:0:0:
64,192,121061,1,0,0:0:0:0:
448,192,121275,1,0,0:0:0:0:
192,192,121489,1,0,0:0:0:0:
320,192,121704,1,0,0:0:0:0:
192,192,123418,1,0,0:0:0:0:
448,192,123418,1,0,0:0:0:0:
320,192,123847,1,0,0:0:0:0:
64,192,123847,1,0,0:0:0:0:
320,192,124275,1,0,0:0:0:0:
448,192,124275,1,0,0:0:0:0:
64,192,124489,1,0,0:0:0:0:
320,192,124704,1,0,0:0:0:0:
192,192,124918,1,0,0:0:0:0:
448,192,125132,1,0,0:0:0:0:
192,192,125347,1,0,0:0:0:0:
320,192,125561,128,0,125775:0:0:0:0:
448,192,125561,128,0,125775:0:0:0:0:
64,192,125989,128,0,126204:0:0:0:0:
192,192,125989,128,0,126204:0:0:0:0:
448,192,126418,1,0,0:0:0:0:
320,192,126525,1,0,0:0:0:0:
192,192,126632,1,0,0:0:0:0:
64,192,126632,128,0,126847:0:0:0:0:
192,192,126847,128,0,127275:0:0:0:0:
320,192,127275,128,0,127704:0:0:0:0:
448,192,127704,1,0,0:0:0:0:
64,192,127704,128,0,128132:0:0:0:0:
448,192,128132,1,0,0:0:0:0:
320,192,128347,1,0,0:0:0:0:
192,192,128561,1,0,0:0:0:0:
448,192,128775,1,0,0:0:0:0:
192,192,128936,128,0,129204:0:0:0:0:
448,192,129418,128,0,129847:0:0:0:0:
448,192,130275,1,0,0:0:0:0:
64,192,130382,1,0,0:0:0:0:
192,192,130489,1,0,0:0:0:0:
448,192,130597,1,0,0:0:0:0:
320,192,130704,1,0,0:0:0:0:
192,192,130811,1,0,0:0:0:0:
64,192,130918,1,0,0:0:0:0:
448,192,131025,1,0,0:0:0:0:
192,192,131132,1,0,0:0:0:0:
320,192,131347,1,0,0:0:0:0:
192,192,131347,1,0,0:0:0:0:
64,192,131454,1,0,0:0:0:0:
192,192,131561,1,0,0:0:0:0:
320,192,131668,1,0,0:0:0:0:
448,192,131775,1,0,0:0:0:0:
320,192,131882,1,0,0:0:0:0:
448,192,131989,1,0,0:0:0:0:
320,192,132097,1,0,0:0:0:0:
192,192,132204,1,0,0:0:0:0:
64,192,132311,1,0,0:0:0:0:
448,192,132418,1,0,0:0:0:0:
320,192,132525,1,0,0:0:0:0:
64,192,132632,1,0,0:0:0:0:
448,192,132739,1,0,0:0:0:0:
320,192,132847,1,0,0:0:0:0:
64,192,133275,1,0,0:0:0:0:
192,192,133275,1,0,0:0:0:0:
320,192,133275,1,0,0:0:0:0:
448,192,133275,1,0,0:0:0:0:
192,192,133704,1,0,0:0:0:0:
320,192,133704,1,0,0:0:0:0:
448,192,133704,1,0,0:0:0:0:
64,192,133918,1,0,0:0:0:0:
320,192,133918,1,0,0:0:0:0:
320,192,134132,1,0,0:0:0:0:
448,192,134132,1,0,0:0:0:0:
64,192,134347,1,0,0:0:0:0:
320,192,134347,1,0,0:0:0:0:
192,192,134561,1,0,0:0:0:0:
64,192,134561,1,0,0:0:0:0:
448,192,134775,1,0,0:0:0:0:
192,192,134989,1,0,0:0:0:0:
320,192,135204,1,0,0:0:0:0:
192,192,135418,1,0,0:0:0:0:
320,192,135525,1,0,0:0:0:0:
64,192,135632,1,0,0:0:0:0:
192,192,135739,1,0,0:0:0:0:
64,192,135847,1,0,0:0:0:0:
320,192,135954,1,0,0:0:0:0:
448,192,136061,1,0,0:0:0:0:
192,192,136168,1,0,0:0:0:0:
448,192,136275,1,0,0:0:0:0:
64,192,136704,1,0,0:0:0:0:
192,192,136811,1,0,0:0:0:0:
320,192,136918,1,0,0:0:0:0:
64,192,137025,1,0,0:0:0:0:
192,192,137132,1,0,0:0:0:0:
448,192,137132,128,0,137561:0:0:0:0:
320,192,137561,128,0,137989:0:0:0:0:
192,192,137561,1,0,0:0:0:0:
64,192,137668,1,0,0:0:0:0:
448,192,137775,1,0,0:0:0:0:
64,192,137882,1,0,0:0:0:0:
192,192,137989,128,0,138204:0:0:0:0:
448,192,137989,1,0,0:0:0:0:
448,192,138418,1,0,0:0:0:0:
320,192,138525,1,0,0:0:0:0:
192,192,138632,1,0,0:0:0:0:
64,192,138739,1,0,0:0:0:0:
448,192,138847,1,0,0:0:0:0:
192,192,138847,1,0,0:0:0:0:
320,192,139061,1,0,0:0:0:0:
192,192,139275,1,0,0:0:0:0:
448,192,139275,1,0,0:0:0:0:
320,192,139489,1,0,0:0:0:0:
192,192,139704,1,0,0:0:0:0:
448,192,139704,1,0,0:0:0:0:
320,192,139918,1,0,0:0:0:0:
192,192,140132,128,0,140347:0:0:0:0:
320,192,140347,128,0,140561:0:0:0:0:
448,192,140347,128,0,140561:0:0:0:0:
64,192,140561,128,0,140989:0:0:0:0:
192,192,140989,128,0,141150:0:0:0:0:
64,192,141418,1,0,0:0:0:0:
320,192,141632,1,0,0:0:0:0:
192,192,141847,1,0,0:0:0:0:
320,192,142061,1,0,0:0:0:0:
448,192,142275,1,0,0:0:0:0:
64,192,142704,1,0,0:0:0:0:
192,192,142918,1,0,0:0:0:0:
320,192,143025,1,0,0:0:0:0:
448,192,143132,1,0,0:0:0:0:
448,192,143347,1,0,0:0:0:0:
320,192,143561,1,0,0:0:0:0:
192,192,143775,1,0,0:0:0:0:
64,192,143989,1,0,0:0:0:0:
192,192,144097,1,0,0:0:0:0:
320,192,144204,1,0,0:0:0:0:
448,192,144311,1,0,0:0:0:0:
64,192,144418,1,0,0:0:0:0:
192,192,144525,1,0,0:0:0:0:
320,192,144632,1,0,0:0:0:0:
448,192,144847,128,0,145061:0:0:0:0:
64,192,145275,128,0,145489:0:0:0:0:
448,192,145704,128,0,145918:0:0:0:0:
64,192,145918,1,0,0:0:0:0:
448,192,146132,1,0,0:0:0:0:
320,192,146347,1,0,0:0:0:0:
448,192,146347,1,0,0:0:0:0:
192,192,146454,1,0,0:0:0:0:
448,192,146561,1,0,0:0:0:0:
192,192,146668,1,0,0:0:0:0:
64,192,146775,1,0,0:0:0:0:
192,192,146989,1,0,0:0:0:0:
320,192,147204,1,0,0:0:0:0:
192,192,147418,128,0,147847:0:0:0:0:
64,192,147418,128,0,147847:0:0:0:0:
320,192,147847,128,0,148168:0:0:0:0:
448,192,147847,128,0,148168:0:0:0:0:
64,192,148275,1,0,0:0:0:0:
192,192,148489,1,0,0:0:0:0:
448,192,148704,1,0,0:0:0:0:
320,192,148918,1,0,0:0:0:0:
192,192,149132,1,0,0:0:0:0:
64,192,149132,1,0,0:0:0:0:
192,192,149347,1,0,0:0:0:0:
320,192,149347,1,0,0:0:0:0:
320,192,149561,1,0,0:0:0:0:
448,192,149561,1,0,0:0:0:0:
64,192,149775,1,0,0:0:0:0:
192,192,149882,1,0,0:0:0:0:
320,192,149989,1,0,0:0:0:0:
320,192,150204,1,0,0:0:0:0:
192,192,150418,1,0,0:0:0:0:
64,192,150418,128,0,150847:0:0:0:0:
448,192,150632,1,0,0:0:0:0:
320,192,150847,1,0,0:0:0:0:
448,192,151061,128,0,151275:0:0:0:0:
320,192,151275,1,0,0:0:0:0:
192,192,151382,1,0,0:0:0:0:
64,192,151489,128,0,151704:0:0:0:0:
192,192,151704,128,0,151918:0:0:0:0:
448,192,151704,1,0,0:0:0:0:
320,192,152132,128,0,152347:0:0:0:0:
64,192,152561,128,0,152775:0:0:0:0:
320,192,152775,1,0,0:0:0:0:
320,192,152989,1,0,0:0:0:0:
448,192,153204,1,0,0:0:0:0:
192,192,153418,1,0,0:0:0:0:
320,192,153418,1,0,0:0:0:0:
64,192,153847,1,0,0:0:0:0:
448,192,153847,1,0,0:0:0:0:
192,192,154061,1,0,0:0:0:0:
320,192,154061,1,0,0:0:0:0:
448,192,154275,1,0,0:0:0:0:
320,192,154489,1,0,0:0:0:0:
64,192,154704,1,0,0:0:0:0:
320,192,154918,1,0,0:0:0:0:
192,192,155132,1,0,0:0:0:0:
448,192,155132,1,0,0:0:0:0:
320,192,155347,1,0,0:0:0:0:
64,192,155561,1,0,0:0:0:0:
320,192,155775,1,0,0:0:0:0:
64,192,155989,1,0,0:0:0:0:
192,192,156204,1,0,0:0:0:0:
448,192,156418,1,0,0:0:0:0:
320,192,156632,1,0,0:0:0:0:
192,192,156739,1,0,0:0:0:0:
64,192,156847,1,0,0:0:0:0:
448,192,157061,128,0,157489:0:0:0:0:
320,192,157275,128,0,157489:0:0:0:0:
192,192,157489,1,0,0:0:0:0:
448,192,157704,1,0,0:0:0:0:
320,192,157704,128,0,158132:0:0:0:0:
448,192,158132,128,0,158561:0:0:0:0:
64,192,158561,1,0,0:0:0:0:
192,192,158668,1,0,0:0:0:0:
320,192,158775,1,0,0:0:0:0:
448,192,158989,1,0,0:0:0:0:
320,192,159097,1,0,0:0:0:0:
192,192,159204,1,0,0:0:0:0:
64,192,159418,128,0,159632:0:0:0:0:
192,192,159418,128,0,159632:0:0:0:0:
320,192,159418,128,0,159632:0:0:0:0:
448,192,159632,1,0,0:0:0:0:
320,192,159847,1,0,0:0:0:0:
192,192,160061,1,0,0:0:0:0:
320,192,160275,1,0,0:0:0:0:
192,192,160489,1,0,0:0:0:0:
320,192,160489,1,0,0:0:0:0:
64,192,160704,1,0,0:0:0:0:
448,192,160704,1,0,0:0:0:0:
448,192,160918,1,0,0:0:0:0:
64,192,160918,1,0,0:0:0:0:
192,192,161132,1,0,0:0:0:0:
320,192,161132,1,0,0:0:0:0:
192,192,161561,128,0,161775:0:0:0:0:
320,192,161561,128,0,161775:0:0:0:0:
448,192,161561,128,0,161775:0:0:0:0:
192,192,161989,1,0,0:0:0:0:
64,192,162204,1,0,0:0:0:0:
320,192,162418,1,0,0:0:0:0:
64,192,162632,1,0,0:0:0:0:
448,192,162847,1,0,0:0:0:0:
64,192,162847,1,0,0:0:0:0:
448,192,163275,128,0,164132:0:0:0:0:
320,192,163704,1,0,0:0:0:0:
64,192,164132,1,0,0:0:0:0:
64,192,164561,1,0,0:0:0:0:
192,192,164561,1,0,0:0:0:0:
320,192,164561,1,0,0:0:0:0:
448,192,164561,128,0,164989:0:0:0:0:
320,192,164989,128,0,165204:0:0:0:0:
64,192,165418,1,0,0:0:0:0:
192,192,165418,1,0,0:0:0:0:
192,192,165847,1,0,0:0:0:0:
320,192,166061,1,0,0:0:0:0:
192,192,166275,1,0,0:0:0:0:
448,192,166275,1,0,0:0:0:0:
64,192,166489,1,0,0:0:0:0:
192,192,166704,1,0,0:0:0:0:
448,192,166918,1,0,0:0:0:0:
448,192,167132,1,0,0:0:0:0:
320,192,167132,1,0,0:0:0:0:
64,192,167347,1,0,0:0:0:0:
448,192,167561,1,0,0:0:0:0:
320,192,167775,1,0,0:0:0:0:
320,192,167989,128,0,168418:0:0:0:0:
192,192,168418,128,0,168632:0:0:0:0:
64,192,168847,1,0,0:0:0:0:
320,192,169061,1,0,0:0:0:0:
192,192,169275,1,0,0:0:0:0:
448,192,169489,1,0,0:0:0:0:
192,192,169704,1,0,0:0:0:0:
448,192,169704,1,0,0:0:0:0:
64,192,169918,1,0,0:0:0:0:
320,192,170132,1,0,0:0:0:0:
448,192,170132,1,0,0:0:0:0:
64,192,170347,1,0,0:0:0:0:
192,192,170454,1,0,0:0:0:0:
320,192,170561,1,0,0:0:0:0:
448,192,170561,1,0,0:0:0:0:
448,192,170775,1,0,0:0:0:0:
320,192,170882,1,0,0:0:0:0:
192,192,170989,1,0,0:0:0:0:
64,192,171418,1,0,0:0:0:0:
192,192,171418,1,0,0:0:0:0:
320,192,171418,128,0,171847:0:0:0:0:
192,192,171847,1,0,0:0:0:0:
320,192,172061,1,0,0:0:0:0:
64,192,172275,1,0,0:0:0:0:
192,192,172275,1,0,0:0:0:0:
448,192,172275,128,0,172704:0:0:0:0:
320,192,172704,1,0,0:0:0:0:
192,192,172918,1,0,0:0:0:0:
192,192,173132,128,0,173347:0:0:0:0:
320,192,173132,128,0,173347:0:0:0:0:
448,192,173132,128,0,173347:0:0:0:0:
192,192,173561,1,0,0:0:0:0:
64,192,173775,1,0,0:0:0:0:
448,192,173775,1,0,0:0:0:0:
448,192,173989,1,0,0:0:0:0:
320,192,174204,1,0,0:0:0:0:
64,192,174311,1,0,0:0:0:0:
448,192,174418,1,0,0:0:0:0:
320,192,174632,1,0,0:0:0:0:
64,192,174847,128,0,175275:0:0:0:0:
192,192,175275,128,0,175489:0:0:0:0:
320,192,175704,1,0,0:0:0:0:
448,192,175918,1,0,0:0:0:0:
320,192,176132,1,0,0:0:0:0:
192,192,176347,1,0,0:0:0:0:
64,192,176561,1,0,0:0:0:0:
192,192,176775,1,0,0:0:0:0:
448,192,176989,1,0,0:0:0:0:
64,192,177204,1,0,0:0:0:0:
192,192,177311,1,0,0:0:0:0:
320,192,177418,1,0,0:0:0:0:
448,192,177418,128,0,177632:0:0:0:0:
64,192,177632,128,0,177847:0:0:0:0:
320,192,178061,1,0,0:0:0:0:
192,192,178275,1,0,0:0:0:0:
64,192,178489,1,0,0:0:0:0:
448,192,178704,1,0,0:0:0:0:
64,192,178811,1,0,0:0:0:0:
320,192,178918,1,0,0:0:0:0:
192,192,179025,1,0,0:0:0:0:
320,192,179132,1,0,0:0:0:0:
320,192,179989,128,0,180204:0:0:0:0:
192,192,180204,128,0,180418:0:0:0:0:
64,192,180418,128,0,180632:0:0:0:0:
448,192,180632,128,0,180847:0:0:0:0:
320,192,180847,128,0,181061:0:0:0:0:
192,192,181061,1,0,0:0:0:0:
64,192,181275,128,0,181489:0:0:0:0:
192,192,181489,128,0,181704:0:0:0:0:
320,192,181704,128,0,182347:0:0:0:0:
448,192,182132,1,0,0:0:0:0:
192,192,182347,1,0,0:0:0:0:
64,192,182561,1,0,0:0:0:0:
448,192,182561,1,0,0:0:0:0:
320,192,182775,1,0,0:0:0:0:
192,192,182989,1,0,0:0:0:0:
448,192,183204,1,0,0:0:0:0:
448,192,183418,1,0,0:0:0:0:
320,192,183632,1,0,0:0:0:0:
192,192,183847,1,0,0:0:0:0:
64,192,183847,1,0,0:0:0:0:
192,192,184061,1,0,0:0:0:0:
320,192,184275,1,0,0:0:0:0:
448,192,184275,1,0,0:0:0:0:
64,192,184489,1,0,0:0:0:0:
192,192,184489,1,0,0:0:0:0:
320,192,184704,1,0,0:0:0:0:
448,192,184704,1,0,0:0:0:0:
64,192,185132,128,0,185775:0:0:0:0:
448,192,185132,1,0,0:0:0:0:
192,192,185561,1,0,0:0:0:0:
320,192,185775,1,0,0:0:0:0:
448,192,185989,1,0,0:0:0:0:
192,192,185989,128,0,186847:0:0:0:0:
448,192,186418,1,0,0:0:0:0:
320,192,186632,1,0,0:0:0:0:
64,192,186847,1,0,0:0:0:0:
192,192,187061,1,0,0:0:0:0:
320,192,187275,1,0,0:0:0:0:
192,192,187489,1,0,0:0:0:0:
64,192,187704,1,0,0:0:0:0:
320,192,187918,128,0,188132:0:0:0:0:
448,192,187918,128,0,188132:0:0:0:0:
64,192,188347,1,0,0:0:0:0:
192,192,188454,1,0,0:0:0:0:
320,192,188561,1,0,0:0:0:0:
448,192,188561,128,0,189204:0:0:0:0:
320,192,188989,1,0,0:0:0:0:
192,192,189204,1,0,0:0:0:0:
64,192,189418,1,0,0:0:0:0:
192,192,189632,1,0,0:0:0:0:
448,192,189847,1,0,0:0:0:0:
320,192,190061,1,0,0:0:0:0:
192,192,190275,128,0,190704:0:0:0:0:
320,192,190704,128,0,191132:0:0:0:0:
448,192,191132,128,0,191561:0:0:0:0:
192,192,191561,128,0,191989:0:0:0:0:
64,192,192418,1,0,0:0:0:0:
448,192,192418,1,0,0:0:0:0:
192,192,192632,1,0,0:0:0:0:
320,192,192632,1,0,0:0:0:0:
64,192,192847,1,0,0:0:0:0:
448,192,192847,1,0,0:0:0:0:
64,192,193704,1,0,0:0:0:0:
192,192,193811,1,0,0:0:0:0:
320,192,193918,1,0,0:0:0:0:
448,192,194025,1,0,0:0:0:0:
64,192,194132,1,0,0:0:0:0:
192,192,194239,1,0,0:0:0:0:
320,192,194347,1,0,0:0:0:0:
448,192,194454,1,0,0:0:0:0:
64,192,194561,1,0,0:0:0:0:
192,192,194668,1,0,0:0:0:0:
448,192,194775,1,0,0:0:0:0:
320,192,194882,1,0,0:0:0:0:
64,192,194989,1,0,0:0:0:0:
192,192,195097,1,0,0:0:0:0:
448,192,195204,1,0,0:0:0:0:
320,192,195311,1,0,0:0:0:0:
64,192,195418,1,0,0:0:0:0:
192,192,195525,1,0,0:0:0:0:
320,192,195632,1,0,0:0:0:0:
64,192,195739,1,0,0:0:0:0:
192,192,195847,1,0,0:0:0:0:
320,192,195954,1,0,0:0:0:0:
64,192,196061,1,0,0:0:0:0:
448,192,196168,1,0,0:0:0:0:
320,192,196275,1,0,0:0:0:0:
192,192,196382,1,0,0:0:0:0:
64,192,196704,1,0,0:0:0:0:
192,192,196704,1,0,0:0:0:0:
320,192,196918,1,0,0:0:0:0:
448,192,196918,1,0,0:0:0:0:
192,192,197132,1,0,0:0:0:0:
320,192,197132,1,0,0:0:0:0:
64,192,197561,1,0,0:0:0:0:
192,192,197668,1,0,0:0:0:0:
320,192,197775,1,0,0:0:0:0:
64,192,197882,1,0,0:0:0:0:
192,192,197989,1,0,0:0:0:0:
320,192,198097,1,0,0:0:0:0:
448,192,198204,1,0,0:0:0:0:
64,192,198311,1,0,0:0:0:0:
192,192,198418,1,0,0:0:0:0:
320,192,198525,1,0,0:0:0:0:
64,192,198632,1,0,0:0:0:0:
448,192,198739,1,0,0:0:0:0:
320,192,198847,1,0,0:0:0:0:
192,192,198954,1,0,0:0:0:0:
64,192,199061,1,0,0:0:0:0:
320,192,199168,1,0,0:0:0:0:
448,192,199275,1,0,0:0:0:0:
192,192,199382,1,0,0:0:0:0:
64,192,199489,1,0,0:0:0:0:
192,192,199597,1,0,0:0:0:0:
320,192,199704,1,0,0:0:0:0:
448,192,199704,1,0,0:0:0:0:
64,192,199918,1,0,0:0:0:0:
192,192,200025,1,0,0:0:0:0:
320,192,200132,1,0,0:0:0:0:
448,192,200239,1,0,0:0:0:0:
192,192,200347,1,0,0:0:0:0:
64,192,200454,1,0,0:0:0:0:
448,192,200561,1,0,0:0:0:0:
320,192,200668,1,0,0:0:0:0:
192,192,200775,1,0,0:0:0:0:
64,192,200989,1,0,0:0:0:0:
192,192,201097,1,0,0:0:0:0:
320,192,201204,1,0,0:0:0:0:
448,192,201311,1,0,0:0:0:0:
64,192,201418,1,0,0:0:0:0:
448,192,201525,1,0,0:0:0:0:
192,192,201632,1,0,0:0:0:0:
320,192,201739,1,0,0:0:0:0:
192,192,201847,1,0,0:0:0:0:
64,192,201954,1,0,0:0:0:0:
192,192,202061,1,0,0:0:0:0:
448,192,202168,1,0,0:0:0:0:
64,192,202275,128,0,202704:0:0:0:0:
192,192,202704,128,0,203132:0:0:0:0:
64,192,203561,1,0,0:0:0:0:
192,192,203775,1,0,0:0:0:0:
320,192,203989,128,0,204418:0:0:0:0:
448,192,204418,128,0,204847:0:0:0:0:
64,192,204847,128,0,205275:0:0:0:0:
192,192,205275,128,0,205704:0:0:0:0:
64,192,205811,1,0,0:0:0:0:
448,192,205918,1,0,0:0:0:0:
192,192,206025,1,0,0:0:0:0:
320,192,206132,1,0,0:0:0:0:
448,192,206239,1,0,0:0:0:0:
320,192,206347,1,0,0:0:0:0:
64,192,206454,1,0,0:0:0:0:
448,192,206561,1,0,0:0:0:0:
64,192,206882,1,0,0:0:0:0:
64,192,207204,1,0,0:0:0:0:
192,192,207311,1,0,0:0:0:0:
320,192,207418,1,0,0:0:0:0:
448,192,207525,1,0,0:0:0:0:
64,192,207632,1,0,0:0:0:0:
192,192,207739,1,0,0:0:0:0:
448,192,207847,1,0,0:0:0:0:
320,192,207954,1,0,0:0:0:0:
64,192,208061,1,0,0:0:0:0:
192,192,208168,1,0,0:0:0:0:
320,192,208275,1,0,0:0:0:0:
448,192,208382,1,0,0:0:0:0:
64,192,208489,1,0,0:0:0:0:
448,192,208597,1,0,0:0:0:0:
192,192,208704,1,0,0:0:0:0:
320,192,208811,1,0,0:0:0:0:
64,192,208918,1,0,0:0:0:0:
448,192,209025,1,0,0:0:0:0:
320,192,209132,1,0,0:0:0:0:
64,192,209239,1,0,0:0:0:0:
192,192,209347,1,0,0:0:0:0:
448,192,209454,1,0,0:0:0:0:
320,192,209561,1,0,0:0:0:0:
192,192,209775,1,0,0:0:0:0:
448,192,209882,1,0,0:0:0:0:
64,192,209989,1,0,0:0:0:0:
192,192,210204,1,0,0:0:0:0:
448,192,210418,1,0,0:0:0:0:
64,192,210525,1,0,0:0:0:0:
192,192,210632,1,0,0:0:0:0:
448,192,210739,1,0,0:0:0:0:
320,192,210847,1,0,0:0:0:0:
64,192,210954,1,0,0:0:0:0:
448,192,211061,1,0,0:0:0:0:
192,192,211168,1,0,0:0:0:0:
320,192,211382,1,0,0:0:0:0:
64,192,211489,1,0,0:0:0:0:
448,192,211597,1,0,0:0:0:0:
192,192,211704,1,0,0:0:0:0:
64,192,211918,1,0,0:0:0:0:
192,192,212025,1,0,0:0:0:0:
320,192,212132,1,0,0:0:0:0:
64,192,212561,1,0,0:0:0:0:
192,192,212561,1,0,0:0:0:0:
320,192,212561,1,0,0:0:0:0:
448,192,212561,1,0,0:0:0:0:
