osu file format v14

[General]
AudioFilename: Meg & Dia - Monster (DotEXE Dubstep Remix).mp3
AudioLeadIn: 2000
PreviewTime: 27614
Countdown: 0
SampleSet: Soft
StackLeniency: 0.4
Mode: 0
LetterboxInBreaks: 1
EpilepsyWarning: 1
WidescreenStoryboard: 0

[Editor]
DistanceSpacing: 1.2
BeatDivisor: 4
GridSize: 4
TimelineZoom: 1

[Metadata]
Title:Monster (DotEXE Remix)
TitleUnicode:Monster (DotEXE Remix)
Artist:Meg & Dia
ArtistUnicode:Meg & Dia
Creator:Nhawak
Version:Easy
Source:
Tags:Pappy Papcio Krfawy Sieg dubstep cut version
BeatmapID:549628
BeatmapSetID:237478

[Difficulty]
HPDrainRate:2
CircleSize:3
OverallDifficulty:2
ApproachRate:3
SliderMultiplier:0.899999999999999
SliderTickRate:1

[Events]
//Background and Video events
0,0,"BG.jpg",0,0
//Break Periods
//Storyboard Layer 0 (Background)
//Storyboard Layer 1 (Fail)
//Storyboard Layer 2 (Pass)
//Storyboard Layer 3 (Foreground)
//Storyboard Sound Samples

[TimingPoints]
186,428.571428571429,4,2,2,20,1,0
13471,-100,4,2,1,60,0,0
27614,-100,4,1,4,60,0,0
39614,-100,4,2,1,60,0,0
41328,-100,4,2,1,70,0,1
67043,-100,4,2,1,60,0,0
75614,-100,4,2,1,40,0,0
82471,-100,4,2,1,35,0,0
89328,-100,4,2,1,30,0,0
96186,-100,4,2,1,20,0,0

[Colours]
Combo1 : 216,216,216
Combo2 : 255,47,47
Combo3 : 0,87,174

[HitObjects]
51,111,186,6,0,P|136:126|201:68,1,180,4|0,0:0|0:0,0:0:0:0:
416,68,1900,2,0,L|401:247,1,180,4|0,0:0|0:0,0:0:0:0:
184,247,3614,6,0,B|108:295|44:243|44:243|15:243,1,180,4|0,0:0|0:0,0:0:0:0:
195,124,5328,1,4,0:0:0:0:
373,246,6186,1,0,0:0:0:0:
195,124,7043,6,0,B|271:84|271:84|365:84,1,180,4|0,0:0|0:0,0:0:0:0:
365,299,8757,2,0,B|305:287|257:315|257:315|194:288,1,180,4|0,0:0|0:0,0:0:0:0:
53,123,10471,6,0,P|120:69|205:87,1,180,4|0,0:0|0:0,0:0:0:0:
206,303,12186,2,0,L|385:288,1,180,4|0,0:0|0:0,0:0:0:0:
385,180,13471,1,0,0:0:0:0:
385,71,13900,5,4,1:0:0:0:
169,71,14757,2,0,P|154:156|212:221,1,180,8|4,0:0|0:0,0:0:0:0:
296,288,16043,1,0,0:0:0:0:
308,180,16471,2,0,L|486:202,1,180,8|4,0:0|1:0,0:0:0:0:
308,79,18186,6,0,B|265:50|219:78|219:78|174:102|137:82,1,180,8|4,0:0|0:0,0:0:0:0:
70,166,19471,1,0,0:0:0:0:
13,257,19900,2,0,P|98:267|169:209,1,180,8|4,0:0|1:0,0:0:0:0:
351,96,21614,6,0,B|351:160|351:160|367:192|367:192|367:296,1,180,8|4,0:0|0:0,0:0:0:0:
317,368,22900,1,0,0:0:0:0:
209,362,23328,2,0,P|151:296|161:209,1,180,8|4,0:0|1:0,0:0:0:0:
296,40,25043,6,0,B|358:66|358:66|406:38|466:50,1,180,8|8,0:0|0:0,0:0:0:0:
296,40,27614,5,4,1:0:0:0:
317,144,28043,2,0,P|312:187|287:223,1,89.9999999999999,0|0,0:0|0:0,0:0:0:0:
185,258,28900,2,0,L|96:274,1,89.9999999999999,0|0,0:0|0:0,0:0:0:0:
29,189,29757,2,0,L|117:173,1,89.9999999999999,0|0,0:0|0:0,0:0:0:0:
224,157,30614,1,0,0:0:0:0:
332,157,31043,6,0,P|343:199|333:243,1,89.9999999999999,4|0,0:0|0:0,0:0:0:0:
377,342,31900,2,0,P|333:353|290:342,1,89.9999999999999,0|0,0:0|0:0,0:0:0:0:
183,342,32757,2,0,B|137:332|137:332|95:343,1,89.9999999999999
83,234,33614,2,0,L|67:145,1,89.9999999999999,0|0,0:0|0:0,0:0:0:0:
129,54,34471,5,4,0:0:0:0:
236,40,34900,2,0,B|278:29|278:29|323:38,1,89.9999999999999
324,146,35757,2,0,B|369:155|369:155|411:144,1,89.9999999999999,0|4,0:0|0:0,0:0:0:0:
457,241,36614,2,0,L|374:277,1,89.9999999999999,0|0,0:0|0:0,0:0:0:0:
272,241,37471,1,0,0:0:0:0:
256,192,37900,12,4,39614,1:0:0:0:
320,248,41328,6,0,P|256:189|169:202,1,180,4|8,1:0|0:0,0:0:0:0:
72,249,42614,2,0,L|56:160,1,89.9999999999999,2|4,3:0|0:0,0:0:0:0:
104,64,43471,1,2,3:0:0:0:
208,36,43900,2,0,B|302:36|302:36|378:76,1,180,8|4,0:0|1:0,0:0:0:0:
470,131,45186,6,0,L|454:220,1,89.9999999999999,2|8,3:0|0:0,0:0:0:0:
238,200,46471,1,4,0:0:0:0:
66,68,47328,2,0,P|7:133|18:219,1,180,8|4,0:0|1:0,0:0:0:0:
109,276,48614,6,0,L|198:260,1,89.9999999999999,2|8,3:0|0:0,0:0:0:0:
305,272,49471,1,2,3:0:0:0:
396,212,49900,2,0,P|385:168|397:125,1,89.9999999999999,4|2,0:0|3:0,0:0:0:0:
476,51,50757,2,0,P|399:92|318:59,1,180,8|4,0:0|1:0,0:0:0:0:
212,60,52043,6,0,B|167:50|167:50|123:58,1,89.9999999999999,2|8,3:0|0:0,0:0:0:0:
124,276,53328,1,4,0:0:0:0:
336,276,54186,2,8,P|391:207|378:120,1,180,8|4,0:0|1:0,0:0:0:0:
422,22,55471,6,0,L|511:33,1,89.9999999999999,2|8,3:0|0:0,0:0:0:0:
422,232,56757,1,4,0:0:0:0:
298,55,57614,2,0,L|102:71,1,180,8|4,0:0|1:0,0:0:0:0:
18,28,58900,6,0,P|8:72|19:114,1,89.9999999999999,2|8,3:0|0:0,0:0:0:0:
184,253,60186,1,4,0:0:0:0:
355,123,61043,2,0,B|294:136|246:108|246:108|184:134,1,180,8|4,0:0|1:0,0:0:0:0:
92,190,62328,6,0,L|76:101,1,89.9999999999999,2|8,3:0|0:0,0:0:0:0:
159,32,63186,2,0,B|204:22|204:22|259:33,1,89.9999999999999,2|4,3:0|0:0,0:0:0:0:
353,46,64043,1,2,3:0:0:0:
421,128,64471,2,0,B|392:171|420:217|420:217|444:262|424:299,1,180,8|4,0:0|1:0,0:0:0:0:
317,314,65757,5,2,3:0:0:0:
210,299,66186,2,0,L|121:283,1,89.9999999999999,8|2,0:0|3:0,0:0:0:0:
28,338,67043,2,8,P|11:253|68:187,1,180,4|0,0:0|0:0,0:0:0:0:
284,188,68757,5,4,1:0:0:0:
448,327,69614,2,0,P|507:262|494:176,1,180,8|4,0:0|1:0,0:0:0:0:
297,87,71328,2,0,L|118:109,1,180,8|4,0:0|1:0,0:0:0:0:
118,325,73043,6,0,B|161:296|207:324|207:324|252:348|289:328,1,180,8|4,0:0|1:0,0:0:0:0:
414,153,74757,1,8,0:0:0:0:
244,19,75614,6,0,P|185:83|198:169,1,180,4|8,1:0|0:0,0:0:0:0:
329,340,77328,2,0,P|415:350|480:292,1,180,4|8,1:0|0:0,0:0:0:0:
268,248,79043,6,0,L|90:225,1,180,4|8,1:0|0:0,0:0:0:0:
268,103,80757,2,0,L|446:126,1,180,4|8,1:0|0:0,0:0:0:0:
446,342,82471,5,4,1:0:0:0:
230,342,83328,2,0,P|216:256|275:192,1,180,8|4,0:0|1:0,0:0:0:0:
484,138,85043,2,0,B|408:98|408:98|314:98,1,180,8|4,0:0|1:0,0:0:0:0:
99,68,86757,6,0,P|86:155|145:219,1,180,8|4,0:0|1:0,0:0:0:0:
361,219,88471,1,8,0:0:0:0:
256,192,89328,12,0,96186,0:0:0:0:
