osu file format v9

[General]
AudioFilename: Meg & Dia - Inside My Head.mp3
AudioLeadIn: 0
PreviewTime: 135955
Countdown: 1
SampleSet: Normal
StackLeniency: 0.7
Mode: 0
LetterboxInBreaks: 1

[Editor]
Bookmarks: 109473,114438,120335,188921,195542,200611
DistanceSpacing: 1
BeatDivisor: 2
GridSize: 4

[Metadata]
Title:Inside My Head
Artist:Meg & Dia
Creator:Larto
Version:Normal
Source:
Tags:meg and dia here, here and here here and here

[Difficulty]
HPDrainRate:4
CircleSize:3
OverallDifficulty:4
ApproachRate:4
SliderMultiplier:1.6
SliderTickRate:2

[Events]
//Background and Video events
0,0,"daDJt.jpg"
//Break Periods
2,109673,113325
2,188921,194222
//Storyboard Layer 0 (Background)
//Storyboard Layer 1 (Fail)
//Storyboard Layer 2 (Pass)
//Storyboard Layer 3 (Foreground)
//Storyboard Sound Samples
//Background Colour Transformations
3,100,163,162,255

[TimingPoints]
1887,413.793103448276,4,1,0,69,1,0
30024,-100,4,1,0,69,0,1
43266,-100,4,1,0,69,0,0
96231,-100,4,1,0,69,0,1
109473,-100,4,1,0,69,0,0
135955,-100,4,1,0,69,0,1
162438,-100,4,1,0,69,0,0
202162,-83.3333333333333,4,1,0,69,0,1
214576,-83.3333333333333,4,1,0,69,0,0
215403,-83.3333333333333,4,1,0,69,0,0
215404,-90.9090909090909,4,1,0,69,0,1
228644,-90.9090909090909,4,1,0,69,0,0
228645,-90.9090909090909,4,1,0,69,0,1
241887,-90.9090909090909,4,1,0,69,0,0

[Colours]
Combo1 : 99,132,182
Combo2 : 254,220,150
Combo3 : 133,130,196
Combo4 : 204,192,125

[HitObjects]
48,76,30024,6,0,B|28:144|52:200|144:212,1,160,4|0
192,100,30852,1,8
256,196,31266,1,0
320,100,31680,2,2,B|384:152|404:224|328:316|264:312,1,240,2|0
228,272,32507,1,2
124,196,32921,1,0
104,72,33335,2,2,B|164:28|256:16|348:28|408:72,1,320,2|8
344,184,34576,5,0
168,184,34990,2,0,B|116:224|128:312|180:340,1,160,2|0
216,256,35611,2,0,B|268:216|256:128|204:100,1,160,2|0
52,28,36645,2,0,B|300:28,1,240,6|0
372,28,37473,1,8
428,140,37886,5,0
304,168,38300,2,0,B|236:128|144:168|140:248,1,160,6|0
104,312,39128,2,0,B|172:352|264:312|268:232,1,160,6|0
328,256,39749,1,0
408,272,39955,6,0,B|496:204|476:108|424:44|356:24|312:40,1,320,4|2
256,128,41197,1,0
173,35,41611,2,0,B|156:32|88:44|36:108|16:204|104:272,1,320,4|2
256,320,42852,1,0
432,300,43266,6,0,B|484:220|436:164|384:136,1,160,6|8
248,96,44093,2,0,B|88:192,1,160,2|8
140,352,44921,2,0,B|-20:256,1,160,2|8
64,104,45749,2,0,B|84:28|160:20,2,120,2|0|0
152,108,46576,2,2,B|176:172|244:180|292:148,1,160
340,28,47404,2,0,B|364:92|432:100|480:68,1,160,8|2
512,240,48231,6,0,B|476:304|384:352|276:288,1,240,4|0
209,301,49059,2,0,B|120:344|36:304|0:240,1,240,2|0
32,160,49886,1,4
96,100,50093,2,0,B|136:44|204:68|224:128|280:104|328:64,1,240,2|2
476,252,51335,2,2,B|412:300|328:308|260:280|236:260,1,240,2|8
108,184,52369,2,0,B|8:340,1,160,4|0
184,304,53197,2,0,B|284:284|284:230|257:191|230:152|230:98|331:78,1,320,4|2
408,216,54438,1,2
324,336,54852,1,6
120,144,55680,6,0,B|156:92|208:64|280:64,1,160,2|0
332,60,56300,1,0
304,136,56507,2,0,B|276:204|320:268|384:280,1,160,6|8
504,332,57335,1,2
444,184,57749,2,2,B|344:180|304:132|288:60|296:20,2,240,2|2|2
300,256,59404,2,0,B|112:264,1,160,0|4
64,244,60024,2,2,B|104:156|72:72|8:48|-16:36,1,240,2|0
4,176,61059,1,8
160,152,61473,2,0,B|172:92|236:48|296:72,1,160,6|0
392,180,62300,6,0,B|404:240|468:284|528:260,1,160,4|8
488,180,62921,1,0
444,104,63128,2,2,B|376:48|296:48|208:92|176:156|180:208,1,320
148,352,64369,1,2
308,276,64783,2,0,B|360:252|348:204|336:160|400:120,1,160,4|0
464,116,65404,2,2,B|424:152|344:144|288:116|256:84|252:48,1,240,2|2
80,68,66438,2,0,B|24:128|28:208|76:272|176:276|216:220,2,320,4|8|0
152,104,68300,1,8
417,63,68921,6,0,B|484:108|456:200|405:216|363:212|330:196,1,240,8|0
372,128,69749,1,4
240,248,70162,1,2
64,260,70576,2,0,B|124:192|80:128|44:96,1,160,2|8
8,188,71197,2,2,B|60:228|120:232|200:232|296:140|276:16,1,400,2|0
200,28,72438,5,0
124,168,72852,1,6
32,300,73266,2,2,B|68:356|140:376|228:356|260:328,1,240,2|0
296,204,74300,1,8
216,204,74507,1,0
128,36,75128,5,2
256,96,75542,1,6
384,36,75955,1,0
420,108,76162,1,2
332,244,76576,2,2,B|316:288|216:312|148:296|104:220|116:148|136:120,1,320,2|0
168,72,77611,2,2,B|184:28|284:4|352:20|396:96|384:168|364:196,1,320,2|0
256,280,78852,5,8
104,188,79266,1,2
124,12,79680,2,2,B|156:76|256:120|324:84|360:60,1,240,2|0
404,40,80507,2,0,B|440:112|436:188|424:224,1,160,6|0
388,372,81335,2,2,B|356:308|256:264|188:300|152:324,1,240,2|0
108,344,82162,2,0,B|72:272|76:196|88:160,1,160,6|0
168,52,82990,5,0
328,40,83404,2,2,B|376:88|376:168|332:220,1,160
256,316,84231,1,0
184,344,84438,2,2,B|123:283|123:182|178:116,1,240,2|0
316,52,85473,5,4
396,48,85680,2,0,B|480:204,1,160,0|2
360,304,86507,2,2,B|276:148,1,160,2|2
160,60,87335,2,0,B|136:152|20:144,1,160,0|2
128,368,88369,5,8
220,248,88783,2,2,B|280:284|356:260|408:200|384:112|360:120,1,240
384,60,89611,2,0,B|116:36,1,240,4|2
256,136,90645,1,0
344,232,91059,2,2,B|388:300|324:384|256:420|192:384|124:300|168:232,1,400,2|0
256,100,92507,5,2
424,116,92921,2,2,B|432:220|372:276|324:292|296:292,1,240,2|0
214,292,93749,2,0,B|188:292|140:276|80:220|88:116,1,240,8|0
172,149,94576,2,0,B|172:205|256:257|340:205|340:149,2,240,2|2|2
256,24,96231,5,4
412,64,96645,1,0
452,216,97059,2,0,B|344:220|316:324,1,160,8|0
186,297,97887,2,0,B|168:220|60:216,2,160,6|0|6
256,152,99128,1,0
288,228,99335,1,0
368,232,99542,2,2,B|432:160|400:20|276:-8|228:20,1,320,2|8
117,106,100783,5,0
4,188,101197,2,2,B|24:268|84:280|136:208|192:272|200:324,2,240,2|2|8
164,180,102852,2,0,B|344:224,1,160,6|0
380,276,103473,1,0
448,232,103680,1,8
408,88,104093,5,0
256,56,104507,2,0,B|236:140|164:156|116:136,1,160,6|0
256,56,105335,2,0,B|276:140|348:156|396:136,1,160,6|0
512,152,106162,1,4
424,244,106576,2,2,B|392:296|256:424|120:296|88:244,1,400,2|0
112,164,107818,1,4
256,204,108231,1,0
400,164,108645,1,4
256,124,109059,1,0
256,284,109473,1,4
24,152,114645,5,0
48,76,114852,2,0,B|112:112|164:96|212:56,1,160,2|8
276,208,115680,2,0,B|340:244|392:228|440:188,1,160,2|6
396,120,116300,1,0
320,100,116507,2,0,B|248:148|168:108,1,160,0|8
88,96,117128,1,0
28,156,117335,2,0,B|-12:224|20:288|52:336|156:336,2,240,0|2|2
164,68,118990,1,0
296,80,119404,2,0,B|388:120|360:224,1,160,4|0
216,304,120231,2,0,B|124:264|152:160,1,160,6|0
292,256,121059,1,8
356,308,121266,1,0
476,200,121887,6,0,B|476:108|388:52|304:72,1,240,8|0
256,136,122714,1,4
256,296,123128,1,0
100,324,123542,2,0,B|124:260|104:208|44:172,1,160,2|0
24,264,124162,2,2,B|112:276|184:236|216:204|256:40|100:4,1,400,2|0
116,100,125404,5,0
256,180,125818,1,6
396,260,126231,2,2,B|480:232|524:160|500:36,1,240,2|0
340,32,127266,1,2
388,96,127473,1,0
256,296,128093,5,2
96,288,128507,2,2,B|144:244|132:180|108:156,2,120,2|2|0
48,216,129335,1,6
52,56,129749,2,2,B|124:104|196:92|232:64|252:44|264:16,1,240
332,164,130783,1,2
180,164,131197,1,2
256,304,131611,1,2
256,224,131818,1,0
108,268,132231,5,2
36,156,132645,2,2,B|68:63|124:23|224:27,1,240,2|0
296,28,133473,2,2,B|387:25|443:65|475:158,1,240,2|0
436,228,134300,2,0,B|192:184,2,240,6|2|2
352,336,135955,5,6
196,332,136369,2,2,B|188:264|120:212|76:208,1,160
40,64,137197,1,0
184,152,137611,2,2,B|264:184|316:144|320:76,1,160,2|0
176,64,138438,1,8
80,172,138852,1,0
112,312,139266,2,0,B|172:372|256:392|340:372|400:312,1,320,6|8
356,176,140507,5,0
256,72,140921,2,0,B|212:152|136:144|92:128,1,160,2|0
64,188,141542,2,0,B|108:268|184:260|228:244,2,160,2|0|0
36,112,142576,2,0,B|88:68|168:40|248:44|344:88,1,320,6|8
392,236,143818,5,0
256,320,144231,2,0,B|160:320|128:224,1,160,6|0
256,72,145059,2,0,B|352:72|384:168,1,160,6|0
392,236,145680,1,0
368,312,145887,1,4
224,348,146300,6,2,B|164:352|80:316|52:232|60:176,1,240
116,56,147335,1,0
156,124,147542,2,0,B|256:248,1,160,6|8
356,124,148369,2,0,B|256:248,1,160,6|0
124,340,149197,6,0,B|40:300|16:220|52:132,1,240,6|0
112,88,150024,1,8
160,240,150438,1,0
256,112,150852,1,6
352,240,151266,1,0
464,328,151680,2,0,B|536:288|552:192|536:96|464:56,2,320,8|6|8
320,260,153749,5,0
160,264,154162,2,0,B|80:248|64:176|96:120,1,160,6|0
160,180,154783,2,0,B|200:176|256:216|288:300|188:360|152:352,1,240,6|0
28,296,155818,2,2,B|12:216|52:116|104:80|192:60,1,320,2|8
352,44,157059,5,0
420,188,157473,2,0,B|424:264|348:312|292:308,1,160,6|0
256,272,158093,1,0
183,304,158300,2,0,B|164:300|88:264|92:188,1,160,6|0
256,192,159128,12,4,161611
64,96,162438,22,2,B|32:160|72:216|140:216,2,160
220,124,163680,1,0
300,120,163887,2,2,B|388:264,1,160
212,264,164714,2,2,B|124:120,1,160
88,60,165335,1,8
8,200,165749,6,0,B|20:276|88:304|124:304,1,160,6|8
196,284,166369,1,0
256,228,166576,1,6
492,176,167197,2,2,B|536:128|540:68|460:12,1,160
328,44,168024,2,2,B|284:92|279:151|360:208,1,160
384,244,168645,1,8
244,320,169059,6,2,B|132:336|64:280|12:188|48:108,1,320
164,36,170300,1,8
192,112,170507,1,0
256,64,170714,2,2,B|428:64,2,160
104,120,171955,1,2
40,268,172369,6,0,B|64:336|116:364|192:352,1,160,6|2
351,354,173197,2,0,B|400:352|448:336|472:268,1,160,6|2
472,116,174024,2,0,B|448:48|396:20|320:32,1,160,6|2
160,29,174852,2,0,B|112:32|64:48|40:116,1,160,6|2
88,272,175680,5,4
144,216,175887,1,0
216,248,176093,2,0,B|276:272|344:224|344:168,1,160,8|2
256,48,176921,1,0
180,28,177128,2,2,B|120:60|92:104|76:168,2,160
256,168,178369,1,2
432,332,178990,5,6
352,192,179404,1,2
160,192,179818,1,2
80,332,180231,1,0
256,304,180645,2,2,B|289:264|281:223|256:189|230:160|222:119|256:79,2,240,2|2|8
124,336,182300,6,2,B|111:216|192:160|256:136|320:160|400:216|388:336,2,480
256,272,185197,1,2
256,192,185611,12,0,188507
148,76,195542,5,6
256,192,195955,1,0
364,76,196369,1,8
212,124,196783,2,0,B|160:152|152:208|160:244|180:272,1,160,2|0
300,364,197611,2,0,B|352:336|360:280|352:244|332:216,1,160,2|8
284,76,198438,1,2
136,60,198852,5,6
60,100,199059,1,0
64,180,199266,1,8
136,324,199680,1,2
256,220,200093,1,8
376,324,200507,1,6
452,284,200714,1,0
448,204,200921,1,8
376,60,201335,1,6
256,164,201749,1,8
192,344,202162,6,0,B|80:328|28:264|24:188|32:120,1,288.000006866455,6|0
100,96,202990,1,8
216,256,203404,2,0,B|292:292|376:268|416:228,1,192.000004577637,2|0
296,128,204231,2,0,B|220:92|136:116|96:156,1,192.000004577637,2|0
164,328,205059,5,2
244,276,205266,1,0
320,344,205473,2,0,B|432:328|484:264|488:188|480:120,1,288.000006866455,6|0
412,96,206300,1,8
296,256,206714,2,0,B|220:292|136:268|96:228,1,192.000004577637,2|0
216,128,207542,2,0,B|292:92|376:116|416:156,1,192.000004577637,2|8
348,328,208369,5,6
164,328,208783,2,2,B|108:256|160:148|252:116|352:148|404:256|348:328,1,384.000009155274
256,368,210024,2,0,B|184:312|112:316|52:328,1,192.000004577637,6|0
256,256,210852,2,0,B|328:312|400:308|460:296,1,192.000004577637,6|0
308,156,211680,1,2
256,84,211887,1,0
256,192,212093,12,6,214576
68,256,215404,6,2,B|6:200|15:108|77:56|135:53,1,263.999992132187
168,128,216231,1,6
256,8,216645,1,0
344,128,217059,1,6
256,248,217473,1,0
168,384,217887,2,0,B|348:384,1,175.999994754791,8|0
488,284,218714,2,2,B|516:192|464:124|396:20|256:92,1,351.999989509583,2|8
260,252,219955,5,0
152,112,220369,2,0,B|96:184|16:152|-8:104,1,175.999994754791,2|0
76,72,220990,1,2
208,188,221404,2,0,B|264:260|344:228|368:180,1,175.999994754791,2|0
412,124,222024,2,0,B|528:276,1,175.999994754791,6|0
356,328,222852,2,0,B|240:176,1,175.999994754791,8|0
112,80,223680,6,0,B|32:108|20:176|40:240,1,175.999994754791,6|0
52,300,224300,1,0
132,336,224507,2,0,B|212:308|224:240|204:176,1,175.999994754791,6|0
256,28,225335,5,4
398,128,225749,2,2,B|374:239|256:192|137:144|113:255,1,351.999989509583,2|0
172,320,226783,2,2,B|256:364|340:320,1,175.999994754791
408,272,227404,1,8
424,111,227818,2,2,B|256:23|87:111,1,351.999989509583,2|6
36,180,228852,5,0
96,244,229059,1,2
256,320,229473,2,0,B|444:340,1,175.999994754791,4|0
256,220,230300,2,0,B|68:240,1,175.999994754791,6|0
172,88,231128,1,2
340,88,231542,1,2
403,237,231955,2,2,B|361:318|256:339|150:318|108:237,1,351.999989509583,2|8
164,108,233197,5,0
300,144,233611,2,0,B|300:328,1,175.999994754791,6|0
212,320,234231,2,0,B|212:144,1,175.999994754791,2|2
312,44,235059,1,0
388,72,235266,2,2,B|464:136|472:220|464:336|316:360,1,351.999989509583
256,224,236507,5,0
144,336,236921,1,6
128,180,237335,1,0
256,88,237749,1,2
384,180,238162,1,0
368,336,238576,1,4
232,256,238990,6,2,B|140:308|40:256|20:160|72:96|128:72,1,351.999989509583
204,52,240024,2,2,B|273:13|348:52|363:124|324:172|282:190,1,263.999992132187,2|8
124,236,241059,2,2,B|140:316|256:380|372:316|388:236,1,263.999992132187
388,236,241887,1,4
