osu file format v9

[General]
AudioFilename: Meg & Dia - Inside My Head.mp3
AudioLeadIn: 0
PreviewTime: 135955
Countdown: 1
SampleSet: Normal
StackLeniency: 0.7
Mode: 0
LetterboxInBreaks: 1

[Editor]
Bookmarks: 109473,114438,120335,188921,195542
DistanceSpacing: 0.8
BeatDivisor: 4
GridSize: 4

[Metadata]
Title:Inside My Head
Artist:Meg & Dia
Creator:Larto
Version:Insane
Source:
Tags:meg and dia here, here and here here and here

[Difficulty]
HPDrainRate:8
CircleSize:4
OverallDifficulty:7
ApproachRate:6
SliderMultiplier:1.92
SliderTickRate:2

[Events]
//Background and Video events
0,0,"daDJt.jpg"
//Break Periods
2,109673,113595
2,188921,194492
//Storyboard Layer 0 (Background)
//Storyboard Layer 1 (Fail)
//Storyboard Layer 2 (Pass)
//Storyboard Layer 3 (Foreground)
//Storyboard Sound Samples
//Background Colour Transformations
3,100,163,162,255

[TimingPoints]
1887,413.793103448276,4,1,0,69,1,0
30024,-100,4,1,0,69,0,1
43266,-100,4,1,0,69,0,0
96231,-100,4,1,0,69,0,1
109473,-100,4,1,0,69,0,0
135955,-100,4,1,0,69,0,1
162438,-100,4,1,0,69,0,0
202162,-83.3333333333333,4,1,0,69,0,1
214576,-83.3333333333333,4,1,0,69,0,0
215403,-83.3333333333333,4,1,0,69,0,0
215404,-90.9090909090909,4,1,0,69,0,1
228644,-90.9090909090909,4,1,0,69,0,0
228645,-90.9090909090909,4,1,0,69,0,1
241887,-90.9090909090909,4,1,0,69,0,0

[Colours]
Combo1 : 99,132,182
Combo2 : 254,220,150
Combo3 : 133,130,196
Combo4 : 204,192,125

[HitObjects]
256,192,30024,1,4
152,332,30438,1,0
168,248,30645,1,0
128,172,30852,2,0,B|116:92|12:72|-24:112,1,192,8|0
88,264,31680,1,6
256,364,32093,1,0
424,264,32507,1,8
256,136,32921,1,0
132,256,33335,2,0,B|98:206|141:145|254:166|193:219|239:234|254:243|270:234|316:219|254:166|368:145|414:206|377:256,1,384,6|8
256,376,34576,5,0
68,336,34990,2,2,B|128:224|36:112,1,192,2|0
40,60,35611,1,0
136,56,35818,1,8
228,84,36024,1,0
300,148,36231,1,0
352,228,36438,1,0
384,320,36645,2,2,B|488:308|520:224|488:112|404:80,1,288,2|0
348,80,37473,1,8
256,248,37887,5,0
88,344,38300,2,2,B|20:268|36:184|84:116,1,192,6|0
216,60,39128,2,2,B|284:136|268:220|220:288,1,192,2|0
204,324,39749,1,0
152,244,39955,1,4
152,244,40369,6,2,B|144:148|208:112|312:148|372:176|460:116|388:-8,1,384,2|0
328,64,41404,1,0
256,12,41611,1,6
140,164,42024,1,0
256,316,42438,1,8
372,164,42852,1,0
188,224,43266,5,6
104,268,43473,1,0
20,224,43680,1,8
20,128,43887,1,0
104,80,44093,2,0,B|180:44|252:60|280:112|280:120,2,192,2|8|6
132,160,45128,1,0
176,232,45335,1,8
256,220,45542,1,0
324,256,45749,2,0,B|416:220|404:120,2,144,2|0|2
256,292,46576,2,0,B|180:352|92:324|60:284,1,192,6|0
88,224,47197,1,0
28,172,47404,2,0,B|104:112|192:140|224:180,1,192,8|2
308,48,48231,6,0,B|384:108|360:204|312:240,1,192,4|8
256,192,48852,1,0
179,219,49059,2,0,B|156:192|128:108|204:48,1,192,6|2
56,172,49887,2,0,B|-4:316,2,144,4|0|0
156,192,50714,2,0,B|200:68,2,96,6|0|0
120,284,51335,2,2,B|172:336|224:344|284:288|336:288|376:328|388:352,1,288,2|8
468,296,52162,1,0
468,200,52369,1,6
400,132,52576,1,0
312,124,52783,1,8
220,172,52990,1,0
192,264,53197,1,4
20,176,53611,2,2,B|44:104|108:60|184:48,1,192
492,172,54438,2,6,B|468:101|404:57|354:50,1,192,2|6
132,364,55680,5,8
180,280,55887,1,0
256,224,56093,1,0
332,280,56300,1,0
380,364,56507,2,0,B|464:356|488:284|448:200,2,192,6|0|2
288,340,57542,1,0
208,276,57749,2,0,B|80:276,2,96,6|0|0
164,192,58369,2,0,B|36:192,2,96,2|0|0
264,200,58990,1,8
320,124,59197,1,0
392,188,59404,1,0
452,116,59611,1,2
296,300,60024,2,6,B|296:216|236:152|196:132,1,192,6|2
44,76,60852,1,0
0,160,61059,1,8
116,312,61473,2,0,B|212:268|212:180|176:116,1,192,6|0
396,72,62300,6,0,B|300:116|300:204|336:268,1,192,4|8
356,320,62921,1,0
260,332,63128,2,0,B|176:336|136:288|108:244|116:192,1,192,4|0
88,136,63749,1,0
184,148,63955,2,2,B|280:192|344:128|344:72,1,192
360,284,64783,1,4
264,272,64990,1,2
168,256,65197,1,0
72,236,65404,2,2,B|8:156|44:76|104:40,1,192,2|0
148,96,66024,1,8
228,40,66231,1,0
236,132,66438,2,0,B|300:196|384:176|424:132|432:100,1,192,4|0
276,252,67266,2,0,B|212:188|128:208|88:252|80:284,1,192,8|0
208,368,68093,1,0
304,368,68300,1,8
372,188,68714,5,0
336,100,68921,1,8
256,48,69128,1,0
176,100,69335,1,0
140,188,69542,1,0
128,284,69749,2,0,B|188:308|232:280,1,96,4|0
296,224,70162,1,2
388,252,70369,1,0
316,312,70576,2,0,B|268:204|348:108,1,192,2|0
416,84,71197,2,2,B|336:152|268:152|196:128|160:100|144:76,1,288,2|0
88,28,72024,5,0
64,104,72231,1,4
76,188,72438,2,0,B|144:160|212:200,1,96
248,220,72852,1,0
248,220,73266,2,2,B|344:276|440:264|484:196|536:56|296:4,1,480,2|0
244,24,74507,1,0
164,56,74714,6,0,B|100:96|112:164,1,96,4|0
160,204,75128,2,0,B|224:164|212:96,1,96,8|0
110,132,75542,2,2,B|46:148|38:228|74:292|150:284,1,192,2|0
188,320,76162,1,2
188,320,76576,2,2,B|264:312|336:292|364:180|320:72|220:40,1,384,2|0
172,100,77611,2,2,B|180:176|200:248|312:276|420:232|452:132,1,384,2|0
432,72,78645,1,0
356,40,78852,1,8
224,116,79266,5,2
260,184,79473,1,0
328,148,79680,1,6
328,148,80093,1,0
144,284,80507,1,8
144,284,80921,1,0
256,60,81335,1,6
256,60,81749,1,0
368,284,82162,1,8
368,284,82576,1,0
188,108,82990,5,4
100,100,83197,1,0
40,164,83404,2,2,B|4:216|24:292|52:336|88:348,1,192
128,272,84024,1,0
204,312,84231,1,8
288,328,84438,2,2,B|412:320|468:228|456:116|340:16,1,384,2|0
288,72,85473,5,4
256,152,85680,1,0
216,228,85887,1,0
136,196,86093,1,2
376,196,86507,2,2,B|388:268|332:336|256:316|180:336|124:268|136:200,1,288,2|0
204,116,87542,1,0
256,48,87749,1,0
308,116,87955,5,4
252,184,88162,1,0
192,244,88369,2,0,B|80:244,1,96,2|0
76,328,88783,2,2,B|240:328,2,144
20,264,89611,1,4
16,176,89818,1,2
16,176,90231,2,2,B|124:148|116:8,1,192
272,108,91059,2,2,B|164:136|172:276,1,192,2|0
196,336,91680,1,8
256,272,91887,1,0
256,192,92093,1,0
96,256,92507,5,2
24,100,92921,1,6
24,100,93335,1,0
256,36,93749,1,8
256,36,94162,1,0
488,100,94576,1,6
488,100,94990,1,0
256,172,95404,1,8
256,172,95818,1,0
152,316,96231,5,6
88,260,96438,1,0
64,180,96645,2,0,B|124:176|144:120,1,96,0|0
176,52,97059,1,8
16,120,97473,1,0
168,200,97887,2,2,B|256:224|308:172|300:80,1,192,6|0
368,268,98714,2,0,B|280:244|228:296|236:388,1,192,8|0
64,340,99542,2,2,B|8:288|-4:208|24:132|108:108|160:104,1,288,6|0
200,136,100369,1,8
364,184,100783,5,0
464,44,101197,1,6
500,212,101611,1,0
444,276,101818,1,0
364,312,102024,1,8
280,324,102231,1,0
196,304,102438,1,0
160,136,102852,2,0,B|364:136,1,192,6|0
256,16,103680,1,8
92,72,104093,5,0
40,240,104507,2,0,B|32:308|104:328|152:324|184:264,1,192,6|0
344,244,105335,2,0,B|352:176|280:156|232:160|200:220,1,192,6|0
348,320,106162,1,4
492,224,106576,2,2,B|504:112|388:56,1,192
236,28,107404,2,0,B|224:140|340:196,1,192,0|6
276,356,108231,2,0,B|288:244|172:188,1,192,0|8
116,152,108852,1,0
44,100,109059,1,0
13,180,109266,1,0
85,232,109473,1,4
52,88,114645,5,0
52,88,114749,1,0
52,88,114852,2,0,B|60:148|120:164,1,96,2|0
200,192,115266,2,0,B|272:100,1,96,8|0
324,172,115680,1,2
324,172,115887,1,0
324,172,116093,2,0,B|396:80,1,96,6|0
460,156,116507,1,8
428,248,116714,1,0
356,296,116921,2,0,B|300:268|224:284|212:312,1,144,2|0
176,340,117335,2,0,B|72:336|12:236,1,192
20,148,117955,2,2,B|60:108|144:92|188:112|212:128,1,192,2|0
280,172,118576,2,2,B|320:212|404:228|448:208|472:192,1,192
448,88,119197,1,0
356,120,119404,1,4
360,312,119818,1,0
156,264,120231,1,6
152,72,120645,1,0
256,228,121059,1,8
256,324,121266,1,8
64,340,121680,5,0
16,256,121887,1,8
20,168,122093,1,8
96,108,122300,1,0
192,100,122507,1,0
288,120,122714,2,0,B|352:140|436:116|468:32,1,192,4|0
484,152,123335,1,0
404,212,123542,2,0,B|340:192|256:216|224:300,1,192,2|0
184,356,124162,2,2,B|96:352|36:324|0:248|-16:160|44:72,1,384,2|0
112,116,125197,5,4
112,36,125404,1,0
112,36,125611,1,0
188,76,125818,1,2
352,128,126231,2,2,B|388:220|328:292|256:296,1,192
204,304,126852,1,4
120,284,127059,2,0,B|56:188,1,96,0|2
32,124,127473,2,0,B|32:80|61:47|109:84|152:48|168:-8,1,192
232,60,128093,5,0
300,112,128300,1,0
376,68,128507,2,2,B|440:124|396:216,2,144
304,16,129335,1,4
204,156,129749,2,2,B|116:224|24:184|16:176,1,192
88,120,130369,1,6
256,76,130783,1,2
420,120,131197,1,6
256,176,131611,1,0
256,264,131818,2,0,B|44:264,1,192,0|2
0,204,132438,5,0
60,140,132645,1,6
144,120,132852,1,0
220,160,133059,1,0
292,224,133266,1,0
368,264,133473,1,8
452,244,133680,1,0
512,180,133887,1,0
512,88,134093,1,0
452,24,134300,1,6
368,4,134507,1,0
292,44,134714,1,0
220,108,134921,1,0
144,148,135128,1,8
60,128,135335,1,0
0,64,135542,1,0
256,180,135955,6,0,B|256:376,1,192,6|2
184,324,136576,1,0
116,272,136783,1,6
184,220,136990,1,0
112,172,137197,1,0
260,84,137611,2,0,B|344:100|364:160|352:216|332:248,1,192,6|0
192,316,138438,2,0,B|108:300|88:240|100:184|120:152,1,192,8|0
268,240,139266,2,2,B|280:180|328:136|392:176|452:160|480:120|472:64,1,288,6|0
392,72,140093,1,8
236,120,140507,5,0
64,96,140921,2,2,B|24:132|20:188|40:232|96:260,1,192
168,292,141542,1,0
252,304,141749,1,8
332,276,141955,1,0
372,200,142162,1,0
348,116,142369,1,0
300,188,142576,2,0,B|504:228,1,192,6|0
484,144,143197,1,0
428,80,143404,1,8
260,36,143818,5,0
104,112,144231,2,0,B|204:144|192:240|148:300,1,192,6|0
408,272,145059,2,0,B|308:240|320:144|364:84,1,192,6|8
404,56,145680,1,0
420,140,145887,1,4
420,140,146300,6,2,B|328:80|216:188|136:124,1,288
144,132,147335,1,0
212,188,147542,1,6
252,264,147749,1,0
224,344,147955,1,8
140,360,148162,1,0
132,276,148369,2,6,B|152:196|252:156|308:180,1,192,6|0
360,184,148990,1,0
392,260,149197,1,6
236,340,149611,5,0
156,308,149818,1,0
220,252,150024,2,8,B|276:164|216:88|160:72,1,192,8|0
220,252,150852,2,0,B|420:156,1,192,6|0
304,132,151473,1,0
220,148,151680,2,0,B|20:244,1,192,6|0
40,312,152300,1,0
124,328,152507,2,2,B|164:268|148:160|92:100|36:88,1,288,2|0
96,24,153335,1,8
208,156,153749,5,2
348,56,154162,2,2,B|408:56|426:107|411:146|363:152|324:167|318:203|333:236|366:254|411:263,1,288
472,216,154990,1,8
488,300,155197,1,0
420,356,155404,1,0
336,344,155611,1,0
268,288,155818,2,0,B|208:220|232:156|288:120,1,192,6|0
352,68,156438,1,0
352,152,156645,1,8
192,84,157059,5,0
20,108,157473,2,0,B|116:148|104:268|84:272,1,192,6|0
252,328,158300,2,0,B|156:288|168:168|188:164,1,192,6|0
256,148,158921,1,0
288,216,159128,1,4
256,40,159542,1,6
256,192,159645,12,4,161611
84,52,162231,21,0
172,48,162438,1,6
232,108,162645,1,0
176,172,162852,1,0
92,156,163059,1,0
24,212,163266,1,8
88,260,163473,1,0
168,248,163680,1,0
256,268,163886,1,6
364,108,164300,1,6
148,108,164714,1,2
148,272,165128,1,2
364,272,165542,1,0
448,224,165749,6,0,B|480:176|440:124,1,96,6|0
356,164,166162,2,0,B|300:164|276:92,1,96
368,56,166576,2,0,B|324:12|256:20,2,96,2|2|0
456,44,167197,1,6
372,236,167611,1,2
140,236,168024,1,6
56,44,168438,1,2
59,46,169059,6,2,B|4:121|4:223|71:294|240:302|256:192|271:81|440:89|507:160|507:262|452:337,1,768,2|4
356,300,170921,1,0
256,332,171128,1,0
156,300,171335,1,0
60,336,171542,1,8
256,260,171955,1,2
416,112,172369,6,0,B|372:60|304:84,1,96,2|0
360,168,172783,2,0,B|336:228|384:264,1,96,2|0
460,212,173197,2,0,B|484:272|448:324,1,96,2|0
380,364,173611,2,0,B|320:368|288:300,1,96,8|0
212,321,174024,2,0,B|192:360|132:364,1,96,6|0
53,305,174438,2,0,B|32:264|52:212,1,96,2|0
137,256,174852,2,0,B|172:228|152:168,1,96,2|0
180,77,175266,2,0,B|136:72|96:112,1,96,8|0
32,184,175680,5,6
120,220,175886,1,0
216,216,176093,1,0
300,168,176300,1,0
384,120,176507,1,8
472,160,176714,1,0
484,256,176921,1,0
400,304,177128,1,6
256,96,177542,1,2
112,304,177955,1,6
256,228,178369,1,2
380,80,178783,5,0
288,52,178990,2,0,B|264:96|192:88,1,96,6|0
108,92,179404,2,0,B|60:136|96:196,1,96,2|0
148,252,179818,2,0,B|172:200|244:192,1,96,2|0
304,240,180231,2,0,B|353:235|377:183,1,96,8|0
408,108,180645,1,6
460,168,180852,1,0
256,108,181266,1,2
52,168,181680,1,0
52,168,182300,6,6,B|52:220|72:288|144:296|312:312|256:188|200:72|368:88|440:96|460:164|460:216,2,576
184,48,185197,1,2
256,92,185404,1,0
328,48,185611,1,6
256,192,185714,12,0,188507
24,48,195542,5,0
52,120,195749,1,0
112,168,195955,1,0
188,152,196162,1,0
232,88,196369,1,0
196,16,196576,1,0
152,84,196783,1,6
152,84,197197,1,0
360,84,197611,1,6
360,84,198024,1,8
504,168,198438,5,2
512,248,198645,1,0
484,320,198852,1,6
424,368,199059,1,0
348,352,199266,1,0
304,288,199473,1,0
340,216,199680,1,6
348,140,199886,1,0
296,80,200093,1,0
216,80,200300,1,0
164,140,200507,1,6
172,216,200714,1,0
208,288,200921,1,6
164,352,201128,1,0
88,368,201335,1,6
28,320,201542,1,6
0,248,201749,1,6
8,168,201955,1,2
48,104,202162,6,2,B|100:76|168:80|216:116|232:192,1,230.400005493164,2|0
300,264,202783,1,0
370,330,202990,1,4
142,330,203404,1,6
142,89,203818,1,0
370,89,204231,1,6
142,210,204645,1,0
256,210,204852,1,0
370,210,205059,1,6
260,60,205473,6,2,B|200:44|116:76|40:152|104:292,1,345.600008239746
168,360,206300,1,4
244,288,206507,1,0
298,359,206714,2,2,B|384:341|375:136|256:192|136:243|127:42|213:24,1,460.800010986328,2|0
344,24,207749,1,0
268,96,207955,1,8
404,248,208369,6,0,B|356:188|288:188,1,115.200002746582,2|0
228,176,208783,2,6,B|148:164|80:128|52:72|32:16,2,230.400005493164,6|2|8
370,330,210024,1,6
370,89,210438,1,0
142,89,210852,1,6
370,210,211266,1,0
256,210,211473,1,0
142,210,211680,1,6
256,5,212093,1,4
256,192,212197,12,0,213749
256,192,213852,12,0,214990
92,56,215404,6,0,B|16:124|48:224|144:252,1,211.19999370575,6|2
132,316,216024,1,0
224,284,216231,2,0,B|300:216|268:116|172:88,1,211.19999370575,6|0
356,68,217059,2,0,B|440:96|408:168|400:208|428:240|472:248,1,211.19999370575,6|0
460,328,217680,1,0
368,340,217886,2,0,B|284:312|316:240|324:200|296:168|252:160,1,211.19999370575,8|0
274,167,218714,2,0,B|210:235|110:235|50:191|30:139|34:79,1,316.799990558625,6|0
84,36,219542,5,8
212,68,219955,1,0
360,32,220369,2,2,B|444:52|464:116|428:180|396:196,1,211.19999370575
352,244,220990,1,0
280,252,221197,1,8
212,220,221404,1,0
160,168,221611,1,0
132,100,221818,1,0
104,32,222024,2,2,B|20:52|0:116|36:180|68:196,1,211.19999370575,6|2
216,296,222852,5,8
256,128,223266,1,0
296,296,223680,1,6
176,192,224093,1,0
336,192,224507,1,8
212,116,224921,1,0
300,116,225128,1,0
256,48,225335,1,4
256,48,225749,6,2,B|152:40|84:84|40:168|64:268,1,316.799990558625
62,310,226576,1,0
132,284,226783,2,2,B|172:252|224:232|296:252|328:296,1,211.19999370575
372,344,227404,1,8
300,360,227611,1,0
324,292,227818,2,2,B|292:252|272:200|292:128|336:96,1,211.19999370575
388,44,228438,1,0
384,132,228645,6,0,B|272:64,1,105.599996852875,6|0
224,24,229059,2,0,B|112:92,1,105.599996852875,2|0
80,144,229473,2,0,B|192:212,1,105.599996852875,2|0
256,160,229886,1,2
48,256,230300,2,0,B|72:332|116:352|176:344|216:300,1,211.19999370575,6|0
256,236,230921,1,0
304,308,231128,2,0,B|338:346|398:354|442:334|466:258,1,211.19999370575,6|2
352,104,231955,6,2,B|272:44|224:140|148:88,1,211.19999370575
196,32,232576,1,0
196,32,232783,1,4
292,156,233197,1,2
292,156,233404,1,0
216,184,233611,2,2,B|136:220|44:172|40:96,1,211.19999370575
140,108,234231,2,2,B|104:188|152:280|228:284,1,211.19999370575,2|8
284,272,234852,1,8
284,272,235266,2,6,B|240:200|324:104|352:192|456:100|380:8,1,316.799990558625,6|2
332,68,236093,1,0
136,56,236507,5,2
68,108,236714,1,0
24,180,236921,2,0,B|160:220,1,105.599996852875,6|0
128,296,237335,2,0,B|264:256,1,105.599996852875,2|0
224,180,237749,2,0,B|360:220,1,105.599996852875,6|0
340,292,238162,2,0,B|476:252,1,105.599996852875,2|0
408,184,238576,1,4
420,40,238990,6,2,B|379:19|321:7|264:40|207:72|149:59|108:40,1,316.799990558625
28,24,239818,1,0
21,107,240024,2,2,B|12:165|37:220|88:252|162:247,1,211.19999370575
216,208,240645,1,8
296,208,240852,1,0
370,247,241059,2,2,B|424:252|475:220|500:165|491:107,1,211.19999370575
472,36,241680,1,0
408,88,241886,1,4
