osu file format v9

[General]
AudioFilename: Meg & Dia - Inside My Head.mp3
AudioLeadIn: 0
PreviewTime: 135955
Countdown: 1
SampleSet: Normal
StackLeniency: 0.7
Mode: 0
LetterboxInBreaks: 1

[Editor]
Bookmarks: 109473,114438,120335,188921,195542
DistanceSpacing: 0.9
BeatDivisor: 4
GridSize: 4

[Metadata]
Title:Inside My Head
Artist:Meg & Dia
Creator:Larto
Version:Hard
Source:
Tags:meg and dia here, here and here here and here

[Difficulty]
HPDrainRate:5
CircleSize:4
OverallDifficulty:5
ApproachRate:5
SliderMultiplier:1.76
SliderTickRate:2

[Events]
//Background and Video events
0,0,"daDJt.jpg"
//Break Periods
2,109673,113238
2,188921,194342
//Storyboard Layer 0 (Background)
//Storyboard Layer 1 (Fail)
//Storyboard Layer 2 (Pass)
//Storyboard Layer 3 (Foreground)
//Storyboard Sound Samples
//Background Colour Transformations
3,100,163,162,255

[TimingPoints]
1887,413.793103448276,4,1,0,69,1,0
30024,-100,4,1,0,69,0,1
43266,-100,4,1,0,69,0,0
96231,-100,4,1,0,69,0,1
109473,-100,4,1,0,69,0,0
135955,-100,4,1,0,69,0,1
162438,-100,4,1,0,69,0,0
202162,-83.3333333333333,4,1,0,69,0,1
214576,-83.3333333333333,4,1,0,69,0,0
215403,-83.3333333333333,4,1,0,69,0,0
215404,-90.9090909090909,4,1,0,69,0,1
228644,-90.9090909090909,4,1,0,69,0,0
228645,-90.9090909090909,4,1,0,69,0,1
241887,-90.9090909090909,4,1,0,69,0,0

[Colours]
Combo1 : 99,132,182
Combo2 : 254,220,150
Combo3 : 133,130,196
Combo4 : 204,192,125

[HitObjects]
56,104,30024,5,4
188,52,30438,1,0
320,96,30852,2,0,B|364:132|356:216|312:252|268:256,1,176,8|0
180,324,31680,2,0,B|136:288|144:204|188:168|232:164,1,176,6|0
328,236,32507,1,8
468,212,32921,1,0
352,132,33335,2,2,B|336:88|308:64|208:80|192:132|216:160|256:144|296:160|320:132|304:80|204:64|176:88|160:132,1,352,6|8
60,232,34576,5,0
168,320,34990,2,0,B|204:244|284:240|332:256,1,176,2|0
316,180,35611,2,0,B|347:191|427:187|463:111,1,176,2|8
404,72,36231,1,8
256,24,36645,2,4,B|164:48|196:152|276:144,2,176,6|0|8
116,48,37887,5,0
40,160,38300,2,0,B|8:216|36:280|84:304|124:296,1,176,6|0
128,232,38921,1,0
200,244,39128,2,0,B|232:300|204:364|156:388|116:380,1,176,6|0
40,280,39955,1,4
52,136,40369,6,2,B|55:50|264:68|201:124|257:177|313:229|249:285|458:303|462:218,1,528,2|0
388,96,42024,1,0
256,144,42438,1,8
256,216,42645,1,0
256,288,42852,1,0
120,316,43266,6,0,B|52:288|44:200|88:156,1,176,6|8
28,104,43887,1,0
104,84,44093,2,0,B|172:112|180:200|136:244,2,176,2|8|6
240,124,45335,2,0,B|300:152|380:128|388:52,2,176,8|2|8
180,64,46369,1,0
108,104,46576,2,0,B|52:176|88:248|120:276,1,176,6|8
176,208,47197,1,0
176,208,47404,2,0,B|232:280|196:352|164:380,1,176,6|0
56,292,48231,6,0,B|8:208|44:148|104:120,1,176,4|8
144,92,48852,1,0
212,132,49059,2,2,B|380:208,2,176,2|2|4
208,52,50093,1,0
360,12,50507,1,0
376,88,50714,2,2,B|396:156|332:232|268:240,1,176,2|0
220,248,51335,2,2,B|200:180|264:104|328:96,1,176,2|0
376,88,51955,2,0,B|480:256,2,176,8|6|8
316,36,52990,1,0
256,84,53197,1,4
200,232,53611,2,0,B|120:288|72:180|136:152,1,176,2|6
312,152,54438,2,0,B|392:96|440:204|376:232,1,176,2|8
96,364,55680,6,0,B|20:292,1,88,2|0
96,248,56093,2,0,B|20:176,1,88,8|0
104,152,56507,2,0,B|124:80|208:56|264:80,2,176,6|8|2
180,180,57542,1,0
252,212,57749,2,0,B|452:276,1,176,6|0
324,308,58369,2,0,B|524:372,1,176,6|0
496,284,58990,2,0,B|524:192|440:120|408:116,1,176,8|0
256,104,59818,1,4
256,184,60024,2,2,B|188:220|112:184|100:128,2,176,2|2|0
320,144,61059,1,8
256,288,61473,2,0,B|452:288,1,176,6|0
256,288,62300,2,0,B|60:288,1,176,8|8
32,224,62921,5,0
32,144,63128,2,0,B|108:184|192:116|168:72,1,176,6|0
256,92,63749,1,0
339,87,63955,2,0,B|332:116|404:184|480:144,2,176,8|2|4
256,92,64990,2,2,B|180:280,2,176,2|2|0
296,16,66024,1,8
424,96,66438,2,0,B|356:112|332:172|356:236|364:240,1,176,6|0
192,244,67266,2,0,B|260:228|284:168|260:104|252:100,1,176,8|0
124,192,68093,2,0,B|56:208|32:268|56:332|64:336,1,176,6|0
220,304,68921,2,0,B|300:252,1,88,8|0
332,328,69335,2,0,B|412:276,1,88,0|0
480,232,69749,6,0,B|512:164|460:88|404:76,2,176,4|2|2
316,168,70990,1,8
236,208,71197,2,2,B|172:232|104:220|52:184|12:112|68:8,1,352,2|0
136,40,72231,1,4
144,112,72438,5,0
260,244,72852,1,2
368,112,73266,2,2,B|320:100|224:144|168:196|144:272|144:344,1,352,2|0
68,348,74300,1,8
68,348,74507,1,0
12,92,75128,6,2,B|64:72|144:96|172:176,2,176,2|2|0
36,168,76162,1,6
161,281,76576,2,2,B|278:244|362:149|312:11,1,352,2|0
200,11,77611,2,2,B|150:149|234:244|351:282,1,352,2|0
256,112,78852,1,8
92,68,79266,5,2
72,240,79680,2,0,B|68:324|140:372|208:360,1,176,6|0
256,344,80300,1,0
337,361,80507,2,0,B|376:360|444:324|440:240,1,176,8|0
364,88,81335,2,2,B|328:32|240:48|268:124|176:128|124:64,2,264
256,228,82990,5,4
180,256,83197,1,0
108,224,83404,2,2,B|116:164|92:100|-8:64,2,176,2|2|8
24,256,84438,2,2,B|60:336|112:360|240:412|344:280,1,352,2|0
252,252,85473,1,8
168,260,85680,5,0
336,200,86093,1,6
492,112,86507,2,2,B|461:42|353:15|257:0|161:15|53:42|22:112,1,528,2|0
4,288,88162,5,0
56,216,88369,2,0,B|96:252|160:232,1,88,2|0
224,212,88783,2,2,B|304:176|412:196|448:292|444:332,1,264,2|0
344,308,89611,1,0
256,276,89818,1,6
181,149,90231,1,6
330,149,90645,1,2
412,256,91059,2,2,B|352:324|256:352|160:324|100:256,1,352,2|0
56,196,92093,5,8
144,36,92507,1,2
200,96,92714,1,0
256,36,92921,1,6
256,36,93335,1,0
256,196,93749,1,8
256,196,94162,1,0
180,336,94576,2,0,B|112:304|88:256|100:184,1,176,6|0
332,48,95404,2,0,B|400:80|424:128|412:200,1,176,8|0
316,312,96231,6,0,B|276:236|200:204|112:220|72:244,1,264,6|0
16,268,97059,1,8
28,120,97473,1,0
184,152,97887,1,6
256,12,98300,1,0
328,152,98714,1,8
484,120,99128,1,0
496,268,99542,2,2,B|432:236|352:264|324:320|252:308|208:280,1,264,2|0
176,252,100369,1,8
76,128,100783,5,2
136,76,100990,1,0
212,52,101197,2,2,B|192:132|256:184|332:156,1,176,2|0
380,136,101818,2,2,B|430:114|494:166|474:246,1,176,2|8
408,280,102438,1,8
256,320,102852,2,0,B|205:334|175:314|172:281|144:248|224:236|184:188|132:168|112:179|88:197,1,264,6|0
104,264,103680,1,8
256,220,104093,5,0
412,196,104507,2,0,B|352:176|308:120|324:40,1,176,6|0
190,61,105335,2,0,B|204:120|160:176|100:196,1,176,6|0
20,332,106162,1,0
20,332,106576,2,2,B|80:352|160:308|160:252|72:220|56:196|76:148|104:96|224:128,1,352,2|0
324,160,107818,1,4
264,24,108231,1,0
156,128,108645,1,8
184,196,108852,1,0
160,264,109059,1,0
36,192,109473,1,4
28,48,114438,6,0,B|12:108|36:168|88:188|140:188,1,176,4|2
160,120,115059,1,0
236,144,115266,2,0,B|253:140|305:160|329:220|313:280,1,176,6|8
196,384,116093,2,0,B|124:360|96:308|92:232,1,176,6|8
244,196,116921,2,0,B|316:220|344:272|348:348,1,176,6|8
424,320,117542,1,0
480,268,117749,2,0,B|500:204|472:120|428:72|360:56|344:56,1,264,4|0
284,80,118576,1,2
256,216,118990,1,8
176,208,119197,1,0
160,132,119404,2,0,B|72:120|52:184|64:248,1,176,4|0
148,372,120231,2,0,B|236:384|256:320|244:256,1,176,2|0
228,116,121059,1,8
300,92,121266,1,8
456,60,121680,5,0
484,132,121887,2,0,B|508:216|460:280|396:292,1,176,8|0
352,316,122507,1,8
276,336,122714,1,4
120,304,123128,1,0
88,232,123335,1,0
56,160,123542,2,2,B|136:120|120:36|56:12|-8:24|-16:96,2,264,2|2|0
36,316,125197,5,8
100,268,125404,1,4
256,304,125818,1,2
392,220,126231,2,2,B|408:124|344:60|252:40|208:80,1,264,2|0
76,108,127266,1,8
80,188,127473,2,0,B|144:248|224:232|256:184,1,176
296,136,128093,6,0,B|388:196,1,88,2|0
428,228,128507,2,0,B|416:304|364:324|316:332,2,132,6|0|0
432,148,129335,2,2,B|400:60|312:32|260:44,2,176
368,184,130369,1,2
256,272,130783,1,6
144,184,131197,1,2
256,92,131611,1,2
256,172,131818,2,0,B|256:352,1,176,4|2
100,320,132645,6,0,B|128:264|96:192|52:152,1,176,6|0
256,40,133473,2,0,B|228:96|260:168|304:208,1,176,8|0
412,320,134300,2,0,B|384:264|416:192|460:152,1,176,6|0
256,40,135128,2,0,B|284:96|252:168|208:208,1,176,8|0
164,256,135749,1,0
84,276,135955,6,0,B|120:184|68:112|16:92,1,176,6|2
128,88,136576,1,0
188,140,136783,2,2,B|372:216,2,176,2|2|6
256,8,138024,1,0
376,108,138438,2,0,B|460:172|436:260|400:276,1,176,8|0
368,332,139059,1,0
368,332,139266,2,2,B|344:264|280:228|216:220|168:236|140:256,1,264,6|0
84,296,140093,1,8
52,140,140507,5,0
176,44,140921,2,2,B|204:116|304:120|344:80,1,176,2|0
380,36,141542,2,2,B|308:64|304:164|344:204,1,176,2|8
368,248,142162,1,8
476,364,142576,2,0,B|300:364,2,176,6|0|8
380,240,143818,5,0
236,304,144231,2,0,B|160:276|152:192|188:140,1,176,6|0
256,192,144852,1,0
334,224,145059,2,0,B|352:188|352:108|276:80,1,176,6|0
120,48,145887,5,4
32,180,146300,2,2,B|32:268|116:336|208:296|244:248,2,264
180,124,147955,1,8
260,112,148162,1,0
340,136,148369,2,2,B|412:172|448:256|428:340|376:368,1,264,6|0
336,308,149197,5,6
180,328,149611,1,0
100,196,150024,1,8
176,44,150438,1,0
320,92,150852,2,0,B|384:80|432:140|424:184|396:224,1,176,6|0
252,228,151680,2,0,B|188:240|140:180|148:136|176:96,1,176,8|0
316,200,152507,2,2,B|240:196|192:268|252:340|164:376|108:364,1,264,6|0
140,292,153335,1,8
44,164,153749,5,0
148,48,154162,2,2,B|188:32|260:8|280:112|352:104|408:72,2,264,2|2|0
76,84,155611,1,0
128,144,155818,2,0,B|188:204|164:304|116:324,1,176,6|0
284,368,156645,2,0,B|224:308|248:208|296:188,1,176,8|0
320,144,157266,5,0
344,224,157473,2,0,B|148:180,1,176,6|0
276,68,158300,2,0,B|472:24,1,176,6|0
484,96,158921,1,0
432,152,159128,1,4
256,192,159542,12,4,161611
284,60,162438,22,0,B|336:164,1,88,6|0
404,136,162852,2,0,B|444:232,1,88,8|0
464,284,163266,2,2,B|428:344|332:356|292:336,1,176,2|0
232,316,163886,2,0,B|128:140,1,176,6|2
280,68,164714,2,0,B|384:244,1,176,6|2
304,264,165335,1,8
228,244,165542,1,0
152,228,165749,6,0,B|148:112,1,88,6|0
72,164,166162,2,0,B|68:48,1,88,8|0
144,40,166576,2,2,B|224:16|284:48|316:108,1,176,2|0
344,148,167197,2,0,B|280:156|244:224|256:288,1,176,6|2
168,152,168024,2,0,B|232:144|268:76|256:12,1,176,6|2
184,32,168645,1,8
88,160,169059,6,2,B|61:276|104:379|257:393|411:379|454:276|427:160,1,616
404,88,170714,1,6
332,124,170921,1,0
256,132,171128,1,2
108,88,171542,1,6
180,52,171749,1,0
256,44,171955,1,2
192,188,172369,6,2,B|124:236|136:328|208:356,1,176,2|8
256,324,172990,1,0
332,339,173197,2,2,B|368:312|388:236|320:188,1,176,2|8
176,120,174024,1,6
256,256,174438,1,8
336,120,174852,2,2,B|184:220,1,176,2|8
120,256,175473,5,0
44,228,175680,2,0,B|116:164|68:56,1,176,6|8
220,128,176507,2,0,B|148:192|196:300,1,176,6|8
272,292,177128,2,2,B|460:312,2,176
124,232,178369,1,2
160,160,178576,1,8
228,116,178783,1,0
300,84,178990,6,0,B|308:140|376:172|432:144|468:120,1,176,6|2
484,64,179611,1,0
404,60,179818,2,0,B|348:68|316:136|344:192|368:228,1,176,6|8
328,360,180645,2,2,B|140:300,1,176,2|0
148,228,181266,2,2,B|336:288,1,176
446,135,182300,6,2,B|416:74|286:53|182:118|256:192|329:265|225:330|95:309|65:248,2,528,6|2|2
328,244,185197,1,2
184,140,185611,1,6
256,192,185714,12,0,188507
84,80,195542,5,6
60,252,195955,1,0
144,280,196162,1,0
220,248,196369,1,8
188,76,196783,1,6
188,76,197197,1,0
324,76,197611,1,2
324,76,198024,1,0
424,220,198438,5,2
368,288,198645,1,0
284,308,198852,1,6
208,260,199059,1,0
184,176,199266,1,2
256,16,199680,1,6
332,64,199886,1,0
356,148,200093,1,2
256,292,200507,1,6
172,316,200714,1,0
96,268,200921,1,8
88,180,201128,1,0
168,140,201335,2,2,B|364:140,1,176
436,328,202162,6,2,B|356:256|244:236|120:288,1,316.800007553101
68,320,202990,1,8
52,132,203404,2,0,B|136:156|196:104|176:44|156:4,1,211.200005035401,6|0
344,80,204231,2,0,B|260:56|200:108|220:168|240:208,1,211.200005035401,6|8
300,252,204852,1,0
372,204,205059,1,2
372,204,205473,6,2,B|256:156|164:176|72:264,1,316.800007553101
36,320,206300,1,8
36,320,206714,2,2,B|156:276|184:224|168:64|76:32|-12:44,1,422.400010070801,2|0
4,124,207749,1,0
68,180,207955,1,8
196,68,208369,5,6
264,120,208576,1,0
232,200,208783,2,2,B|248:288|320:332|412:320|464:248|448:176,1,316.800007553101,2|0
412,128,209611,1,8
244,112,210024,2,0,B|20:152,1,211.200005035401,6|0
268,272,210852,2,0,B|492:232,1,211.200005035401,6|8
336,140,211680,1,2
256,116,211886,1,0
176,140,212093,1,6
256,192,212197,12,6,214576
52,72,215404,6,0,B|16:148|56:224|144:240,1,193.599994230271,6|2
180,164,216024,1,0
268,216,216231,2,0,B|325:223|365:299|329:375,1,193.599994230271,8|0
180,372,217059,1,6
180,216,217473,1,0
332,216,217886,1,8
256,84,218300,1,0
120,160,218714,2,2,B|52:196|64:296|112:328|168:340|232:300,1,290.399991345406,2|0
256,232,219542,5,8
256,76,219955,1,0
352,196,220369,2,0,B|360:264|320:304|264:308|216:280,1,193.599994230271,6|0
152,260,220990,2,0,B|144:192|184:152|240:148|288:176,1,193.599994230271,6|8
332,124,221611,1,8
304,288,222024,2,2,B|224:352|112:348|8:308|16:160,1,387.199988460541,2|0
116,60,223266,5,0
256,8,223680,1,6
396,60,224093,1,0
256,124,224507,1,6
180,260,224921,1,2
332,260,225335,1,4
372,128,225749,6,2,B|352:64|256:20|160:64|140:128,1,290.399991345406,2|8
80,168,226576,1,0
8,208,226783,2,2,B|256:360,1,290.399991345406,2|8
328,360,227611,1,0
296,296,227818,2,2,B|48:144,1,290.399991345406
104,92,228645,5,6
256,116,229059,1,2
408,92,229473,1,6
256,44,229886,2,0,B|232:176|376:184,1,193.599994230271,0|6
256,340,230714,2,0,B|280:208|136:200,1,193.599994230271,0|8
0,236,231542,1,2
48,292,231749,1,0
122,313,231955,2,2,B|172:363|256:374|339:363|389:313,1,290.399991345406,2|0
364,248,232783,1,8
256,120,233197,5,0
124,48,233611,2,2,B|120:176|248:216,1,193.599994230271,2|0
295,203,234231,2,0,B|388:168|388:48,2,193.599994230271,2|8|0
256,272,235266,2,2,B|372:288|472:172|464:80|436:16,1,290.399991345406,6|0
456,24,236093,1,8
320,96,236507,5,0
200,192,236921,1,6
320,288,237335,1,0
200,192,237749,2,2,B|0:192,1,193.599994230271
44,116,238369,1,0
120,88,238576,1,4
256,73,238990,6,2,B|329:125|300:173|259:192|211:210|185:262|256:310,1,290.399991345406,2|0
336,304,239818,1,0
392,252,240024,2,2,B|348:144|260:124|200:132|184:144,1,193.599994230271
172,136,240645,1,8
116,184,240852,1,0
112,260,241059,2,2,B|156:368|244:388|304:380|376:312,1,290.399991345406,2|2
320,268,241886,1,4
