osu file format v9

[General]
AudioFilename: Meg & Dia - Inside My Head.mp3
AudioLeadIn: 0
PreviewTime: 135955
Countdown: 1
SampleSet: Normal
StackLeniency: 0.7
Mode: 0
LetterboxInBreaks: 1

[Editor]
Bookmarks: 109473,114438,120335,188921,195542,200611
DistanceSpacing: 1
BeatDivisor: 4
GridSize: 4

[Metadata]
Title:Inside My Head
Artist:Meg & Dia
Creator:Larto
Version:Easy
Source:
Tags:meg and dia here, here and here here and here

[Difficulty]
HPDrainRate:2
CircleSize:3
OverallDifficulty:2
ApproachRate:2
SliderMultiplier:1.28
SliderTickRate:2

[Events]
//Background and Video events
0,0,"daDJt.jpg"
//Break Periods
2,109673,112878
2,188921,193982
//Storyboard Layer 0 (Background)
//Storyboard Layer 1 (Fail)
//Storyboard Layer 2 (Pass)
//Storyboard Layer 3 (Foreground)
//Storyboard Sound Samples
//Background Colour Transformations
3,100,163,162,255

[TimingPoints]
1887,413.793103448276,4,1,0,69,1,0
30024,-100,4,1,0,69,0,1
43266,-100,4,1,0,69,0,0
96231,-100,4,1,0,69,0,1
109473,-100,4,1,0,69,0,0
135955,-100,4,1,0,69,0,1
162438,-100,4,1,0,69,0,0
202162,-83.3333333333333,4,1,0,69,0,1
214576,-83.3333333333333,4,1,0,69,0,0
215403,-83.3333333333333,4,1,0,69,0,0
215404,-90.9090909090909,4,1,0,69,0,1
228644,-90.9090909090909,4,1,0,69,0,0
228645,-90.9090909090909,4,1,0,69,0,1
241887,-90.9090909090909,4,1,0,69,0,0

[Colours]
Combo1 : 99,132,182
Combo2 : 254,220,150
Combo3 : 133,130,196
Combo4 : 204,192,125

[HitObjects]
256,76,30024,5,4
256,332,30852,1,8
156,272,31266,1,0
44,324,31680,2,2,B|8:265|19:194|58:131|137:116,1,256
256,92,32921,1,0
384,118,33335,2,2,B|452:136|492:194|503:265|468:324,1,256,2|8
368,244,34576,5,2
256,304,34990,2,2,B|56:304,2,192,2|2|8
353,195,36645,2,0,B|334:128|256:101|177:128|158:195,1,256,6|0
68,280,37887,5,0
76,148,38300,1,6
256,212,39128,1,8
436,148,39955,1,4
448,20,40369,6,2,B|64:20,1,384,2|4
140,264,42438,1,8
252,200,42852,1,0
384,236,43266,6,0,B|456:192|480:108|412:28|336:40,1,256,6|2
228,52,44507,1,8
128,148,44921,2,0,B|56:192|32:276|100:356|176:344,1,256,6|2
272,336,46162,1,0
360,248,46576,2,0,B|340:192|256:160|172:192|152:248,1,256,6|8
152,32,48231,6,0,B|172:88|256:120|340:88|360:32,1,256,4|8
456,112,49473,1,2
388,220,49887,2,0,B|328:276|268:260|216:212|176:240|140:284,1,256,4|2
68,372,51128,1,0
200,364,51542,2,0,B|225:332|277:308|317:352|377:368|437:312,1,256,4|8
488,208,52783,1,0
464,84,53197,2,0,B|376:4|268:8|220:36,2,256,4|2|2
352,316,55680,5,8
256,232,56093,1,0
160,316,56507,2,0,B|-24:136,1,256,6|2
72,56,57749,1,2
196,56,58162,2,0,B|168:128|256:204|344:128|316:56,1,256,4|2
412,144,59404,1,8
484,256,59818,2,0,B|500:356|388:404|276:328,1,256,4|8
256,248,61059,1,2
209,344,61473,2,0,B|124:392|8:356|28:255,1,256,4|8
108,156,62714,5,2
236,156,63128,2,0,B|496:156,2,256,4|8|4
136,220,65197,1,0
204,316,65611,2,2,B|232:352|300:364|392:328|396:224,1,256,2|4
256,32,67266,1,8
120,224,68093,1,6
392,224,68921,5,4
272,180,69335,1,0
152,136,69749,2,0,B|72:108|-4:160|-4:232|16:284|40:300,1,256,6|8
256,332,71404,2,0,B|336:360|412:308|412:236|392:184|368:168,1,256,6|8
256,220,72645,5,0
176,100,73059,2,0,B|175:24|255:-19|335:24|335:99,1,256,6|8
455,139,74300,1,2
335,180,74714,6,0,B|335:255|255:299|175:255|175:179,1,256,4|2
48,168,75955,1,0
78,297,76369,2,4,B|144:359|256:378|368:359|433:297,1,384,4|2
435,156,78024,2,4,B|369:94|257:75|145:94|80:156,1,384,4|2
0,228,79680,5,6
256,276,80507,1,2
512,228,81335,1,6
256,172,82162,1,2
152,356,82990,6,0,B|92:316|40:224|96:104,1,256,4|2
192,196,84231,1,0
256,84,84645,2,2,B|524:84,1,256,2|0
460,192,85887,5,0
368,280,86300,2,0,B|340:348|252:360|208:312|184:256|120:240|48:280|44:340,1,384,4|2
80,208,87955,6,0,B|108:276|196:288|240:240|264:184|328:168|400:208|404:268,1,384,4|2
512,168,89611,2,0,B|492:80|372:12|308:36,1,256,4|2
256,140,90852,1,0
194,33,91266,2,0,B|140:16|20:80|0:168,1,256,4|2
48,280,92507,5,2
156,232,92921,1,6
412,232,93749,1,4
412,16,94576,1,6
156,16,95404,1,4
64,104,95818,1,0
112,224,96231,6,0,B|144:308|244:340|344:260,1,256,6|8
256,192,97473,1,2
186,110,97887,2,0,B|268:44|368:76|400:160,1,256,6|2
424,284,99128,1,0
308,336,99542,2,2,B|200:380|96:332|72:272|64:212|92:120,1,384
136,20,101197,5,2
256,68,101611,1,0
376,20,102024,1,8
148,132,102852,2,2,B|180:184|256:212|332:184|364:128,1,256,6|0
444,28,104093,5,0
448,156,104507,1,6
256,324,105335,1,6
172,228,105749,1,0
64,296,106162,2,0,B|-16:248|0:192|-16:136|64:88,1,256,4|2
136,0,107404,1,0
192,88,107818,2,0,B|112:136|128:192|112:248|192:296,1,256,4|2
256,192,109059,1,0
368,192,109473,1,4
256,16,114438,5,4
256,128,114852,1,8
161,192,115266,2,0,B|192:272|256:280|320:272|350:192,2,256,2|6|2
84,92,117335,1,0
66,208,117749,2,0,B|128:368|255:388|384:368|444:208,1,512
420,88,119818,1,0
336,181,120231,1,2
256,80,120645,1,0
176,180,121059,1,6
384,328,121887,6,0,B|116:328,1,256,4|4
12,276,123128,1,0
72,164,123542,2,2,B|144:196|204:144|196:84|160:48,2,192
116,284,125197,6,0,B|200:328|292:308|336:228|336:208,1,256,8|6
256,124,126438,1,0
178,217,126852,2,0,B|176:228|220:308|312:328|396:284,1,256,8|4
484,192,128093,5,0
444,68,128507,2,2,B|180:28,1,256,2|6
176,156,129749,2,2,B|212:204|256:216|300:204|336:156,1,192
392,284,130783,1,2
256,320,131197,1,2
120,284,131611,1,2
256,120,132231,5,2
376,64,132645,2,0,B|336:124|376:184,1,128,6|0
316,280,133473,2,0,B|256:240|196:280,1,128,8|0
136,183,134300,2,0,B|176:124|136:64,1,128,6|0
256,40,135128,1,8
400,224,135955,6,0,B|368:308|268:340|168:260,1,256,6|8
256,192,137197,1,2
326,110,137611,2,0,B|244:44|144:76|112:160,1,256,6|2
88,284,138852,1,0
204,336,139266,2,2,B|312:380|416:332|440:272|448:212|420:120,1,384
376,20,140921,5,2
256,68,141335,1,0
136,20,141749,1,8
364,132,142576,2,2,B|332:184|256:212|180:184|148:128,1,256,6|0
68,28,143818,5,0
64,156,144231,1,6
256,324,145059,1,6
340,228,145473,1,0
448,296,145887,6,0,B|528:248|512:192|528:136|448:88,1,256,4|2
332,32,147128,1,0
256,132,147542,1,6
180,32,147955,1,8
152,156,148369,2,2,B|184:220|256:244|328:220|360:156,1,256,2|6
432,52,149611,5,0
444,180,150024,1,4
368,284,150438,1,0
256,344,150852,2,2,B|0:248,2,256,2|2|6
320,232,152921,1,0
192,232,153335,1,8
108,136,153749,5,0
203,67,154162,2,2,B|262:41|311:54|327:100|357:139|425:123|448:97,1,256,2|8
388,216,155404,1,0
376,332,155818,2,0,B|340:364|256:392|172:364|136:332,1,256,6|8
80,228,157059,5,0
124,108,157473,1,6
388,108,158300,1,6
432,228,158714,1,0
304,196,159128,1,4
256,192,159542,12,4,161611
132,88,162438,21,6
56,192,162852,1,0
132,296,163266,1,2
380,296,164093,1,4
456,192,164507,1,0
380,88,164921,1,2
252,136,165335,1,0
256,264,165749,6,0,B|-12:264,2,256,6|8|2
320,152,167818,1,0
192,152,168231,1,8
72,296,169059,6,2,B|176:348|256:360|336:348|440:296,1,384
440,168,170714,2,2,B|336:116|256:104|176:116|72:168,1,384
168,232,172369,5,6
256,32,173197,1,8
344,232,174024,1,6
256,180,174438,1,0
256,280,174852,1,8
168,232,175266,1,2
80,180,175680,6,0,B|72:112|124:48|196:36|256:52,1,256,4|8
356,28,176921,1,0
432,104,177335,2,0,B|440:172|388:236|316:248|256:232,1,256,4|8
156,240,178576,1,0
60,180,178990,5,6
16,272,179404,1,0
104,328,179818,2,0,B|188:368|276:368|336:328|368:284,1,256,8|6
416,220,181059,1,0
332,140,181473,1,8
508,168,182300,6,0,B|508:60|368:-12|276:56,1,256,6|8
256,124,183542,1,2
184,32,183955,2,0,B|128:16|4:60|4:168,1,256,6|8
256,192,185611,12,0,188507
176,136,195542,5,6
256,72,195955,1,0
336,136,196369,1,8
400,56,196783,1,6
112,56,197611,1,2
204,296,198438,5,2
308,296,198852,2,0,B|356:296|392:260|392:216,1,128,6|0
392,88,199680,2,0,B|344:88|308:124|308:168,1,128,6|0
204,296,200507,2,0,B|156:296|120:260|120:216,1,128,6|0
120,88,201335,2,0,B|168:88|204:124|204:168,1,128,6|0
256,280,202162,5,4
444,144,202990,1,8
376,44,203404,1,6
256,16,203818,1,0
136,44,204231,1,2
68,144,204645,1,0
40,248,205059,5,0
144,180,205473,2,2,B|96:264|180:368|256:344|332:368|416:264|368:180,2,460.800010986328,2|2|0
208,40,208369,5,2
360,12,208783,2,2,B|389:59|332:145|288:128|244:111|187:197|216:244,1,307.200007324219
336,324,210024,1,6
132,192,210852,1,6
336,60,211680,1,2
256,192,212093,12,6,214576
255,294,215404,6,2,B|203:342|127:334|83:310|55:270|43:218|51:178,1,281.599991607666
135,110,216645,1,0
255,174,217059,2,2,B|307:222|383:214|427:190|455:150|467:98|459:58,1,281.599991607666,2|8
337,110,218300,1,0
256,20,218714,2,0,B|278:57|263:102|222:99|222:99|180:95|184:136|184:136|188:178|142:193|105:170,1,281.599991607666,6|8
48,260,219955,5,0
168,256,220369,1,6
256,192,220783,1,0
344,256,221197,1,8
128,128,222024,2,2,B|168:88|256:48|344:88|384:128,1,281.599991607666,2|8
376,256,223266,5,0
256,288,223680,2,0,B|160:264|148:192|160:120|256:96,1,281.599991607666,6|8
144,32,224921,1,0
44,78,225335,6,0,B|-43:131|-25:192|-43:254|44:307,1,281.599991607666,4|2
172,369,226576,1,0
256,268,226990,1,6
339,369,227404,1,0
370,232,227818,2,2,B|335:162|256:135|176:162|141:232,1,281.599991607666,2|6
256,48,229473,5,8
348,132,229886,1,0
440,216,230300,2,0,B|156:216,1,281.599991607666,6|2
32,216,231542,1,0
116,308,231955,2,0,B|396:308,1,281.599991607666,6|8
296,232,233197,5,0
192,160,233611,2,0,B|180:68|268:24|356:68|344:160,1,281.599991607666,6|8
372,272,234852,1,0
256,248,235266,2,0,B|268:340|180:384|92:340|104:248,1,281.599991607666,6|8
24,148,236507,5,0
140,104,236921,1,6
256,60,237335,1,0
372,104,237749,1,6
488,148,238162,1,0
500,252,238576,6,0,B|440:336|256:460|72:336|12:252,2,563.199983215333,4|6|6
