osu file format v9

[General]
AudioFilename: 02 Hug Me.mp3
AudioLeadIn: 0
PreviewTime: 47846
Countdown: 1
SampleSet: Soft
StackLeniency: 0.7
Mode: 0
LetterboxInBreaks: 1

[Editor]
Bookmarks: 43434,184804
DistanceSpacing: 0.9
BeatDivisor: 8
GridSize: 4

[Metadata]
Title:Hug Me
Artist:Meg & Dia
Creator:Larto
Version:Easy
Source:
Tags:here, here and here

[Difficulty]
HPDrainRate:2
CircleSize:3
OverallDifficulty:2
ApproachRate:2
SliderMultiplier:1.44
SliderTickRate:2

[Events]
//Background and Video events
0,0,"1236337006_march-09-hug-me-forever-calendar-1920x1200.jpg"
//Break Periods
2,71679,76502
2,122743,124587
2,129551,131395
2,146772,151821
//Storyboard Layer 0 (Background)
//Storyboard Layer 1 (Fail)
//Storyboard Layer 2 (Pass)
//Storyboard Layer 3 (Foreground)
//Storyboard Sound Samples
//Background Colour Transformations
3,100,163,162,255

[TimingPoints]
190,425.531914893617,4,1,0,46,1,0
54645,-86.9565217391304,4,1,0,46,0,1
71676,-100,4,1,0,46,0,0
91995,-86.9565217391304,4,1,0,46,0,0
92101,-86.9565217391304,4,1,0,46,0,1
105612,-100,4,1,0,46,0,0
132952,-86.9565217391304,4,1,0,46,0,1
146569,-86.9565217391304,4,1,0,46,0,0
168697,-100,4,1,0,46,0,0
170399,-133.333333333333,4,1,0,46,0,0
170506,-133.333333333333,4,2,0,0,0,0
171995,-86.9565217391304,4,2,0,0,0,0
172101,-76.9230769230769,4,1,0,46,0,1
182314,512.821914893617,4,1,0,46,1,0
182826,588.235294117647,4,1,0,46,1,0
183365,-100,4,1,0,46,0,0
183414,631.578947368421,4,1,0,46,1,0
184045,759.49,4,1,0,46,1,0
184804,800,4,1,0,46,1,0
185604,869.569999999999,4,1,0,46,1,0
187343,1016.94275862069,4,1,0,46,1,0
191410,-100,4,2,0,5,0,0

[Colours]
Combo1 : 255,150,0
Combo2 : 253,210,81
Combo3 : 215,150,30
Combo4 : 200,4,4

[HitObjects]
68,112,13807,5,4
152,36,14232,1,8
201,143,14658,2,2,B|308:237,1,144,2|8
320,120,15509,1,6
184,344,16360,2,0,B|352:344,1,144
420,284,17211,5,6
432,180,17636,1,8
360,104,18062,1,2
256,96,18487,1,8
205,177,18913,2,2,B|198:217|202:256|256:285|309:256|313:217|306:177,2,216,2|2|8
112,152,20615,6,2,B|36:104|-56:168|-64:268|-28:360|92:380|160:312,1,432,2|8
244,328,22317,2,2,B|294:369|414:361|450:269|442:169|350:105|274:153,1,432,2|8
200,216,24019,5,6
168,120,24445,1,8
256,72,24870,1,2
344,120,25296,1,8
312,216,25721,6,4,B|20:216,1,288
52,120,26998,1,8
144,80,27424,5,6
256,248,28275,1,6
368,80,29126,1,6
256,304,30828,6,2,B|208:340|128:344|76:268|92:212,2,216,2|2|8
256,204,32530,2,2,B|304:168|384:164|436:240|420:296,2,216,2|2|8
168,156,34232,5,6
256,84,34658,1,8
344,156,35083,1,2
428,232,35509,1,8
344,308,35934,2,2,B|48:308,2,288,2|2|6
344,180,38062,21,8
252,88,38487,1,2
252,216,38913,1,0
320,252,39126,2,2,B|344:292|380:284|416:292|440:252,2,144
136,188,40615,5,8
52,288,41041,2,0,B|192:368,1,144,6|8
256,256,41892,2,0,B|381:184,1,144,2|8
460,288,42743,2,0,B|320:368,1,144,6|8
256,256,43594,2,0,B|130:184,1,144,2|8
128,104,44232,6,6,B|164:56|256:28|348:56|384:104,1,216,6|8
256,136,45296,1,2
216,224,45721,1,8
120,192,46147,2,2,B|116:256|160:324|220:360|256:304|292:360|352:324|396:256|392:192,1,432,2|8
368,96,47849,5,4
144,96,48700,1,4
368,96,49551,1,6
252,340,51253,6,0,B|208:272|116:272,1,144,4|8
176,196,51892,2,0,B|244:152|244:60,1,144,4|8
172,40,52530,1,8
82,164,52955,22,2,B|128:260|203:278|256:281|308:278|383:260|429:164,1,432
336,48,54658,5,6
176,48,55083,1,2
176,212,55509,1,2
336,212,55934,1,8
340,296,56147,2,2,B|288:332|204:356|136:312|104:264,1,248.400008143187
184,152,57211,1,2
256,16,57636,5,8
328,152,58062,2,2,B|396:240|308:324,1,165.600005428791,2|8
184,232,58913,2,2,B|116:144|204:60,1,165.600005428791,2|8
272,240,59764,6,2,B|229:342|113:308,1,165.600005428791,2|8
240,144,60615,2,2,B|282:41|398:75,1,165.600005428791,2|8
444,172,61466,6,2,B|372:220|356:248|256:280|156:248|140:220|68:172,1,414.000013571978
176,68,62955,1,6
336,68,63381,1,6
256,192,63807,1,0
324,240,64019,2,2,B|308:272|256:304|204:272|188:240,1,165.600005428791,2|8
332,160,64870,5,6
392,296,65296,1,8
256,360,65721,1,2
120,296,66147,1,8
194,161,66572,6,0,B|318:273,1,165.600005428791,6|2
318,161,67424,2,0,B|194:273,1,165.600005428791,2|8
148,168,68275,6,4,B|151:62|221:-30|354:-26|413:-1|459:62|475:117|479:147,1,496.800016286374,4|8
364,216,69977,6,4,B|361:322|291:414|158:410|99:385|53:322|37:267|33:237,1,496.800016286374,0|8
56,112,78062,5,8
128,4,78487,2,0,B|288:76,1,144,6|8
384,156,79338,2,0,B|224:228,1,144,6|8
184,256,79977,5,0
120,304,80190,2,2,B|40:264|48:224|28:192|48:160|40:120|120:80,1,288,2|6
256,164,81466,5,8
256,244,81679,1,0
332,232,81892,2,2,B|352:292|308:332|256:356|204:332|160:292|180:232,1,288
256,80,83168,1,8
400,156,83594,6,4,B|88:156,1,288
400,264,85296,5,6
112,264,86147,1,6
400,264,86998,1,6
260,44,88700,6,0,B|304:112|396:112,1,144,4|8
336,188,89339,2,0,B|268:232|268:324,1,144,4|8
340,344,89977,1,8
430,220,90402,22,2,B|384:124|309:106|256:103|204:106|129:124|83:220,1,432
176,336,92104,5,6
336,336,92529,1,2
336,172,92955,1,2
176,172,93381,1,8
172,88,93594,2,2,B|224:52|308:28|376:72|408:120,1,248.400008143187
328,232,94658,1,2
256,368,95083,5,8
184,232,95508,2,2,B|116:144|204:60,1,165.600005428791,2|8
328,152,96359,2,2,B|396:240|308:324,1,165.600005428791,2|8
240,144,97210,6,2,B|283:42|399:76,1,165.600005428791,2|8
272,240,98061,2,2,B|230:343|114:309,1,165.600005428791,2|8
68,212,98912,6,2,B|140:164|156:136|256:104|356:136|372:164|444:212,1,414.000013571978
336,316,100401,1,6
176,316,100827,1,6
256,192,101253,1,0
188,144,101465,2,2,B|204:112|256:80|308:112|324:144,1,165.600005428791,2|8
180,224,102316,5,6
120,88,102742,1,8
256,24,103167,1,2
392,88,103593,1,8
318,223,104018,6,0,B|194:111,1,165.600005428791,6|2
194,223,104870,2,0,B|318:111,1,165.600005428791,2|8
444,180,105721,5,4
384,284,106147,1,8
256,244,106572,2,2,B|256:112,2,108
256,324,107424,5,4
128,284,107849,1,8
200,192,108275,2,2,B|332:192,2,108
144,136,109126,6,0,B|176:60|256:32|336:60|368:136,1,288,4|2
256,192,110402,1,8
368,248,110828,2,0,B|336:324|256:352|176:324|144:248,1,288,4|2
124,80,112530,21,4
188,160,112955,1,8
148,244,113381,2,2,B|160:300|212:320|272:280,1,144,2|8
388,276,114232,5,4
324,196,114657,1,8
364,112,115083,2,2,B|352:56|300:36|240:76,1,144,2|8
152,112,115934,6,0,B|200:252,1,144,6|8
313,248,116785,2,0,B|360:112,1,144,6|8
456,192,117636,6,2,B|436:280|384:380|256:416|128:380|76:280|56:192,1,576,2|6
256,192,119445,12,4,121041
256,192,126147,12,4,127849
28,144,132955,6,2,B|136:140|144:248,2,165.600005428791
8,220,134019,1,0
120,312,134444,1,6
256,240,134870,2,2,B|300:168|352:172|400:240|464:184|468:136,1,248.400008143187
364,44,135934,5,8
256,120,136360,2,0,B|256:296,2,165.600005428791,6|8|2
148,44,137636,1,8
100,168,138062,5,6
176,276,138487,1,8
308,296,138913,1,2
440,272,139338,1,0
484,144,139764,6,2,B|376:140|368:248,2,165.600005428791
504,220,140828,1,0
392,312,141253,1,6
252,240,141679,2,2,B|208:168|156:172|108:240|44:184|40:136,1,248.400008143187
176,52,142743,5,0
288,124,143168,2,0,B|468:136,1,165.600005428791,2|8
339,216,144019,2,0,B|175:228,1,165.600005428791,2|8
56,307,144870,6,0,B|221:318,1,165.600005428791,2|8
256,192,145721,1,2
332,88,146147,1,8
256,88,146360,1,0
180,88,146572,1,6
20,272,153381,6,0,B|53:146|240:142|212:235|184:329|371:324|404:192,1,496.800016286374,4|8
492,112,155083,6,0,B|459:238|272:242|300:149|328:55|141:60|108:192,1,496.800016286374,4|8
128,316,156785,5,0
184,252,156998,2,2,B|440:332,2,248.400008143187
168,4,158913,5,8
256,144,159338,1,6
344,4,159764,1,8
372,168,160189,5,4
308,220,160402,2,2,B|248:280|120:268|64:228|12:120|16:40,1,414.000013571978,2|0
92,40,161679,1,6
256,156,162317,2,2,B|256:332,2,165.600005428791,2|2|8
360,76,163594,21,4
256,192,165296,5,4
152,76,166998,5,6
256,192,168700,12,4,170402
28,192,172104,21,2
120,72,172530,1,2
256,12,172955,1,2
256,160,173381,1,8
332,144,173594,2,2,B|346:188|332:221|287:250|262:247|236:243|192:272|177:306|192:350,1,280.799994978905
340,348,174658,1,0
452,248,175083,5,8
480,168,175296,1,0
444,92,175509,2,2,B|392:168|288:192|192:156|180:136,1,280.799994978905,2|0
140,80,176360,1,2
12,136,176785,5,8
64,268,177211,2,2,B|116:344|220:368|316:332|328:312,1,280.799994978905,2|0
368,256,178062,1,2
256,128,178487,1,8
248,296,178913,6,2,B|364:112,2,187.199996652603
180,332,179977,2,0,B|200:376|256:396|312:376|328:308,2,187.199996652603,0|6|2
160,108,181466,2,0,B|356:108,1,187.199996652603,4|8
444,108,182314,6,0,B|484:192|428:260,1,144,6|8
328,224,183414,2,2,B|172:224,1,144,2|8
64,260,184804,6,0,B|24:176|80:108,1,144,6|8
184,144,186473,2,2,B|340:144,1,144,2|8
256,192,188359,12,0,191410
