osu file format v9

[General]
AudioFilename: Meg & Dia - Here, Here And Here.mp3
AudioLeadIn: 0
PreviewTime: 67392
Countdown: 0
SampleSet: Normal
StackLeniency: 0.7
Mode: 0
LetterboxInBreaks: 0
EpilepsyWarning: 1

[Editor]
DistanceSpacing: 0
BeatDivisor: 2
GridSize: 4

[Metadata]
Title:Here, Here and Here
Artist:Meg & Dia
Creator:Larto
Version:Insane
Source:
Tags:meg and dia here here and here

[Difficulty]
HPDrainRate:7
CircleSize:4
OverallDifficulty:8
ApproachRate:8
SliderMultiplier:3.52
SliderTickRate:4

[Events]
//Background and Video events
0,0,"HereHereandHere.jpg"
//Break Periods
2,89639,99723
//Storyboard Layer 0 (Background)
//Storyboard Layer 1 (Fail)
//Storyboard Layer 2 (Pass)
//Storyboard Layer 3 (Foreground)
//Storyboard Sound Samples
//Background Colour Transformations
3,100,163,162,255

[TimingPoints]
129,689.655172413793,4,2,1,69,1,0
1163,689.655172413793,4,2,1,69,1,0
12112,-100,4,1,1,69,0,0
12284,-100,4,2,1,69,0,0
14914,-100,4,1,1,69,0,0
15000,-100,4,2,1,69,0,0
17672,-100,4,1,1,69,0,0
17758,-100,4,2,1,69,0,0
20431,-100,4,1,1,69,0,0
20517,-100,4,2,1,69,0,0
23190,-100,4,1,1,69,0,0
23276,-100,4,2,1,69,0,0
25948,-100,4,1,1,69,0,0
26034,-100,4,2,1,69,0,0
28707,-100,4,1,1,69,0,0
28793,-100,4,2,1,69,0,0
31465,-100,4,1,1,69,0,0
31552,-100,4,2,1,69,0,0
34224,-100,4,1,1,69,0,0
34310,-100,4,2,1,69,0,0
36983,-100,4,1,1,69,0,0
37069,-100,4,2,1,69,0,0
39741,-100,4,1,1,69,0,0
39827,-100,4,2,1,69,0,0
42500,-100,4,1,1,69,0,0
42586,-100,4,2,1,69,0,0
45129,-133.333333333333,4,2,1,69,0,0
45215,-133.333333333333,4,1,1,69,0,0
45388,-133.333333333333,4,2,1,69,0,0
47888,-133.333333333333,4,1,1,69,0,0
48233,-133.333333333333,4,2,1,69,0,0
50733,-133.333333333333,4,1,1,69,0,0
50905,-133.333333333333,4,2,1,69,0,0
53534,-133.333333333333,4,1,1,69,0,0
53621,-133.333333333333,4,2,1,69,0,0
55560,-133.333333333333,4,1,1,69,0,0
56422,-133.333333333333,4,2,1,69,0,0
59052,-133.333333333333,4,1,1,69,0,0
59138,-133.333333333333,4,2,1,69,0,0
61810,-133.333333333333,4,1,1,69,0,0
61896,-133.333333333333,4,2,1,69,0,0
64398,-100,4,1,1,69,0,0
64655,-100,4,2,1,69,0,0
67198,-166.666666666667,4,2,1,69,0,0
78233,-100,4,1,1,69,0,0
78405,-100,4,1,1,69,0,1
89440,-166.666666666667,4,1,1,69,0,0
100388,-166.666666666667,4,1,1,40,0,0
110819,-83.3333333333333,4,1,1,70,0,0
111508,-83.3333333333333,4,1,1,70,0,1
155474,-125,4,1,1,70,0,1
155646,-125,4,1,1,70,0,0
155819,-125,4,2,1,70,0,0
166336,-125,4,1,1,70,0,0
166680,-100,4,1,1,70,0,1
177543,-100,4,1,1,70,0,0
177715,-100,4,1,1,70,0,1
188577,-100,4,1,1,70,0,0
188750,-100,4,1,1,70,0,1
199612,-100,4,1,1,70,0,0
199784,-100,4,1,1,70,0,1
210646,-100,4,1,1,70,0,0
210819,-100,4,1,1,70,0,1
221853,-100,4,1,1,70,0,0

[Colours]
Combo1 : 255,123,4
Combo2 : 172,253,172
Combo3 : 199,199,254
Combo4 : 254,188,188
Combo5 : 255,221,170
Combo6 : 62,253,34
Combo7 : 35,40,254
Combo8 : 255,23,23

[HitObjects]
256,300,11163,53,2
163,139,11507,1,4
348,139,11852,1,0
472,228,12197,70,0,B|528:320|448:368|420:360,1,176,4|8
320,344,12714,1,0
256,280,12887,2,0,B|256:180,2,88,2|0|10
192,344,13404,1,0
136,276,13576,1,0
84,204,13749,2,0,B|164:176|184:100|156:28,1,176
252,44,14266,2,0,B|448:132,1,176,0|2
412,116,14956,5,4
256,200,15301,1,10
99,116,15645,1,2
172,168,15818,1,0
180,80,15990,1,10
72,192,16335,1,4
256,284,16680,1,10
440,192,17025,1,4
256,100,17370,1,0
180,148,17542,5,0
180,240,17714,2,0,B|140:312|52:324|0:292,2,176,4|10|2
256,192,18576,1,0
332,148,18749,1,10
500,192,19094,2,0,B|352:308,1,176,4|10
150,300,19783,2,0,B|12:192,1,176,4|2
32,104,20301,1,0
116,132,20473,6,0,B|224:160|272:64,3,176,4|8|2|8
396,248,21852,2,0,B|288:220|240:316,3,176,2|10|2|10
156,300,23059,69,0
96,232,23232,2,0,B|72:148|144:96|184:92,1,176,4|8
260,72,23749,1,0
340,112,23921,2,2,B|468:244,1,176,2|8
336,360,24611,2,0,B|256:296|176:360,1,176,4|8
49,238,25301,1,2
49,238,25645,2,0,B|172:112,1,176,2|4
232,48,26163,5,0
320,64,26335,2,2,B|420:128|348:236,1,176,10|2
300,308,26852,1,0
192,320,27025,2,2,B|92:256|164:148,1,176,10|4
328,192,27714,1,8
256,360,28059,1,4
184,192,28404,1,0
256,32,28749,5,4
320,88,28921,1,0
400,48,29094,2,0,B|488:128|400:232,1,176,10|2
344,256,29611,1,0
288,192,29783,1,10
120,232,30128,2,0,B|80:128|176:56,1,176,4|10
325,32,30818,2,0,B|365:136|269:208,1,176,0|2
176,320,31507,5,4
256,280,31680,1,2
336,320,31852,1,8
344,144,32197,2,2,B|168:144,1,176,2|10
304,64,32887,1,4
304,232,33232,1,8
456,144,33576,2,2,B|512:232|448:320,1,176,2|8
264,348,34266,70,0,B|160:332|144:220,1,176,4|10
132,144,34783,1,0
92,64,34956,2,0,B|4:116,2,88,2|0|10
284,48,35645,2,0,B|364:116|312:204,1,176,4|10
228,336,36335,2,0,B|148:268|200:180,1,176,4|2
348,304,37025,5,4
464,148,37370,1,8
316,28,37714,1,2
256,104,37887,1,0
196,28,38059,1,10
32,132,38404,2,0,B|200:192,1,176,4|8
480,132,39094,2,0,B|312:192,1,176,2|0
184,332,39783,6,0,B|72:292|60:180|96:116,1,264,4|0
132,36,40473,1,2
192,120,40645,1,0
244,40,40818,1,10
440,72,41163,2,0,B|520:160|440:228,1,176,4|2
308,364,41852,2,0,B|228:276|308:208,1,176,4|2
168,76,42542,5,4
84,124,42714,1,0
76,220,42887,1,8
256,288,43232,2,0,B|288:204|388:196|420:216,1,176,2|8
352,20,43921,2,0,B|300:120|180:72,2,176,2|8|2
428,200,44956,69,0
348,180,45128,1,0
276,216,45301,2,0,B|220:256|152:264|100:228|72:180|72:136,1,263.999992132187,4|8
188,128,46335,1,2
104,44,46680,2,0,B|160:4|228:-4|280:32|308:80|308:128,1,263.999992132187,0|8
188,128,47714,5,2
276,216,48059,2,0,B|220:256|152:264|100:228|72:180|72:132,1,263.999992132187,4|8
188,128,49094,1,2
104,44,49439,2,0,B|160:4|228:-4|280:32|308:80|308:128,1,263.999992132187,0|8
188,128,50473,1,0
76,220,50818,6,0,B|96:296|172:304,1,131.999996066094,4|0
256,208,51507,1,8
360,108,51852,1,2
436,220,52197,2,0,B|416:296|340:304,1,131.999996066094,0|0
256,208,52887,1,8
152,108,53232,1,0
24,176,53576,6,0,B|140:248,1,131.999996066094,6|0
132,332,54094,2,0,B|248:260,1,131.999996066094,2|2
332,268,54611,2,0,B|260:152,1,131.999996066094,2|8
168,32,55301,1,2
344,32,55645,1,4
344,32,56335,70,0,B|404:76|396:136|376:164,1,131.999996066094,4|0
332,268,57025,1,8
232,184,57370,1,2
104,156,57714,2,0,B|48:200|64:284,1,131.999996066094,0|0
190,302,58404,2,0,B|246:258|230:174,1,131.999996066094,8|2
256,36,59094,5,4
332,128,59439,1,0
456,132,59783,2,0,B|504:192|456:252,1,131.999996066094,8|0
332,256,60473,1,2
256,352,60818,1,0
256,220,61163,1,14
256,40,61680,5,0
256,40,61852,2,0,B|168:44|132:120,1,131.999996066094,4|0
88,200,62542,1,8
148,312,62887,2,0,B|184:368|256:412|328:368|364:312,1,263.999992132187,2|0
256,256,63921,1,8
472,76,64611,6,0,B|380:76,1,88,6|8
296,76,64956,1,0
332,156,65128,2,0,B|240:156,1,88,2|8
156,156,65473,1,0
104,228,65645,2,0,B|196:228,1,88,0|8
280,228,65990,1,0
244,308,66163,2,0,B|336:308,1,88,2|8
420,308,66507,1,0
468,232,66680,2,10,B|456:140|364:88,1,176,2|10
256,36,67370,69,4
136,308,68059,2,0,B|164:224|258:185|348:224|376:308,1,316.800007553101,2|0
256,344,69439,1,2
52,88,71335,5,0
120,136,71507,2,0,B|220:96,1,105.6000025177,2|0
296,96,72025,2,0,B|394:135,1,105.6000025177,2|0
206,272,72887,6,0,B|256:303|305:272,1,105.6000025177,4|0
356,160,73576,2,0,B|256:98|156:160,1,211.200005035401,2|0
204,272,74611,1,0
308,272,74956,1,2
256,192,75645,12,0,77370
256,76,77714,5,2
176,292,78404,6,0,B|256:356|336:292,1,176,4|0
256,248,78921,1,0
184,212,79094,2,0,B|124:152|124:32|204:-8|316:-8|356:80,1,352,6|0
256,104,79956,1,8
256,104,80128,1,0
416,240,80473,2,0,B|256:368|96:240,1,352,6|0
184,104,81507,5,0
328,148,81852,1,8
184,192,82197,1,0
256,208,82370,1,0
328,224,82542,2,0,B|344:288|428:304|476:244,1,176,6|0
480,176,83059,2,0,B|464:112|380:96|332:156,1,176,6|0
404,200,83576,1,0
336,292,83921,6,0,B|256:356|176:292,1,176,4|0
256,248,84439,1,0
328,212,84611,2,0,B|388:152|388:32|308:-8|196:-8|156:80,1,352,6|0
256,104,85473,1,8
256,104,85645,1,0
96,240,85990,2,0,B|256:368|416:240,1,352,6|4
392,76,87025,5,0
120,76,87370,1,8
272,24,87714,1,0
316,92,87887,1,8
280,160,88059,1,0
356,276,88404,1,0
240,360,88749,1,8
196,292,88921,1,0
232,224,89094,1,0
256,64,89439,1,4
48,96,100473,54,0,B|87:128|129:135|162:125|191:76|201:47|227:28|269:34|301:50|327:76,1,316.800007553101,4|0
464,192,101852,2,0,B|425:224|382:230|350:221|321:172|311:143|285:123|243:130|210:146|184:172,1,316.800007553101,6|0
148,280,103232,2,0,B|152:368|256:412|360:368|364:280,1,316.800007553101,6|0
364,104,104611,2,0,B|360:16|256:-28|152:16|148:104,1,316.800007553101,6|0
256,192,105990,1,6
256,192,108749,12,0,110818
64,72,111507,6,0,B|144:36|220:80|224:156,1,211.200005035401,6|0
376,0,112197,2,0,B|412:80|368:156|292:160,1,211.200005035401,8|0
448,312,112887,2,0,B|368:348|292:304|288:228,1,211.200005035401,6|0
136,384,113576,2,0,B|100:304|144:228|220:224,1,211.200005035401,8|0
288,180,114094,1,0
252,104,114266,5,6
32,188,114611,1,0
256,280,114956,1,6
480,196,115301,1,0
196,212,115645,2,0,B|136:280|159:369|256:432|353:369|376:280|316:212,1,422.400010070801,6|4
256,24,116680,5,8
216,104,116852,1,8
140,64,117025,2,0,B|40:48|-96:192|40:336|140:320,1,422.400010070801,6|8
256,188,118059,1,0
372,320,118404,2,0,B|472:336|608:192|472:48|372:64,1,422.400010070801,6|8
256,168,119439,5,0
256,168,119611,1,0
256,168,119783,2,0,B|152:156|120:84|116:4,1,211.200005035401,6|0
256,256,120473,2,0,B|360:244|392:172|396:92,1,211.200005035401,6|0
128,292,121163,2,2,B|172:368|256:404|340:368|384:292,1,316.800007553101,2|0
336,224,121852,1,8
256,188,122025,1,0
256,104,122197,1,0
256,20,122370,1,0
336,88,122542,70,0,B|440:160|360:270|398:324|256:380|115:324|152:270|72:160|176:88,1,633.600015106202,6|0
312,184,123921,1,0
256,240,124094,1,8
200,184,124266,1,0
352,280,124611,2,0,B|256:358|160:280,1,211.200005035401,12|0
4,216,125301,6,0,B|32:32|224:16,1,316.800007553101,4|0
296,16,125990,2,0,B|480:36|508:216,1,316.800007553101,8|0
420,192,126680,1,4
256,304,127025,1,0
92,192,127370,1,8
256,80,127714,1,0
256,164,127887,1,0
200,228,128059,6,0,B|124:328|16:260,1,211.200005035401,6|0
312,228,128749,2,8,B|388:328|496:260,1,211.200005035401,8|0
324,112,129439,1,0
256,164,129611,1,8
188,112,129783,1,0
328,204,130128,2,0,B|324:264|256:292|188:264|184:204,1,211.200005035401,8|0
248,377,130818,5,6
175,362,130990,1,8
114,320,131163,1,0
74,258,131335,1,0
62,185,131507,1,8
79,113,131680,1,0
123,54,131852,1,8
187,16,132025,1,8
264,8,132197,1,4
336,22,132370,1,8
397,64,132542,1,0
437,127,132714,1,0
449,199,132887,1,8
432,271,133059,1,0
388,331,133232,1,8
324,368,133404,1,8
256,320,133576,70,0,B|172:216|256:128,1,211.200005035401,6|0
128,192,134266,2,0,B|232:108|320:192,1,211.200005035401,8|0
256,64,134956,2,0,B|340:168|256:256,1,211.200005035401,6|0
384,192,135645,2,0,B|280:276|192:192,1,211.200005035401,8|0
144,124,136163,1,0
164,44,136335,5,6
72,192,136680,1,0
164,340,137025,1,8
256,192,137370,1,0
340,44,137714,1,6
440,192,138059,1,0
340,340,138404,1,8
256,192,138749,1,0
196,44,139094,6,0,B|0:122,1,211.200005035401,6|0
158,231,139783,2,0,B|353:152,1,211.200005035401,8|0
511,261,140473,2,0,B|316:340,1,211.200005035401,6|0
158,231,141163,2,0,B|353:152,1,211.200005035401,8|0
256,40,141852,5,6
96,192,142197,1,0
256,344,142542,1,8
416,192,142887,1,2
256,40,143232,2,0,B|221:40|176:61|152:92|118:132|123:240|213:254|245:251|287:251|314:235|335:201|340:190|348:174,1,422.400010070801,6|8
256,40,144266,1,0
47,110,144611,70,0,B|-12:120|-21:178|23:205|57:233|98:228|98:192|98:192|98:157|57:151|23:178|-21:205|-12:263|47:274,1,422.400010070801,6|8
256,340,145645,1,0
465,274,145990,2,0,B|524:264|533:206|489:179|455:151|414:156|414:192|414:192|414:227|455:233|489:206|533:179|524:121|465:110,1,422.400010070801,6|8
300,48,147025,1,0
133,56,147370,6,0,B|224:82|203:141|203:253|106:176|9:98|9:210|-11:269|80:296,1,422.400010070801,6|8
256,320,148404,1,0
432,296,148749,2,0,B|523:269|502:210|502:98|405:176|308:253|308:141|287:82|378:56,1,422.400010070801,6|8
136,53,149783,5,8
136,53,149956,1,8
136,53,150128,2,0,B|64:61|-16:125|-16:265|16:365|116:413|256:450|456:257|376:93|256:93|256:93|136:93|56:257|256:450|396:413|496:365|528:265|528:125|448:61|376:53,1,1689.6000402832,6|0
304,28,153059,1,8
208,28,153232,1,0
256,188,153576,1,8
112,68,153921,5,8
56,144,154094,1,8
60,240,154266,1,0
120,316,154439,1,0
212,336,154611,1,0
300,336,154783,1,0
392,316,154956,1,0
452,240,155128,1,0
456,144,155301,1,0
400,68,155473,1,0
304,64,155645,6,0,B|387:137|332:236|256:260|180:236|136:148|206:67,1,281.6,4|2
256,140,157370,1,0
256,140,157714,1,2
408,196,159611,5,0
336,144,159783,2,0,B|316:44|200:64|208:92,1,140.8,2|0
176,144,160301,1,2
176,144,160645,2,0,B|196:244|312:224|304:196,1,140.8,2|0
256,144,161163,5,4
100,160,161507,1,0
136,280,161852,2,2,B|212:344|268:352|344:320|392:288|440:236|436:136,1,422.4
256,192,163232,1,2
256,192,163921,12,0,165645
256,68,165990,5,2
256,296,166680,6,0,B|160:340|64:296|24:204,1,264,4|0
64,136,167370,2,0,B|160:92|256:136|296:228,1,264,6|0
344,284,168059,1,0
344,284,168232,1,0
344,284,168404,1,8
168,284,168749,2,0,B|344:284,1,176,6|0
452,48,169439,6,0,B|424:140|300:140,1,176,4|0
60,48,170128,2,0,B|88:140|212:140,1,176,2|0
256,216,170645,1,0
336,240,170818,2,0,B|384:148|304:83,1,176,6|0
209,83,171335,1,2
208,83,171680,2,0,B|128:148|176:240,1,176,0|0
256,296,172197,6,0,B|352:340|448:296|488:204,1,264,4|0
448,136,172887,2,0,B|352:92|256:136|216:228,1,264,6|0
168,284,173576,1,0
168,284,173749,1,0
168,284,173921,1,2
344,284,174266,2,0,B|168:284,1,176,6|0
12,140,174956,5,6
67,71,175128,1,0
148,100,175301,1,0
308,176,175645,1,8
256,248,175818,1,0
204,176,175990,1,0
364,100,176335,1,6
445,71,176508,1,0
500,140,176680,1,0
336,284,177025,2,0,B|256:348|176:284,1,176,6|0
36,100,177714,69,6
248,188,178059,1,0
124,20,178404,1,8
144,236,178749,2,0,B|180:288|256:324|332:288|368:236,1,264,6|0
420,168,179439,1,2
352,96,179611,1,0
256,136,179783,2,2,B|256:19,2,117.333333333333,2|2|0
220,212,180473,5,4
368,236,180818,1,0
368,236,180990,2,0,B|332:288|256:324|180:288|144:236,1,264,2|0
76,168,181680,1,0
40,80,181852,2,0,B|216:96,1,176,2|0
296,96,182370,2,0,B|472:80,1,176,2|0
471,80,182887,1,0
444,228,183232,5,6
256,172,183577,1,0
404,300,183921,2,0,B|355:369|254:417|153:369|104:300,1,352,6|0
68,228,184783,1,0
60,148,184956,1,2
216,144,185301,2,0,B|196:200|256:236|316:200|296:144,1,176,6|0
500,140,185990,5,6
445,71,186162,1,0
364,100,186335,1,0
204,176,186679,1,8
256,248,186852,1,0
308,176,187024,1,0
148,100,187369,1,6
67,71,187542,1,0
12,140,187714,1,0
176,284,188059,2,0,B|256:348|336:284,1,176,6|0
256,124,188749,69,6
108,220,189094,1,0
256,316,189439,1,8
404,220,189783,2,0,B|416:120|352:36|256:48,1,264,2|0
184,88,190473,1,2
256,248,190818,2,0,B|256:128,2,117.333333333333,2|0|0
256,336,191507,6,0,B|348:312|368:248|332:152,1,176,6|0
304,136,192025,2,2,B|192:107|133:194|139:295|237:336,1,264,2|0
100,328,192714,1,0
176,376,192887,1,6
336,376,193232,1,0
412,328,193405,1,2
256,268,193749,1,0
256,60,194266,5,6
356,268,194611,1,0
156,268,194956,2,0,B|141:171|256:80|371:171|356:268,1,352,2|0
296,332,195818,1,0
256,252,195990,1,2
88,176,196335,2,0,B|119:89|219:69,1,176,2|0
376,20,197025,5,4
452,60,197197,1,0
484,140,197370,1,0
500,224,197542,1,0
488,308,197714,1,8
424,364,197887,1,0
340,380,198059,1,0
252,384,198232,1,8
168,372,198404,1,0
116,304,198576,1,0
104,220,198749,1,8
136,140,198921,1,0
216,108,199094,1,8
300,120,199266,1,8
332,200,199439,1,8
304,280,199611,1,8
256,212,199783,69,6
256,28,200128,1,0
412,124,200473,1,0
381,309,200818,2,0,B|255:382|129:309,1,264,6|0
56,260,201507,1,8
212,192,201852,2,0,B|224:224|256:236|288:224|300:192,2,117.333333333333,6|0|0
256,116,202542,5,6
404,208,202887,1,0
352,276,203059,2,2,B|332:344|256:392|180:344|160:276,1,264,2|0
192,196,203749,1,0
256,256,203921,1,6
84,296,204266,1,0
100,208,204439,2,2,B|113:89|204:41|315:48|343:121,1,264,2|0
336,240,205301,5,6
176,240,205645,1,0
372,176,205990,2,2,B|368:84|256:4|144:84|140:176,1,352,2|2
88,240,206852,1,0
60,164,207025,1,0
256,196,207370,2,2,B|256:12,1,176,2|0
136,20,208059,5,4
60,60,208231,1,0
28,140,208404,1,0
12,224,208576,1,0
24,308,208748,1,8
88,364,208921,1,0
172,380,209093,1,0
260,384,209266,1,8
344,372,209438,1,0
396,304,209610,1,0
408,220,209783,1,8
376,140,209955,1,0
296,108,210128,1,8
212,120,210300,1,8
180,200,210473,1,8
208,280,210645,1,8
256,212,210817,69,6
140,376,211163,1,0
372,376,211507,1,8
352,200,211852,2,2,B|376:104|256:12|136:104|160:200,1,352,2|0
184,276,212714,1,0
260,240,212887,2,0,B|376:300,2,117.333333333333,2|0|0
172,180,213576,5,6
332,116,213921,1,0
332,116,214094,2,2,B|256:12|120:36|48:88|20:180,1,352,2|0
76,212,214956,2,0,B|120:296|212:260|228:216,1,176,6|0
292,264,215473,2,0,B|301:232|393:196|437:280,1,176,2|0
359,305,215990,1,0
256,84,216335,5,6
140,192,216680,1,0
176,348,217025,2,0,B|256:284|336:348,1,176,2|0
372,192,217714,1,6
316,136,217887,1,0
256,84,218059,1,0
168,264,218404,2,0,B|344:264,1,176,2|0
256,84,219094,1,4
256,192,219266,12,4,220473
256,192,220645,12,4,221852
