osu file format v9

[General]
AudioFilename: Meg & Dia - Bored Of Your Love.mp3
AudioLeadIn: 0
PreviewTime: 25856
Countdown: 0
SampleSet: Normal
StackLeniency: 0.7
Mode: 0
LetterboxInBreaks: 0

[Editor]
Bookmarks: 35592
DistanceSpacing: 1.2
BeatDivisor: 4
GridSize: 4

[Metadata]
Title:Bored of Your Love
Artist:Meg & Dia
Creator:Larto
Version:Hard
Source:
Tags:meg and dia here, here and here here and here tom higgenson plain white ts plain white t's

[Difficulty]
HPDrainRate:5
CircleSize:4
OverallDifficulty:6
ApproachRate:6
SliderMultiplier:1.6
SliderTickRate:1

[Events]
//Background and Video events
0,0,"wallpaper-696758.jpg"
//Break Periods
2,35996,40422
2,105726,112989
//Storyboard Layer 0 (Background)
//Storyboard Layer 1 (Fail)
//Storyboard Layer 2 (Pass)
//Storyboard Layer 3 (Foreground)
//Storyboard Sound Samples
//Background Colour Transformations
3,100,163,162,255

[TimingPoints]
121,405.405405405405,4,1,0,63,1,0
31614,-133.333333333333,4,1,0,63,0,0
32560,-100,4,1,0,63,0,0
100661,-100,4,1,0,63,0,1
101370,-100,4,1,0,63,0,0
101472,-100,4,1,0,63,0,1
102181,-100,4,1,0,63,0,0
102283,-100,4,1,0,63,0,1
105526,-100,4,1,0,63,0,0
128026,-142.857142857143,4,2,0,63,0,0
130661,-142.857142857143,4,2,0,5,0,0
130762,-117.647058823529,4,2,0,63,0,0
133904,-117.647058823529,4,2,0,5,0,0
134039,-86.9565217391304,4,1,0,63,0,0
134715,-86.9565217391304,4,1,0,63,0,1
135256,-86.9565217391304,4,1,0,63,0,0
135526,-86.9565217391304,4,1,0,63,0,1
136066,-86.9565217391304,4,1,0,63,0,0
136337,-86.9565217391304,4,1,0,63,0,1
136877,-86.9565217391304,4,1,0,63,0,0
137148,-86.9565217391304,4,1,0,63,0,1
137553,-86.9565217391304,4,1,0,63,0,0
137857,-100,4,1,0,63,0,0
137958,-100,4,1,0,63,0,1
157418,-153.846153846154,4,1,0,63,0,0
157553,-153.846153846154,4,2,0,63,0,0
163904,428.571428571429,4,2,0,63,1,0
163904,-153.846153846154,4,2,0,63,0,0
165618,428.571428571429,4,2,0,63,1,0
165618,-153.846153846154,4,2,0,63,0,0
166475,499.998461538462,4,2,0,63,1,0
166475,-153.846153846154,4,2,0,63,0,0
167474,499.998461538462,4,2,0,63,1,0

[Colours]
Combo1 : 233,100,240
Combo2 : 254,90,90
Combo3 : 191,13,27
Combo4 : 242,56,2
Combo5 : 0,0,255
Combo6 : 67,189,235
Combo7 : 82,67,220
Combo8 : 216,169,243

[HitObjects]
256,88,5391,5,0
192,252,5796,1,4
256,312,5999,1,0
320,252,6202,1,0
160,328,6607,2,0,B|76:324|40:268|40:188|40:208,1,160,4|0
44,144,7215,2,0,B|112:148|156:100|172:32,1,160
240,56,7823,1,0
368,156,8229,6,0,B|340:336,1,160,4|0
272,364,8837,2,0,B|272:288|200:248|140:256,1,160
92,248,9445,5,0
32,200,9648,1,0
28,120,9850,2,0,B|28:64|72:20|132:20,1,160,4|0
292,88,10661,2,0,B|292:144|248:188|188:188,1,160,8|0
12,200,11472,2,0,B|8:280|56:340|144:356|192:340|236:308|252:284,1,320,6|8
380,188,12688,85,0
240,112,13093,1,4
112,208,13499,1,0
140,284,13702,2,0,B|220:296|296:268|316:132,1,240
424,44,14715,6,0,B|480:208,1,160,4|0
396,196,15323,2,0,B|452:360,2,160
352,128,16337,6,0,B|296:180|228:160|180:124,1,160,4|0
160,256,17148,2,0,B|216:204|284:224|332:260,1,160,8|0
336,312,17756,1,0
256,320,17958,2,0,B|204:264|224:196|260:148,1,160,4|0
128,128,18769,2,0,B|180:184|160:252|124:300,1,160,8|0
72,304,19377,1,0
24,244,19580,86,0,B|64:184|16:128,2,106.666666666667,6|0|0
132,236,20391,2,0,B|92:296|140:352,2,106.666666666667,6|0|0
224,288,21202,2,2,B|332:328|440:280|472:160|440:96,2,320,2|2|4
188,132,23229,5,0
324,132,23634,1,8
252,276,24039,1,0
172,288,24242,2,0,B|104:304|40:256|24:192|48:124|64:104,1,240
180,68,25256,1,4
288,152,25661,1,0
444,128,26066,6,0,B|492:208|452:280|400:296|420:296,1,160,6|0
360,328,26675,2,0,B|287:208|344:124|384:88,1,240,6|0
464,24,27688,86,0,B|376:52|284:8,1,160,6|0
304,96,28296,2,0,B|172:54|33:120,1,240,2|0
28,184,29107,5,0
52,260,29310,2,0,B|76:328|160:344,2,106.666666666667,6|0|0
160,256,30120,2,0,B|184:188|268:172,2,106.666666666667,6|0|0
268,268,30931,2,0,B|292:336|376:352,2,106.666666666667,6|0|0
356,248,31742,2,2,B|440:208|440:96|356:56,1,239.999992847443,2|0
272,40,32756,6,2,B|228:96|147:77|123:53,1,160,2|0
40,64,33364,1,2
104,192,33769,1,0
36,340,34175,1,4
208,296,34580,85,0
376,344,34985,2,0,B|428:340|472:288|448:188|392:168|348:168,1,240,8|0
284,148,35796,1,4
256,40,41472,37,4
108,84,41877,1,0
192,240,42283,2,0,B|212:140|288:120|308:116,1,160
376,104,42891,2,0,B|368:172|400:244|520:272,1,240
504,184,43702,5,0
504,184,43904,2,0,B|272:300,2,240,4|0|0
452,112,45323,5,0
364,96,45526,2,0,B|324:140|264:148|204:120,1,160,4|0
140,244,46337,2,0,B|180:200|240:192|300:220,1,160,8|0
256,284,46945,1,0
184,332,47148,2,0,B|92:336|32:272|20:192|56:128|104:96,1,320,4|2
244,24,48364,85,8
288,100,48566,1,0
368,68,48769,2,0,B|432:112|428:180|396:220|368:236|316:240,2,240,4|0|0
292,112,50188,5,0
212,152,50391,2,0,B|20:152,1,160,4|0
48,240,50999,2,0,B|240:240,1,160
296,240,51607,1,8
376,208,51810,1,0
448,160,52012,6,0,B|448:104|408:60|344:60,1,160,4|0
172,44,52823,2,0,B|172:100|132:144|68:144,1,160,8|0
4,192,53431,1,0
72,240,53634,2,0,B|135:240|175:284|175:340,1,160,4|0
352,348,54445,2,0,B|420:304|432:240|400:184,1,160,8|0
372,136,55053,1,0
316,68,55256,86,0,B|196:100,2,106.666666666667,6|0|0
152,195,56066,2,0,B|256:168,2,106.666666666667,6|0|0
359,224,56877,2,0,B|256:251,2,106.666666666667,6|0|0
192,351,57688,2,0,B|296:324,2,106.666666666667,6|0|0
412,308,58499,6,0,B|496:288|528:192|468:120|424:100,1,240,4|0
392,64,59310,2,0,B|216:44,1,160,8|0
272,128,59918,2,0,B|300:192|256:264|208:276,1,160
152,328,60526,1,0
40,192,60931,1,4
152,56,61337,5,0
208,124,61539,1,0
260,52,61742,2,0,B|360:64|380:168,1,160,6|0
354,229,62350,2,0,B|324:284|256:308|187:284|156:229,1,240,0|8
100,160,63161,85,0
124,68,63364,2,0,B|168:152|268:140,1,160,6|0
256,52,63972,2,0,B|399:34|472:172,1,240,0|8
476,236,64783,5,0
396,272,64985,2,0,B|276:272,2,106.666666666667,6|0|0
304,200,65796,2,0,B|184:200,2,106.666666666667,8|0|0
208,272,66607,2,0,B|101:272,2,106.666666666667,6|0|0
112,200,67418,2,0,B|-8:200,2,106.666666666667,8|0|0
80,100,68229,6,0,B|116:28|248:0|324:40,1,240,4|0
256,96,69039,1,8
164,228,69445,1,0
348,228,69850,86,0,B|408:248|464:200|452:128,1,160,6|0
404,80,70458,1,0
376,156,70661,2,0,B|316:136|260:184|272:256,1,160,4|0
140,328,71472,2,0,B|72:276|36:192|72:108|140:56,1,320,6|8
256,108,72688,1,0
372,56,73093,2,0,B|440:108|476:192|440:276|372:328,1,320,6|8
256,276,74310,1,0
180,256,74512,69,0
136,188,74715,2,0,B|200:168|216:104|196:44,1,160,6|0
64,140,75526,54,0,B|0:160|-16:224|4:284,1,160,6|0
76,292,76134,69,0
156,304,76337,2,0,B|220:304|280:264|272:180,1,160,6|0
340,76,77148,54,0,B|412:100|444:164|412:236|364:268,1,240,6|0
308,320,77958,70,0,B|180:320,2,106.666666666667,6|0|0
256,244,78769,2,0,B|165:153,2,106.666666666667,6|0|0
256,140,79580,2,0,B|346:230,2,106.666666666667,6|0|0
360,124,80391,2,2,B|360:24|256:-4|152:24|152:124,1,320,2|0
92,176,81404,86,2,B|92:256|144:308|220:324|264:304,1,240
336,172,82418,1,0
176,172,82823,1,4
196,12,83229,1,2
256,68,83431,1,0
316,12,83634,2,2,B|376:24|420:88|424:152,1,160
380,280,84445,1,6
256,192,84546,12,4,87688
256,192,87789,12,8,90120
64,76,90729,5,0
112,140,90931,2,0,B|160:92|232:96|276:128,1,160,4|0
320,168,91539,2,0,B|368:216|440:212|484:180,2,160
256,216,92553,2,0,B|232:276|188:304|108:292,1,160,4|0
52,300,93161,1,2
104,148,93566,1,0
256,104,93972,69,0
324,156,94175,2,0,B|300:192|256:200|212:192|188:156,1,160
188,56,94783,2,0,B|212:20|256:12|300:20|324:56,2,160
124,104,95796,1,4
212,240,96202,1,0
284,272,96404,2,0,B|344:296|412:256|416:200,2,160
216,316,97418,54,0,B|160:336|108:312|88:268|88:224,1,160,4|0
80,172,98026,2,0,B|256:172,2,160
100,96,99039,1,6
216,4,99445,1,0
296,4,99648,1,6
256,192,100053,1,2
412,96,100458,1,0
480,40,100661,69,6
32,40,101472,1,6
256,360,102283,1,6
256,192,102384,12,4,105526
256,116,114039,53,0
180,260,114445,1,4
332,260,114850,1,8
412,252,115053,1,0
468,196,115256,2,0,B|480:124|444:76|392:60|368:64,1,160,4|0
320,48,115864,2,0,B|284:96|204:96|160:64,1,160
104,32,116472,5,8
24,168,116877,2,0,B|272:252,2,240,4|0|8
24,248,118296,1,0
76,308,118499,6,0,B|176:292|224:360,1,160,4|0
436,308,119310,2,0,B|336:323|292:260,1,160,8|0
256,184,119918,1,0
256,104,120120,2,0,B|92:140,1,160,4|0
256,104,120931,2,0,B|420:140,1,160,6|8
452,212,121539,37,0
388,260,121742,2,0,B|344:208|260:208|224:236,1,160,4|0
172,268,122350,2,0,B|24:48,1,240
116,40,123161,5,0
160,112,123364,2,0,B|252:248,1,160,4|0
296,308,123972,2,0,B|352:336|428:304|452:240|432:176|404:160,1,240
328,40,124985,5,4
184,40,125391,1,0
160,120,125593,1,0
180,200,125796,2,0,B|256:244|332:200,1,160,8|0
472,276,126607,2,0,B|424:360|324:356,1,160,4|0
169,355,127418,2,0,B|84:356|40:276,1,160,8|0
84,172,128229,86,0,B|128:184|176:168,2,74.6666648864746,6|0|0
256,192,129039,12,0,130661
441,170,131472,6,0,B|393:183|342:166,2,90.6666628837587,6|0|0
256,192,132283,12,0,133904
191,228,134715,6,0,B|158:271|119:274|73:249|55:216,2,122.666670687993,6|2|0
319,229,135526,2,0,B|373:236|395:268|396:321|377:353,2,122.666670687993,6|2|0
256,118,136337,2,0,B|235:68|252:32|297:5|334:5,2,122.666670687993,6|2|0
256,240,137148,1,6
80,288,137553,53,8
132,220,137756,1,0
124,140,137958,2,0,B|192:152|232:104|240:56|228:32,1,160,6|0
312,44,138566,2,0,B|296:136|332:204|432:236,1,240
484,184,139377,5,0
416,140,139580,2,0,B|264:216,1,160,6|0
204,252,140188,2,0,B|196:180|152:140|96:124,1,160
40,104,140796,101,0
48,184,140999,1,0
60,264,141202,2,0,B|172:308,1,106.666666666667,6|0
256,340,141742,1,0
256,232,142012,2,0,B|368:276,1,106.666666666667,6|0
452,308,142552,1,0
452,200,142823,2,0,B|340:156,1,106.666666666667,6|0
256,124,143363,1,0
160,160,143634,2,0,B|60:199,2,106.666666666667,6|0|0
256,124,144445,6,0,B|228:208|272:272|348:292|400:276,1,240,4|0
456,268,145256,1,8
388,124,145661,1,0
256,32,146066,1,4
124,124,146472,1,2
188,176,146675,1,0
252,228,146877,2,2,B|336:268|424:224,1,160,2|0
404,72,147688,102,0,B|368:28|256:4|144:28|108:72,1,320,6|8
48,192,148904,1,0
108,312,149310,2,0,B|144:356|256:380|368:356|404:312,1,320,6|8
464,192,150526,5,2
400,148,150729,1,0
324,160,150931,2,2,B|268:192|204:168|184:100,1,160,2|0
268,100,151539,2,0,B|236:192|124:208|56:176,1,240,2|0
56,104,152350,101,0
136,112,152553,2,0,B|152:264|304:284,2,240,6|2|0
176,44,153972,1,0
256,60,154175,6,0,B|396:92,1,106.666666666667,6|0
356,192,154715,1,0
256,152,154985,2,0,B|116:184,1,106.666666666667,6|0
156,284,155525,1,0
252,332,155796,2,0,B|252:216,2,106.666666666667,6|0|0
360,344,156607,2,2,B|440:360|500:324|520:256|520:188|460:116,1,320,2|4
360,36,157823,101,0
256,120,158229,1,2
152,36,158634,1,0
156,180,159039,2,2,B|256:232|356:180,2,207.99999628067,2|2|6
256,192,160762,12,2,163904
256,192,166046,5,2
316,136,166475,2,2,B|356:192|344:260|264:292|212:260,1,207.99999628067,2|6
