osu file format v9

[General]
AudioFilename: 06 Black Wedding.mp3
AudioLeadIn: 0
PreviewTime: 40611
Countdown: 0
SampleSet: Normal
StackLeniency: 0.6
Mode: 0
LetterboxInBreaks: 0

[Editor]
Bookmarks: 37767,40157,42163,44657,47977,54967,75177,81861,83077,86367,91497,109947,126627
DistanceSpacing: 1.2
BeatDivisor: 2
GridSize: 4

[Metadata]
Title:Black Wedding
Artist:Meg & Dia
Creator:Larto
Version:Easy
Source:
Tags:meg and dia here, here and here here and here

[Difficulty]
HPDrainRate:1
CircleSize:3
OverallDifficulty:2
ApproachRate:2
SliderMultiplier:0.96
SliderTickRate:1

[Events]
//Background and Video events
0,0,"BlackWedding.jpg"
Video,-600,"videoplayback.avi"
//Break Periods
2,68736,72740
2,130643,134455
//Storyboard Layer 0 (Background)
//Storyboard Layer 1 (Fail)
//Storyboard Layer 2 (Pass)
//Storyboard Layer 3 (Foreground)
//Storyboard Sound Samples
//Background Colour Transformations
3,100,163,162,255

[TimingPoints]
158,428.571428571429,4,1,0,61,1,0
41300,-80,4,1,1,61,0,1
67872,-80,4,2,0,100,0,1
68729,-100,4,1,0,61,0,0
91336,-100,4,2,0,61,0,0
92408,-100,4,1,0,61,0,0
92729,-125,4,1,0,61,0,1
94443,-125,4,1,0,61,0,0
106443,-80,4,1,0,61,0,1
130443,-80,4,1,0,61,0,0
154443,-125,4,1,0,61,0,1
156158,-125,4,1,0,61,0,0
171586,-80,4,1,0,61,0,1
172228,-80,4,1,0,61,0,0
172229,-80,4,1,0,61,0,1
172871,-80,4,1,0,61,0,0
172872,-80,4,1,0,61,0,1
173514,-80,4,1,0,61,0,0
173515,-80,4,1,0,61,0,1
174157,-80,4,1,0,61,0,0
174158,-80,4,1,0,61,0,1
175014,-80,4,1,0,61,0,0
175015,-80,4,1,0,61,0,1
208015,-80,4,1,0,61,0,0

[Colours]
Combo1 : 151,222,242
Combo2 : 5,240,5
Combo3 : 5,5,240
Combo4 : 240,5,5
Combo5 : 255,150,0
Combo6 : 210,148,243

[HitObjects]
120,24,7015,6,2,B|131:66|88:109|65:78|38:43|-1:90|10:133,1,192,2|0
168,176,8515,1,0
60,196,8943,5,0
56,272,9158,1,8
152,336,9586,1,2
256,304,10015,1,8
352,256,10443,2,2,B|336:192|256:152|176:192|160:256,1,240
256,304,11943,1,0
360,176,12586,5,8
256,144,13015,1,2
152,176,13443,1,8
72,256,13872,2,2,B|200:352,2,144,2|2|8
180,236,15586,2,2,B|24:120,2,192,2|2|4
288,276,17729,5,0
396,236,18158,1,2
444,132,18586,1,8
376,40,19015,1,2
256,64,19443,1,8
136,40,19872,1,2
172,244,20729,38,2,B|212:196|256:200|300:196|340:244,1,192,2|0
296,368,22015,1,8
216,368,22229,1,2
64,288,22872,5,8
72,172,23300,1,2
152,88,23729,1,8
256,36,24158,2,2,B|288:120|224:112|256:192,2,144
332,20,25658,1,0
384,196,26300,5,2
256,240,26729,1,2
128,196,27158,1,8
108,84,27586,2,2,B|140:4|232:0,1,144,6|0
295,1,28443,2,2,B|372:8|404:84,1,144,2|0
400,164,29300,2,2,B|336:236|256:272|176:236|112:164,1,336,2|6
256,8,31443,5,2
256,124,31872,1,4
256,240,32300,1,8
256,356,32729,37,4
332,344,32943,2,2,B|388:328|408:280,1,96
472,144,34015,37,8
424,84,34229,2,2,B|392:4|300:0,1,144,2|0
216,40,35300,1,2
236,136,35729,1,8
132,176,36158,2,2,B|187:238|256:269|325:238|381:176,1,288,2|8
437,280,37872,2,2,B|352:332|256:364|160:332|76:280,1,384,2|4
136,128,41300,37,4
256,52,41729,1,2
376,128,42158,2,2,B|424:220|380:312,2,179.999997317791
256,164,43872,1,4
256,308,44300,1,2
328,204,44729,6,0,B|404:204|428:132,2,119.999998211861,4|2|0
180,184,46015,1,8
168,260,46229,2,2,B|72:252|36:132,1,179.999997317791,2|8
144,64,47300,1,2
256,132,47729,1,8
368,64,48158,5,4
460,160,48586,1,2
404,280,49015,2,2,B|360:320|272:320|232:272,2,179.999997317791
328,168,50729,1,0
184,168,51158,1,2
88,80,51586,6,0,B|20:128|28:208,2,119.999998211861,4|8|2
208,24,52872,1,8
176,96,53086,2,2,B|156:168|208:240|284:236,1,179.999997317791
380,276,54158,1,4
380,144,54586,1,8
504,152,55015,38,2,B|504:68|424:40,1,119.999998211861,2|2
316,52,55872,2,2,B|261:80|261:152,1,119.999998211861,2|8
260,284,56729,1,6
196,332,56943,2,2,B|136:360|88:348|40:304|44:268,1,179.999997317791,2|0
128,196,58015,1,8
8,152,58443,6,2,B|8:68|88:40,1,119.999998211861,2|2
196,52,59300,2,2,B|250:80|250:152,1,119.999998211861,2|8
252,284,60157,1,6
316,332,60371,2,2,B|380:352|412:348|472:304|468:268,1,179.999997317791,2|0
384,196,61443,1,8
348,56,61872,5,4
256,164,62300,1,2
164,56,62729,1,2
108,112,62943,2,2,B|64:192|96:272|136:296,1,179.999997317791,2|4
256,312,64015,1,2
392,280,64443,1,2
296,176,64872,1,8
424,88,65300,6,0,B|176:88,1,239.999996423721
148,164,66372,2,2,B|288:164,2,119.999998211861
64,164,67443,1,0
104,44,67872,1,4
104,136,74300,69,8
220,100,74729,2,2,B|280:168|392:120|400:96,1,192,2|0
472,80,75800,2,2,B|472:240,2,144
332,36,77515,5,0
256,136,77943,1,2
180,36,78372,1,8
84,116,78800,2,2,B|116:164|176:156|176:156|192:220|256:240|320:220|336:156|336:156|396:164|428:116,1,432
388,240,81158,37,4
256,140,81586,1,2
124,240,82015,1,8
52,364,82443,2,2,B|176:412|256:352|284:324,1,240
248,216,83943,1,0
148,152,84372,6,2,B|160:92|204:64|256:44,1,144
360,112,85443,1,8
456,192,85872,2,2,B|416:256|340:288,2,144
488,120,87372,1,0
320,52,88015,5,8
320,176,88443,1,2
216,112,88872,1,8
160,224,89300,2,2,B|132:292|168:352|208:360,1,144
268,332,90158,2,2,B|290:322|326:270|298:202,1,144,2|0
256,136,91015,5,4
184,28,91443,1,4
328,28,91872,1,4
256,136,92300,1,4
144,200,92729,22,4,B|164:280|256:336|348:280|368:200,1,307.2
352,96,94872,1,0
256,140,95301,1,6
156,184,95730,1,0
140,80,96158,70,4,B|60:100|4:192|60:284|140:304,1,307.2
184,192,98300,1,0
256,280,98729,1,6
328,192,99158,1,0
372,304,99586,6,4,B|452:284|508:192|452:100|372:80,1,307.2
256,40,101729,1,0
192,136,102158,1,6
320,136,102586,1,8
440,164,103015,70,4,B|432:308|256:400|80:308|72:164,1,537.6,4|8
184,104,106443,21,4
256,220,106872,1,2
376,156,107301,2,2,B|369:52|284:-3,2,179.999997317791
256,220,109015,1,4
256,76,109443,1,2
184,180,109872,6,0,B|108:180|84:252,2,119.999998211861,4|2|0
332,200,111158,1,8
344,124,111372,2,2,B|440:132|476:252,1,179.999997317791,2|8
368,320,112443,1,2
256,252,112872,1,8
144,320,113301,5,4
52,224,113729,1,2
108,104,114158,2,2,B|152:64|240:64|280:112,2,179.999997317791
184,216,115872,1,0
328,216,116301,1,2
424,304,116729,6,0,B|492:256|484:176,2,119.999998211861,4|8|2
304,360,118015,1,8
336,288,118229,2,2,B|356:216|304:144|228:148,1,179.999997317791
132,108,119301,1,4
132,240,119729,1,8
8,232,120158,38,2,B|8:316|88:344,1,119.999998211861,2|2
196,332,121015,2,2,B|250:303|250:231,1,119.999998211861,2|8
252,100,121872,1,6
316,52,122086,2,2,B|376:24|424:36|472:80|468:116,1,179.999997317791,2|0
384,188,123158,1,8
504,232,123586,6,2,B|504:316|424:344,1,119.999998211861,2|2
316,332,124443,2,2,B|261:303|261:231,1,119.999998211861,2|8
260,100,125300,1,6
196,52,125514,2,2,B|132:32|100:36|40:80|44:116,1,179.999997317791,2|0
128,188,126586,1,8
164,328,127015,5,4
256,220,127443,1,2
348,328,127872,1,2
404,272,128086,2,2,B|448:192|416:112|376:88,1,179.999997317791,2|4
256,72,129158,5,2
120,104,129586,1,2
216,208,130015,1,8
88,264,130443,1,6
256,190,136015,37,8
356,60,136443,1,2
420,216,136872,1,2
256,278,137300,2,2,B|206:279|126:238|128:140|183:74|236:82|263:69|375:90|362:164|366:226|317:274|276:272,1,479.999992847443,2|0
404,372,139443,5,8
256,356,139872,1,2
108,372,140300,1,2
112,264,140729,6,4,B|143:327|195:363|256:375|316:363|367:327|399:264,1,359.999994635582,4|0
400,120,142443,2,4,B|369:57|317:21|256:9|196:21|145:57|113:120,1,359.999994635582,4|0
208,152,144158,6,0,B|218:130|235:119|255:114|275:119|292:130|303:152,3,119.999998211861
304,249,145872,2,0,B|293:270|277:282|256:286|236:282|219:270|208:249,3,119.999998211861
111,150,147586,70,4,B|143:87|195:51|256:38|316:51|367:87|399:150,1,359.999994635582,4|0
400,233,149300,2,4,B|368:297|316:332|256:345|196:332|144:297|112:233,1,359.999994635582,4|0
256,192,151015,12,6,153586
368,184,154443,22,4,B|348:104|256:52|164:104|144:184,1,307.2
160,288,156586,1,0
256,244,157015,1,6
356,200,157444,1,0
372,304,157872,6,4,B|452:284|508:192|452:100|372:80,1,307.2
328,192,160014,1,0
256,104,160443,1,6
184,192,160872,1,0
140,80,161300,70,4,B|60:100|4:192|60:284|140:304,1,307.2
256,344,163443,1,0
320,248,163872,1,6
192,248,164300,1,8
256,192,164729,12,4,168158
256,84,171586,69,6
358,158,172229,69,6
319,279,172872,5,6
192,279,173515,69,6
153,158,174158,5,6
256,192,174586,1,2
256,312,175015,38,0,B|292:368|372:364,2,119.999998211861,4|2|2
364,256,176300,1,8
343,176,176515,2,2,B|323:108|256:84|188:108|168:176,1,179.999997317791
104,252,177586,1,0
256,284,178015,1,2
408,252,178443,6,0,B|460:202|401:119|359:142|325:76|375:35,1,239.999996423721,4|2
224,28,179729,1,8
144,43,179943,2,2,B|178:78|152:138|111:116|54:196|105:244,1,179.999997317791,2|2
192,280,181015,1,0
320,280,181443,1,8
412,184,181872,6,2,B|404:84|324:56|256:76,1,179.999997317791,2|0
214,69,182729,2,2,B|188:68|108:84|100:184,1,179.999997317791,2|0
96,268,183586,2,0,B|232:268,1,119.999998211861,4|8
416,268,184443,2,0,B|280:268,1,119.999998211861,4|8
360,164,185300,6,2,B|330:118|252:120|255:164|260:208|188:209|159:164,2,239.999996423721,2|2|6
404,30,187443,1,0
469,72,187658,1,6
278,173,188301,1,8
414,229,188729,38,4,B|369:290|256:343|142:290|97:229,1,359.999994635582,4|8
97,93,190443,2,4,B|142:32|255:-20|369:32|414:93,1,359.999994635582,4|8
256,192,192158,12,6,194729
97,154,195586,6,4,B|142:93|256:40|369:93|414:154,1,359.999994635582,4|8
415,291,197300,2,4,B|369:351|256:404|142:351|97:291,1,359.999994635582,4|8
256,192,199015,12,6,201586
104,144,202443,6,0,B|112:72|176:44|228:40,1,119.999998211861,6|8
304,40,203300,2,0,B|376:48|404:112|408:164,1,119.999998211861,6|8
408,240,204158,2,0,B|400:312|336:340|284:344,1,119.999998211861,6|0
208,344,205015,2,0,B|136:336|108:272|104:220,1,119.999998211861,6|8
96,144,205872,6,0,B|344:144,1,239.999996423721
372,220,206944,2,0,B|232:220,2,119.999998211861
408,296,208015,1,4
