osu file format v9

[General]
AudioFilename: Honto Uso.mp3
AudioLeadIn: 1996
PreviewTime: 53386
Countdown: 1
SampleSet: Soft
StackLeniency: 0.7
Mode: 0
LetterboxInBreaks: 1

[Editor]
DistanceSpacing: 1
BeatDivisor: 4
GridSize: 4

[Metadata]
Title:Honto Uso (TV Size)
Artist:Me
Creator:athiota33
Version:Normal
Source:Tales of Symphonia The United World
Tags:opening

[Difficulty]
HPDrainRate:3
CircleSize:4
OverallDifficulty:3
ApproachRate:4
SliderMultiplier:1.3
SliderTickRate:2

[Events]
//Background and Video events
Video,0,"ToS.avi"
0,0,"BG.png"
//Break Periods
2,20687,23341
//Storyboard Layer 0 (Background)
//Storyboard Layer 1 (Fail)
//Storyboard Layer 2 (Pass)
//Storyboard Layer 3 (Foreground)
//Storyboard Sound Samples
//Background Colour Transformations
3,100,163,162,255

[TimingPoints]
140,521.739130434783,3,1,0,30,1,0
792,-100,3,2,1,35,0,0
9009,-100,3,2,1,40,0,0
17357,-100,3,2,1,45,0,0
19966,-100,3,2,1,50,0,0
24661,-100,3,2,0,45,0,0
53879,-100,3,2,1,50,0,1
70313,-100,3,2,1,50,0,0
70574,-100,3,2,1,50,0,1
87140,-100,3,2,1,40,0,0

[Colours]
Combo1 : 245,255,60
Combo2 : 64,253,97
Combo3 : 74,74,251
Combo4 : 236,70,62

[HitObjects]
180,88,400,1,0
180,88,661,2,0,B|256:64|324:88,2,130,4|0|0
76,168,2226,1,2
84,232,2487,1,0
136,272,2748,6,0,B|187:330|262:297,2,130,8|8|4
136,140,4313,1,8
256,92,4835,6,0,B|460:92,1,195,4|0
456,156,5879,2,0,B|448:228|392:264,2,130,0|0|8
396,132,7183,2,0,B|336:92|268:100,1,130,8|0
272,164,7966,2,8,B|196:172|128:120,1,130
32,192,9009,5,4
124,284,9531,2,0,B|192:332|268:288,1,130,0|8
320,192,10574,1,2
444,152,11096,6,0,B|392:52|284:52,1,195,8|2
224,52,12140,2,0,B|96:52,2,130,0|8|4
224,184,13705,2,0,B|224:252,2,65,8|0|2
120,104,14748,1,0
224,184,15270,6,0,B|168:236|100:200,2,130,8|2|0
340,124,16835,1,8
456,184,17357,6,0,B|412:248|340:256,1,130,4|0
320,196,18140,1,0
268,156,18400,2,0,B|180:152|156:276|236:292|236:292,1,195,2|0
296,292,19444,2,0,B|424:292,2,130,2|8|4
256,192,24661,5,4
380,236,25183,1,0
380,300,25444,2,0,B|304:368|188:332,1,195,8|8
164,280,26487,1,0
124,228,26748,6,0,B|44:228|44:104|140:104,1,195,4|0
244,168,28053,2,0,B|320:168,2,65,0|8|0
232,232,28835,6,0,B|96:232,2,130,4|8|0
360,256,30400,1,8
472,188,30922,2,0,B|448:120|368:104,2,130,0|8|0
360,256,32487,1,8
300,232,32748,1,0
240,256,33009,6,0,B|172:340|44:300,2,195,4|0|8
240,192,34835,1,0
240,128,35096,2,0,B|308:44|436:84,2,195,4|0|8
288,172,36922,1,0
344,204,37183,6,0,B|364:272|344:352,1,130,0|8
236,268,38226,2,0,B|164:292|108:248,1,130,0|8
112,120,39270,2,0,B|112:20,2,97.5,0|8|0
164,156,40313,2,0,B|204:208|284:204,1,130,8|8
332,84,41357,6,0,B|384:36|460:68,2,130,4|8|0
316,212,42922,2,0,B|248:232|188:188,1,130,8|4
64,212,43966,2,0,B|64:136|132:84,2,130,8|0|8
164,292,45531,6,0,B|132:348|52:340,1,130,4|8
52,276,46313,2,0,B|52:140,1,130,8|0
56,80,47096,2,0,B|184:80,1,130,8|4
228,204,48140,2,0,B|364:260|484:144,1,260,8|8
404,44,49705,5,4
304,124,50226,1,8
240,124,50487,2,0,B|80:124,2,130
240,188,51792,6,0,B|240:288,2,97.5,6|6|6
164,84,53618,5,0
164,84,53879,2,0,B|104:40|20:64,1,130,4|8
12,116,54661,1,0
4,180,54922,2,0,B|64:224|148:200,2,130,0|8|0
92,84,56487,5,8
192,164,57009,2,0,B|240:120|220:40,1,130,0|8
284,24,57792,1,0
336,64,58053,2,0,B|288:108|308:188,1,130,4|8
340,312,59096,6,0,B|420:336|472:260,1,130,0|8
456,212,59879,1,0
412,164,60140,2,0,B|360:120|256:128|224:212,1,195,2|8
268,244,61183,2,0,B|208:296|148:284,1,130,0|8
148,220,61966,5,8
148,156,62226,2,0,B|148:28,2,130,4|8|0
272,192,63792,1,8
172,272,64313,6,0,B|228:324|308:324,2,130,0|8|0
172,140,65879,2,0,B|172:4,2,130,8|0|8
168,204,67183,5,0
168,204,67444,2,0,B|216:304|360:252,1,195,8|0
400,260,68487,2,0,B|520:260,2,97.5,4|4|4
352,216,69531,2,0,B|352:96,2,97.5,6|2|2
336,280,70574,6,0,B|268:312|208:288,2,130,4|8|0
284,160,72139,1,8
412,184,72661,2,0,B|424:108|360:56,2,130,2|8|2
296,244,74226,1,8
176,296,74748,6,0,B|216:364|296:364,1,130,4|8
296,232,75792,2,0,B|296:104,1,130,0|8
240,68,76574,1,0
184,104,76835,6,0,B|76:104,2,97.5,4|8|0
184,104,77879,1,2
264,208,78400,2,0,B|280:284|356:296,1,130,8|4
420,184,79444,2,0,B|496:184,2,65,8|0|0
404,312,80487,6,0,B|356:372|272:348,2,130,8|0|8
408,248,81792,1,0
408,184,82053,2,0,B|320:184,1,65,2|0
276,184,82574,1,8
212,172,82835,1,0
188,112,83096,6,0,B|316:68|444:108,2,260,4|2|4
60,136,85705,5,8
60,136,85966,1,0
60,136,86226,2,0,B|54:206|110:264|192:258|233:203,1,227.5,2|4
