osu file format v9

[General]
AudioFilename: Honto Uso.mp3
AudioLeadIn: 1996
PreviewTime: 53386
Countdown: 1
SampleSet: Normal
StackLeniency: 0.7
Mode: 0
LetterboxInBreaks: 1

[Editor]
DistanceSpacing: 1
BeatDivisor: 4
GridSize: 4

[Metadata]
Title:Honto Uso (TV Size)
Artist:Me
Creator:athiota33
Version:Hard
Source:Tales of Symphonia The United World
Tags:opening

[Difficulty]
HPDrainRate:6
CircleSize:4
OverallDifficulty:6
ApproachRate:6
SliderMultiplier:1.8
SliderTickRate:2

[Events]
//Background and Video events
Video,0,"ToS.avi"
0,0,"BG.png"
//Break Periods
2,20687,23350
//Storyboard Layer 0 (Background)
//Storyboard Layer 1 (Fail)
//Storyboard Layer 2 (Pass)
//Storyboard Layer 3 (Foreground)
//Storyboard Sound Samples
//Background Colour Transformations
3,100,163,162,255

[TimingPoints]
140,521.739130434783,3,1,0,30,1,0
792,-100,3,2,1,35,0,0
9009,-100,3,2,1,40,0,0
17357,-100,3,2,1,45,0,0
19966,-100,3,1,1,40,0,0
24661,-100,3,2,0,45,0,0
52835,-100,3,2,1,45,0,0
53879,-100,3,2,1,50,0,1
70313,-100,3,2,1,50,0,0
70574,-100,3,2,1,50,0,1
82053,-100,3,2,1,45,0,1
83096,-100,3,2,1,40,0,0
86226,-100,3,1,0,50,0,0

[Colours]
Combo1 : 245,255,60
Combo2 : 64,253,97
Combo3 : 74,74,251
Combo4 : 236,70,62

[HitObjects]
72,192,400,1,0
72,192,661,2,0,B|184:192,1,90,4|0
240,144,1183,2,0,B|264:192|240:232,2,90,8|0|8
404,68,2226,2,0,B|316:32|228:64,1,180,2|8
140,60,3009,1,8
90,137,3270,5,0
168,186,3531,1,8
244,136,3792,2,0,B|344:136|404:68,2,180,4|8|0
140,60,5096,1,8
100,140,5357,1,0
100,140,5487,1,0
100,140,5618,1,0
180,188,5879,2,0,B|284:192|336:116,1,180,0|0
416,156,6661,1,0
500,124,6922,6,0,B|500:32,2,90,8|8|0
500,124,7574,1,0
500,124,7705,1,8
416,220,7966,2,0,B|336:272|244:244,1,180,4|8
176,184,8748,1,0
264,156,9009,6,0,B|360:176|376:284,1,180,4|8
436,348,9792,1,0
436,348,10053,2,0,B|320:400|276:276,1,180,2|0
200,152,10835,5,0
116,124,11096,2,0,B|132:92|168:52|232:52|276:112,1,180,2|0
340,152,11879,1,0
401,89,12140,2,0,B|422:118|442:168|414:225|341:239,1,180,2|8
268,232,12922,1,0
268,232,13183,2,0,B|172:232,1,90,4|0
120,164,13705,2,0,B|120:76,2,90,8|0|0
268,232,14748,6,0,B|316:144|432:152,1,180,0|8
492,200,15531,1,0
436,272,15792,1,0
360,224,16053,1,8
416,152,16313,2,0,B|366:60|264:57,1,180,4|8
188,92,17096,1,0
180,216,17357,5,6
180,216,17618,2,0,B|268:216,1,90,0|0
356,244,18140,1,0
420,184,18400,2,0,B|403:77|284:77,1,180,2|0
208,76,19183,2,0,B|88:76,2,90,0|2|0
256,192,19966,5,0
256,192,20226,1,0
256,192,20487,1,4
256,192,24400,5,0
256,192,24661,2,0,B|256:104,1,90,4|0
340,72,25183,1,0
424,100,25444,2,0,B|356:192|268:120,1,180,8|0
188,88,26226,1,8
120,148,26487,1,0
120,176,26618,1,0
120,204,26748,2,0,B|152:308|280:284,1,180,0|8
256,192,27531,2,0,B|288:88|416:112,1,180,0|0
472,160,28313,1,8
320,224,28574,5,0
320,224,28705,1,0
320,224,28835,2,0,B|248:328|136:260,1,180,4|0
176,184,29618,1,0
88,208,29879,2,0,B|88:88|200:96,1,180,0|8
284,96,30661,2,0,B|388:96,2,90,0|8|0
228,168,31444,5,0
284,240,31705,2,0,B|212:320|108:264,1,180,8|0
76,192,32487,1,8
76,192,32618,1,0
76,192,32748,1,0
164,112,33009,6,0,B|244:48|336:72,1,180,4|0
436,128,33792,2,0,B|356:192|264:168,1,180,0|0
152,172,34574,2,0,B|152:264,1,90,8|0
152,288,34966,1,0
152,316,35096,1,2
284,296,35487,1,0
368,192,35879,2,0,B|232:120|108:196,1,270,0|8
52,284,36922,1,0
148,336,37183,6,0,B|232:388|332:352,1,180,4|0
392,300,37966,1,0
440,224,38226,2,0,B|444:180|440:132,2,90,8|0|8
360,180,39009,2,0,B|356:136|360:88,1,90,0|8
280,48,39531,2,0,B|232:48,1,45,0|8
104,192,40053,2,0,B|140:228|204:216,1,90
212,212,40444,1,8
236,204,40574,1,0
272,120,40835,2,0,B|324:100|368:128,1,90,8|0
376,144,41226,1,0
392,168,41357,6,0,B|372:272|268:284,1,180,4|0
272,192,42140,1,0
272,192,42270,2,0,B|224:184|168:192,1,90
176,216,42661,2,0,B|128:220|76:216,1,90,0|8
20,276,43183,1,0
88,336,43444,6,0,B|136:332|180:336,1,90,8|0
268,324,43966,2,0,B|320:316|352:288,1,90,8|0
376,300,44357,2,0,B|440:252|456:176,1,135
480,108,45009,1,8
416,44,45270,5,0
416,44,45400,1,0
416,44,45531,1,4
480,108,45792,2,0,B|440:140|380:128,1,90,0|8
304,132,46313,2,0,B|244:132,1,45,0|8
124,140,46835,2,0,B|124:236,1,90,0|8
204,272,47357,2,0,B|260:272,2,45,0|0|4
124,196,47879,2,0,B|180:108|288:132,2,180
204,240,49183,6,0,B|184:288|204:328,2,90,8|0|4
292,216,49966,1,0
292,216,50096,1,0
292,216,50226,2,0,B|312:168|292:128,2,90,8|0|0
284,328,51009,1,2
392,280,51270,1,0
396,252,51400,1,8
384,228,51531,6,0,B|392:184|368:140,1,90,0|6
288,100,52053,2,0,B|216:80,1,45,0|6
164,132,52444,2,0,B|132:164,2,45,0|6|2
256,288,53618,5,0
256,288,53879,2,0,B|256:376,2,90,4|0|8
316,220,54661,1,0
256,152,54922,2,0,B|164:152,1,90
80,180,55444,1,8
44,96,55705,1,0
132,76,55966,2,0,B|216:16|308:56,1,180,2|8
396,80,56748,5,0
387,179,57009,1,0
291,206,57270,1,0
231,128,57531,1,8
298,55,57792,1,0
292,208,58053,5,4
292,208,58313,2,0,B|292:312,1,90,0|8
204,320,58835,1,0
204,320,58966,1,0
204,320,59096,1,0
148,248,59357,2,0,B|28:248,1,90,0|8
60,156,59879,1,0
4,84,60140,2,0,B|76:56|132:100,2,135,4|8|0
60,156,61183,2,0,B|60:224,2,45,8|0|0
148,172,61705,5,0
176,176,61835,1,0
204,172,61966,1,8
232,160,62096,1,8
252,144,62226,2,0,B|312:124|328:76|328:76|344:104|400:128,1,180,4|8
388,212,63009,1,0
388,212,63270,2,0,B|388:304,2,90,0|0|8
328,80,64053,5,0
328,80,64313,2,0,B|264:156|156:132,1,180,2|8
88,88,65096,1,0
168,52,65357,2,0,B|268:88|288:184,1,180,2|8
196,236,66140,1,0
108,176,66400,1,4
108,176,66661,2,0,B|108:80,1,90,0|8
232,104,67183,5,0
232,104,67313,1,0
232,104,67444,2,0,B|260:60|308:68,1,90,4|0
336,76,67835,2,0,B|336:156|396:192,1,135,0|0
328,320,68487,6,0,B|264:360|192:320,1,135,4|8
88,248,69270,1,8
204,196,69531,2,0,B|268:156|340:196,1,135,4|4
424,92,70313,1,0
424,92,70444,1,0
424,92,70574,6,0,B|332:92,1,90,4|0
268,160,71096,1,8
216,88,71357,1,0
152,152,71618,2,0,B|96:156|88:208,2,90,0|0|8
176,240,72400,5,0
176,240,72531,1,0
176,240,72661,1,0
252,192,72922,2,0,B|360:192,1,90,0|8
396,120,73444,1,0
468,172,73705,1,8
416,244,73966,1,0
344,192,74226,1,8
252,260,74487,6,0,B|156:260,1,90,0|4
100,192,75009,1,0
100,164,75139,1,0
100,136,75270,1,8
172,80,75531,1,0
172,80,75792,2,0,B|208:32|276:36,1,90,2|0
268,124,76313,2,0,B|236:180|164:168,1,90,8|0
100,168,76835,6,0,B|100:312,1,135,4|8
232,340,77618,1,0
232,340,77748,1,0
232,340,77879,2,0,B|412:340,1,180,8|8
488,224,78661,6,0,B|460:184|416:164,1,90,0|4
332,188,79183,1,0
264,128,79444,1,8
180,164,79705,2,0,B|152:204|108:224,2,90
264,80,80487,1,8
352,92,80748,1,0
380,176,81009,2,0,B|428:188|472:176,1,90,2|0
480,200,81400,2,0,B|432:264|460:336,1,135
332,348,82053,5,0
240,264,82313,1,0
360,220,82574,2,0,B|364:172|360:120,1,90,8|0
332,92,82966,1,0
292,72,83096,6,0,B|164:12|28:76,1,270,4|0
56,160,84140,2,0,B|148:100|244:140,1,180,0|8
252,220,84922,2,0,B|200:232|164:200,1,90,0|4
192,336,85574,1,8
324,312,85966,1,0
384,248,86226,5,8
388,240,86357,1,0
384,232,86487,1,0
388,224,86618,1,0
384,216,86748,1,8
388,208,86879,1,0
384,200,87009,1,0
388,192,87140,1,4
