osu file format v5

[General]
AudioFilename: 歐陽靖jin - ABC 1.mp3
AudioLeadIn: 0
PreviewTime: -1
Countdown: 1
SampleSet: Normal
StackLeniency: 0.7
Mode: 1

[Metadata]
Title:ABC
Artist:Mc Jin
Creator:kennytsuiabc
Version:Easy
Source:kk
Tags:kkkkk

[Difficulty]
HPDrainRate:5
CircleSize:5
OverallDifficulty:5
SliderMultiplier:1.5
SliderTickRate:0.5

[Events]
//Background and Video events
0,0,"208596_200703212103454.jpg"
//Break Periods
//Storyboard Layer 0 (Background)
//Storyboard Layer 1 (Failing)
//Storyboard Layer 2 (Passing)
//Storyboard Layer 3 (Foreground)
//Storyboard Sound Samples
//Background Colour Transformations
3,100,163,162,255

[TimingPoints]
6,750,4,1,0,100

[HitObjects]
96,128,756,2,0,B|192:128|352:128|480:128|320:224|160:256|0:192,2,600
32,96,6756,1,0
224,96,7506,1,0
384,96,8256,1,0
128,256,9006,1,0
320,256,9756,1,0
448,256,10506,1,0
384,128,11256,1,0
128,256,12006,1,0
96,128,12756,1,0
192,160,15006,1,0
320,224,15756,1,0
384,128,16506,1,0
256,256,17256,1,0
128,224,19506,1,0
320,224,20256,1,0
160,128,21006,1,0
320,128,21756,1,0
128,224,22506,1,0
288,224,23256,1,0
64,128,31506,1,0
256,192,26256,12,0,31506
352,128,32256,1,0
128,256,33006,1,0
320,224,33756,1,0
128,96,35256,1,0
352,128,36006,1,0
384,224,36756,1,0
384,256,37506,1,0
320,288,38256,1,0
224,288,39006,1,0
160,224,39756,1,0
256,160,40506,1,0
416,96,41256,1,0
320,64,42006,1,0
256,64,42756,1,0
128,128,44256,5,0
288,128,45006,1,0
352,128,45756,1,0
224,224,46506,1,0
160,128,47256,1,0
384,224,48756,1,0
192,192,49506,1,0
96,256,50256,1,0
448,96,51006,1,0
224,128,52506,5,0
160,224,53256,1,0
320,224,54006,1,0
352,160,54756,1,0
192,96,55506,1,0
384,128,56256,1,0
64,192,58506,1,0
288,160,59256,1,0
32,320,60756,2,0,B|480:64|480:64|96:64|96:64|-32:192,2,1050
384,128,72756,1,0
160,192,73506,1,0
320,192,74256,1,0
192,96,75006,1,0
192,256,75756,1,0
96,192,76506,1,0
256,160,77256,1,0
288,96,78756,1,0
192,224,79506,1,0
96,160,80256,1,0
192,128,81006,1,0
320,192,81756,1,0
256,192,83256,12,0,90756
96,96,91506,1,0
256,96,92256,1,0
256,192,93006,1,0
256,256,93756,1,0
288,320,94506,1,0
384,128,95256,1,0
384,128,96756,1,0
384,128,97506,1,0
384,128,98256,1,0
384,128,99006,1,0
192,96,100506,1,0
64,160,101256,1,0
160,192,102006,1,0
256,160,102756,1,0
352,192,103506,1,0
192,256,104256,1,0
192,96,105006,1,0
320,96,105756,1,0
320,160,106506,1,0
160,224,107256,1,0
96,160,108006,1,0
224,96,108756,1,0
320,128,109506,1,0
224,192,110256,1,0
160,224,111006,1,0
96,160,111756,1,0
224,96,112506,1,0
352,224,113256,1,0
32,320,114756,2,0,B|448:96|448:96|480:352|480:352|64:64|64:96|64:96|-32:160,2,1200
128,160,129756,1,0
320,160,130506,1,0
160,256,131256,1,0
288,256,132006,1,0
224,288,133506,1,0
160,160,135756,5,0
384,160,136506,1,0
256,288,138006,1,0
288,160,139506,1,0
256,192,141756,12,0,145506
32,96,146256,1,0
352,96,147006,1,0
128,256,147756,1,0
352,224,148506,1,0
192,160,149256,1,0
160,288,150006,1,0
96,224,150756,1,0
352,192,151506,1,0
192,128,152256,1,0
320,160,153006,1,0
288,160,154506,1,0
352,192,155256,1,0
320,192,156006,1,0
224,192,158256,1,0
64,160,159006,1,0
192,128,159756,1,0
320,128,160506,1,0
128,256,161256,1,0
0,224,162756,2,0,B|448:64|448:64|32:64|-32:160,1,900
160,192,169506,1,0
384,128,170256,1,0
32,64,171756,2,0,B|448:320|-32:288,1,450
