osu file format v14

[General]
AudioFilename: KOTONE feat.Another Infinity.mp3
AudioLeadIn: 0
PreviewTime: 472
Countdown: 0
SampleSet: Soft
StackLeniency: 0.7
Mode: 3
LetterboxInBreaks: 0
SpecialStyle: 0
WidescreenStoryboard: 0

[Editor]
Bookmarks: 91138,119583
DistanceSpacing: 1
BeatDivisor: 8
GridSize: 4
TimelineZoom: 2.2

[Metadata]
Title:kotone feat.Another Infinity
TitleUnicode:響音 -kotone- feat.Another Infinity
Artist:Mayumi Morinaga
ArtistUnicode:Mayumi Morinaga
Creator:ExUsagi
Version:Intense
Source:
Tags:Marathon Moimoi senya ryu* starving trancer mitsu Jpop 1st Album Glitter senya
BeatmapID:681373
BeatmapSetID:304102

[Difficulty]
HPDrainRate:9.3
CircleSize:4
OverallDifficulty:8.3
ApproachRate:5
SliderMultiplier:1.4
SliderTickRate:1

[Events]
//Background and Video events
0,0,"BG.jpg",0,0
//Break Periods
//Storyboard Layer 0 (Background)
//Storyboard Layer 1 (Fail)
//Storyboard Layer 2 (Pass)
//Storyboard Layer 3 (Foreground)
//Storyboard Sound Samples

[TimingPoints]
2250,444.444444444444,4,2,1,70,1,0

[HitObjects]
320,192,583,128,0,2027:0:0:0:0:
192,192,1250,128,0,2027:0:0:0:0:
64,192,2250,1,0,0:0:0:0:
448,192,2250,1,2,0:0:0:0:
192,192,2472,1,0,0:0:0:0:
320,192,2694,1,0,0:0:0:0:
64,192,2916,1,0,0:0:0:0:
192,192,3138,1,0,0:0:0:0:
64,192,3361,1,0,0:0:0:0:
320,192,3583,1,0,0:0:0:0:
64,192,3805,1,0,0:0:0:0:
448,192,4027,1,2,0:0:0:0:
192,192,4249,1,0,0:0:0:0:
320,192,4472,1,0,0:0:0:0:
448,192,4694,128,0,5361:0:0:0:0:
192,192,5361,1,0,0:0:0:0:
320,192,5583,1,0,0:0:0:0:
64,192,5805,1,2,0:0:0:0:
192,192,6027,1,0,0:0:0:0:
320,192,6249,1,0,0:0:0:0:
448,192,6472,128,0,6916:0:0:0:0:
192,192,6916,1,0,0:0:0:0:
320,192,7138,1,0,0:0:0:0:
64,192,7361,1,0,0:0:0:0:
192,192,7583,128,2,8472:0:0:0:0:
320,192,7805,1,0,0:0:0:0:
448,192,8027,1,0,0:0:0:0:
64,192,8249,1,0,0:0:0:0:
320,192,8472,128,2,9361:0:0:0:0:
64,192,8916,1,0,0:0:0:0:
448,192,9361,128,2,11138:0:0:0:0:
64,192,9583,1,0,0:0:0:0:
320,192,9805,1,0,0:0:0:0:
64,192,10027,1,0,0:0:0:0:
192,192,10249,1,0,0:0:0:0:
64,192,10472,1,0,0:0:0:0:
320,192,10694,1,0,0:0:0:0:
192,192,10916,1,0,0:0:0:0:
64,192,11138,1,2,0:0:0:0:
192,192,11361,1,0,0:0:0:0:
320,192,11583,1,0,0:0:0:0:
448,192,11805,128,0,12472:0:0:0:0:
192,192,12249,128,0,12472:0:0:0:0:
64,192,12472,128,0,12916:0:0:0:0:
448,192,12694,128,0,12916:0:0:0:0:
320,192,12916,128,2,13583:0:0:0:0:
64,192,13138,1,0,0:0:0:0:
448,192,13361,1,0,0:0:0:0:
64,192,13583,128,0,14027:0:0:0:0:
192,192,14027,128,0,14472:0:0:0:0:
320,192,14472,128,0,16472:0:0:0:0:
448,192,14694,128,2,16472:0:0:0:0:
192,192,14916,1,0,0:0:0:0:
64,192,15138,1,0,0:0:0:0:
192,192,15361,1,0,0:0:0:0:
64,192,15805,1,0,0:0:0:0:
64,192,16027,1,0,0:0:0:0:
192,192,16249,1,0,0:0:0:0:
64,192,16472,1,4,0:0:0:0:
320,192,16805,1,0,0:0:0:0:
192,192,17138,1,0,0:0:0:0:
64,192,17361,1,0,0:0:0:0:
448,192,17805,128,8,18249:0:0:0:0:
320,192,17805,1,0,0:0:0:0:
192,192,18027,1,0,0:0:0:0:
64,192,18249,1,0,0:0:0:0:
320,192,18583,1,0,0:0:0:0:
448,192,18916,1,0,0:0:0:0:
64,192,19138,1,0,0:0:0:0:
192,192,19583,128,8,20027:0:0:0:0:
320,192,19583,1,0,0:0:0:0:
64,192,20027,1,0,0:0:0:0:
192,192,20361,1,0,0:0:0:0:
448,192,20694,1,0,0:0:0:0:
320,192,20916,1,0,0:0:0:0:
64,192,21138,1,0,0:0:0:0:
448,192,21361,128,8,21805:0:0:0:0:
320,192,21361,1,0,0:0:0:0:
192,192,21583,1,0,0:0:0:0:
64,192,21805,1,0,0:0:0:0:
448,192,22138,1,0,0:0:0:0:
320,192,22472,1,0,0:0:0:0:
192,192,22916,1,0,0:0:0:0:
448,192,23138,128,8,23583:0:0:0:0:
64,192,23138,1,0,0:0:0:0:
192,192,23361,1,0,0:0:0:0:
64,192,23583,1,0,0:0:0:0:
320,192,23916,1,0,0:0:0:0:
192,192,24249,1,0,0:0:0:0:
64,192,24472,1,0,0:0:0:0:
448,192,24694,1,0,0:0:0:0:
320,192,24916,128,8,25361:0:0:0:0:
192,192,24916,1,0,0:0:0:0:
64,192,25361,1,0,0:0:0:0:
320,192,25694,1,0,0:0:0:0:
192,192,26027,1,0,0:0:0:0:
448,192,26249,128,0,26472:0:0:0:0:
192,192,26472,128,0,26694:0:0:0:0:
64,192,26694,128,8,27138:0:0:0:0:
448,192,26694,1,0,0:0:0:0:
320,192,26916,128,0,27138:0:0:0:0:
192,192,27138,1,0,0:0:0:0:
320,192,27472,1,0,0:0:0:0:
448,192,27805,1,0,0:0:0:0:
448,192,28249,128,0,28472:0:0:0:0:
320,192,28472,128,8,28694:0:0:0:0:
64,192,28472,1,0,0:0:0:0:
448,192,28694,128,0,28916:0:0:0:0:
64,192,28916,1,0,0:0:0:0:
192,192,29249,1,0,0:0:0:0:
448,192,29361,1,0,0:0:0:0:
448,192,29583,1,0,0:0:0:0:
320,192,29805,128,0,30694:0:0:0:0:
192,192,30249,128,8,30694:0:0:0:0:
64,192,30694,1,2,0:0:0:0:
448,192,30694,1,4,0:0:0:0:
192,192,30916,1,0,0:0:0:0:
320,192,31138,1,0,0:0:0:0:
448,192,31138,1,0,0:0:0:0:
192,192,31361,1,0,0:0:0:0:
64,192,31361,1,0,0:0:0:0:
192,192,31805,1,0,0:0:0:0:
448,192,31805,1,0,0:0:0:0:
320,192,32249,1,0,0:0:0:0:
64,192,32249,1,0,0:0:0:0:
192,192,32472,1,0,0:0:0:0:
64,192,32916,1,0,0:0:0:0:
448,192,33138,1,0,0:0:0:0:
320,192,33138,1,0,0:0:0:0:
192,192,33583,1,0,0:0:0:0:
448,192,33583,1,0,0:0:0:0:
320,192,33805,1,0,0:0:0:0:
64,192,33805,1,0,0:0:0:0:
192,192,34027,1,0,0:0:0:0:
64,192,34249,1,0,0:0:0:0:
448,192,34249,1,0,0:0:0:0:
192,192,34472,1,0,0:0:0:0:
320,192,34694,1,0,0:0:0:0:
64,192,34694,1,0,0:0:0:0:
448,192,34916,1,0,0:0:0:0:
64,192,34916,1,0,0:0:0:0:
448,192,35361,1,0,0:0:0:0:
192,192,35361,1,0,0:0:0:0:
64,192,35583,1,0,0:0:0:0:
192,192,35583,1,0,0:0:0:0:
320,192,35805,1,0,0:0:0:0:
448,192,35805,1,0,0:0:0:0:
320,192,36249,1,0,0:0:0:0:
448,192,36472,1,0,0:0:0:0:
64,192,36472,1,0,0:0:0:0:
192,192,36694,1,0,0:0:0:0:
320,192,36694,1,0,0:0:0:0:
320,192,37138,1,0,0:0:0:0:
192,192,37138,1,0,0:0:0:0:
448,192,37361,1,0,0:0:0:0:
64,192,37361,1,0,0:0:0:0:
64,192,37805,1,0,0:0:0:0:
320,192,37805,1,0,0:0:0:0:
192,192,38027,1,0,0:0:0:0:
64,192,38249,1,0,0:0:0:0:
448,192,38249,1,0,0:0:0:0:
192,192,38472,1,0,0:0:0:0:
320,192,38472,1,0,0:0:0:0:
64,192,38916,1,0,0:0:0:0:
192,192,39138,1,0,0:0:0:0:
448,192,39361,1,0,0:0:0:0:
320,192,39583,1,0,0:0:0:0:
64,192,39583,1,0,0:0:0:0:
192,192,39805,1,0,0:0:0:0:
64,192,40027,1,0,0:0:0:0:
448,192,40027,1,0,0:0:0:0:
448,192,40249,1,0,0:0:0:0:
320,192,40249,1,0,0:0:0:0:
192,192,40694,1,0,0:0:0:0:
64,192,40916,1,0,0:0:0:0:
320,192,40916,1,0,0:0:0:0:
448,192,41138,1,0,0:0:0:0:
448,192,41361,1,0,0:0:0:0:
64,192,41361,128,2,43138:0:0:0:0:
192,192,41583,1,0,0:0:0:0:
320,192,41805,1,0,0:0:0:0:
320,192,42027,1,0,0:0:0:0:
448,192,42027,1,0,0:0:0:0:
192,192,42472,1,0,0:0:0:0:
448,192,42472,1,0,0:0:0:0:
320,192,42694,1,0,0:0:0:0:
192,192,42916,1,0,0:0:0:0:
448,192,43138,1,0,0:0:0:0:
320,192,43138,1,4,0:0:0:0:
64,192,43361,1,0,0:0:0:0:
192,192,43472,1,0,0:0:0:0:
448,192,43583,1,0,0:0:0:0:
320,192,43583,1,0,0:0:0:0:
320,192,43805,1,0,0:0:0:0:
64,192,43805,1,0,0:0:0:0:
64,192,44027,1,0,0:0:0:0:
448,192,44027,1,4,0:0:0:0:
64,192,44472,1,0,0:0:0:0:
192,192,44472,1,4,0:0:0:0:
320,192,44694,1,4,0:0:0:0:
448,192,44694,1,0,0:0:0:0:
192,192,44916,1,4,0:0:0:0:
64,192,44916,1,0,0:0:0:0:
320,192,45138,1,0,0:0:0:0:
192,192,45361,1,0,0:0:0:0:
64,192,45361,1,0,0:0:0:0:
448,192,45583,1,0,0:0:0:0:
320,192,45583,1,0,0:0:0:0:
320,192,46027,1,0,0:0:0:0:
64,192,46027,1,0,0:0:0:0:
448,192,46472,1,0,0:0:0:0:
192,192,46472,1,0,0:0:0:0:
64,192,46694,1,0,0:0:0:0:
192,192,47138,1,0,0:0:0:0:
64,192,47361,1,0,0:0:0:0:
448,192,47361,1,0,0:0:0:0:
64,192,47805,1,0,0:0:0:0:
320,192,47805,1,0,0:0:0:0:
192,192,48027,1,0,0:0:0:0:
448,192,48027,1,0,0:0:0:0:
320,192,48249,1,0,0:0:0:0:
64,192,48472,1,0,0:0:0:0:
448,192,48472,1,0,0:0:0:0:
320,192,48694,1,0,0:0:0:0:
192,192,48916,1,0,0:0:0:0:
448,192,48916,1,0,0:0:0:0:
448,192,49138,1,0,0:0:0:0:
64,192,49138,1,0,0:0:0:0:
320,192,49583,1,0,0:0:0:0:
64,192,49583,1,0,0:0:0:0:
320,192,49805,1,0,0:0:0:0:
448,192,49805,1,0,0:0:0:0:
64,192,50027,1,0,0:0:0:0:
192,192,50027,1,0,0:0:0:0:
192,192,50472,1,0,0:0:0:0:
64,192,50694,1,0,0:0:0:0:
448,192,50694,1,0,0:0:0:0:
192,192,50916,1,0,0:0:0:0:
320,192,50916,1,0,0:0:0:0:
448,192,51138,1,0,0:0:0:0:
192,192,51361,1,0,0:0:0:0:
64,192,51583,1,0,0:0:0:0:
448,192,51583,1,0,0:0:0:0:
320,192,51805,1,0,0:0:0:0:
192,192,51805,1,0,0:0:0:0:
448,192,52027,1,4,0:0:0:0:
192,192,52027,1,0,0:0:0:0:
320,192,52249,1,0,0:0:0:0:
448,192,52472,1,0,0:0:0:0:
64,192,52472,1,0,0:0:0:0:
320,192,52694,1,0,0:0:0:0:
192,192,52694,1,0,0:0:0:0:
448,192,53138,1,0,0:0:0:0:
320,192,53361,1,0,0:0:0:0:
64,192,53583,1,0,0:0:0:0:
448,192,53805,1,0,0:0:0:0:
192,192,53805,1,0,0:0:0:0:
320,192,54027,1,0,0:0:0:0:
448,192,54249,1,0,0:0:0:0:
64,192,54249,1,0,0:0:0:0:
64,192,54472,1,0,0:0:0:0:
192,192,54472,1,0,0:0:0:0:
448,192,54916,1,0,0:0:0:0:
448,192,55138,1,0,0:0:0:0:
192,192,55138,1,0,0:0:0:0:
320,192,55361,1,0,0:0:0:0:
64,192,55583,1,0,0:0:0:0:
448,192,55583,128,2,57361:0:0:0:0:
320,192,55805,1,0,0:0:0:0:
192,192,56027,1,0,0:0:0:0:
64,192,56249,1,0,0:0:0:0:
192,192,56249,1,0,0:0:0:0:
320,192,56694,1,0,0:0:0:0:
64,192,56694,1,0,0:0:0:0:
192,192,56916,1,0,0:0:0:0:
320,192,57138,1,0,0:0:0:0:
64,192,57361,1,0,0:0:0:0:
192,192,57361,1,4,0:0:0:0:
448,192,57583,1,0,0:0:0:0:
320,192,57694,1,0,0:0:0:0:
64,192,57805,1,0,0:0:0:0:
192,192,57805,1,0,0:0:0:0:
64,192,58027,1,0,0:0:0:0:
192,192,58027,1,0,0:0:0:0:
64,192,58249,1,0,0:0:0:0:
448,192,58249,1,4,0:0:0:0:
448,192,58694,1,0,0:0:0:0:
320,192,58694,1,4,0:0:0:0:
192,192,58916,1,4,0:0:0:0:
64,192,58916,1,0,0:0:0:0:
448,192,59138,1,0,0:0:0:0:
320,192,59138,1,4,0:0:0:0:
192,192,59583,1,0,0:0:0:0:
64,192,59805,1,0,0:0:0:0:
448,192,59805,1,0,0:0:0:0:
192,192,60249,1,0,0:0:0:0:
320,192,60694,1,0,0:0:0:0:
64,192,60694,1,0,0:0:0:0:
448,192,60916,1,0,0:0:0:0:
320,192,60916,1,0,0:0:0:0:
448,192,61361,1,0,0:0:0:0:
64,192,61583,1,0,0:0:0:0:
320,192,61583,1,0,0:0:0:0:
192,192,62027,1,0,0:0:0:0:
64,192,62249,1,0,0:0:0:0:
320,192,62249,1,0,0:0:0:0:
448,192,62472,1,0,0:0:0:0:
320,192,62472,1,0,0:0:0:0:
64,192,62694,1,0,0:0:0:0:
192,192,62694,1,0,0:0:0:0:
320,192,62916,1,0,0:0:0:0:
64,192,63138,1,0,0:0:0:0:
448,192,63138,1,0,0:0:0:0:
192,192,63361,1,0,0:0:0:0:
448,192,63361,1,0,0:0:0:0:
64,192,63805,1,0,0:0:0:0:
448,192,64027,1,0,0:0:0:0:
192,192,64027,1,0,0:0:0:0:
448,192,64249,1,0,0:0:0:0:
320,192,64249,1,0,0:0:0:0:
192,192,64472,1,0,0:0:0:0:
64,192,64472,1,0,0:0:0:0:
192,192,64916,1,0,0:0:0:0:
64,192,65138,1,0,0:0:0:0:
320,192,65138,1,0,0:0:0:0:
192,192,65583,1,0,0:0:0:0:
320,192,65805,1,0,0:0:0:0:
448,192,65805,128,0,66027:0:0:0:0:
64,192,66027,1,0,0:0:0:0:
320,192,66249,1,0,0:0:0:0:
192,192,66472,1,0,0:0:0:0:
64,192,66694,1,0,0:0:0:0:
320,192,66694,1,0,0:0:0:0:
192,192,66916,1,0,0:0:0:0:
448,192,66916,1,0,0:0:0:0:
448,192,67361,1,0,0:0:0:0:
320,192,67583,1,0,0:0:0:0:
192,192,67805,1,0,0:0:0:0:
448,192,67805,1,0,0:0:0:0:
320,192,68027,1,0,0:0:0:0:
64,192,68027,1,0,0:0:0:0:
192,192,68249,1,0,0:0:0:0:
192,192,68694,1,0,0:0:0:0:
448,192,68694,1,0,0:0:0:0:
192,192,69138,1,0,0:0:0:0:
320,192,69138,1,0,0:0:0:0:
64,192,69805,1,0,0:0:0:0:
192,192,69805,1,0,0:0:0:0:
320,192,70027,1,0,0:0:0:0:
192,192,70249,1,0,0:0:0:0:
448,192,70249,1,0,0:0:0:0:
320,192,70472,1,0,0:0:0:0:
64,192,70472,1,0,0:0:0:0:
192,192,70916,1,0,0:0:0:0:
448,192,71138,1,0,0:0:0:0:
320,192,71138,1,0,0:0:0:0:
64,192,71361,1,0,0:0:0:0:
320,192,71361,1,0,0:0:0:0:
192,192,71805,1,0,0:0:0:0:
320,192,72027,1,0,0:0:0:0:
64,192,72027,1,0,0:0:0:0:
448,192,72249,128,0,73361:0:0:0:0:
192,192,72249,1,0,0:0:0:0:
64,192,72694,1,0,0:0:0:0:
192,192,72916,128,0,73361:0:0:0:0:
320,192,73138,128,0,73361:0:0:0:0:
64,192,73361,1,4,0:0:0:0:
64,192,73583,1,0,0:0:0:0:
192,192,73805,1,0,0:0:0:0:
320,192,74027,1,0,0:0:0:0:
448,192,74027,1,0,0:0:0:0:
192,192,74472,1,0,0:0:0:0:
64,192,74472,1,0,0:0:0:0:
320,192,74694,1,0,0:0:0:0:
448,192,74916,1,0,0:0:0:0:
64,192,74916,1,0,0:0:0:0:
320,192,75138,1,0,0:0:0:0:
192,192,75138,1,0,0:0:0:0:
64,192,75361,1,0,0:0:0:0:
320,192,75583,1,0,0:0:0:0:
192,192,75805,1,0,0:0:0:0:
448,192,75805,1,0,0:0:0:0:
64,192,76249,1,0,0:0:0:0:
448,192,76249,1,0,0:0:0:0:
320,192,76472,1,0,0:0:0:0:
64,192,76694,1,0,0:0:0:0:
192,192,76694,1,0,0:0:0:0:
320,192,76916,1,0,0:0:0:0:
448,192,76916,1,0,0:0:0:0:
64,192,77138,1,0,0:0:0:0:
192,192,77361,1,0,0:0:0:0:
320,192,77583,1,0,0:0:0:0:
448,192,77583,1,0,0:0:0:0:
192,192,78027,1,0,0:0:0:0:
320,192,78249,1,0,0:0:0:0:
448,192,78472,1,0,0:0:0:0:
64,192,78472,1,0,0:0:0:0:
448,192,78694,1,0,0:0:0:0:
192,192,78694,1,0,0:0:0:0:
320,192,78916,1,0,0:0:0:0:
192,192,79138,1,0,0:0:0:0:
448,192,79138,1,0,0:0:0:0:
64,192,79361,1,0,0:0:0:0:
192,192,79361,1,0,0:0:0:0:
64,192,79805,1,0,0:0:0:0:
448,192,79805,1,0,0:0:0:0:
192,192,80027,1,0,0:0:0:0:
320,192,80249,1,0,0:0:0:0:
448,192,80472,128,0,80916:0:0:0:0:
64,192,80472,1,0,0:0:0:0:
320,192,80694,1,0,0:0:0:0:
64,192,80916,128,0,81361:0:0:0:0:
192,192,80916,1,0,0:0:0:0:
320,192,81138,128,0,81583:0:0:0:0:
448,192,81138,1,0,0:0:0:0:
64,192,81583,1,0,0:0:0:0:
320,192,81805,1,0,0:0:0:0:
64,192,82027,1,0,0:0:0:0:
192,192,82249,128,0,82694:0:0:0:0:
448,192,82249,1,0,0:0:0:0:
64,192,82472,1,0,0:0:0:0:
448,192,82694,128,0,83138:0:0:0:0:
320,192,82694,1,0,0:0:0:0:
64,192,82916,128,0,83361:0:0:0:0:
192,192,82916,1,0,0:0:0:0:
448,192,83361,1,0,0:0:0:0:
64,192,83583,1,0,0:0:0:0:
192,192,83805,1,0,0:0:0:0:
320,192,84027,1,0,0:0:0:0:
448,192,84027,1,4,0:0:0:0:
64,192,84027,128,0,84472:0:0:0:0:
320,192,84472,1,0,0:0:0:0:
448,192,84694,128,0,85138:0:0:0:0:
192,192,85138,1,0,0:0:0:0:
64,192,85361,128,0,86249:0:0:0:0:
192,192,85694,1,0,0:0:0:0:
320,192,85749,1,0,0:0:0:0:
448,192,85805,128,0,86027:0:0:0:0:
192,192,86027,1,0,0:0:0:0:
448,192,86249,128,0,86472:0:0:0:0:
64,192,86472,128,0,86916:0:0:0:0:
320,192,86916,1,0,0:0:0:0:
192,192,87138,1,0,0:0:0:0:
448,192,87138,1,0,0:0:0:0:
64,192,87583,1,0,0:0:0:0:
448,192,87583,1,4,0:0:0:0:
320,192,87583,1,0,3:0:0:0:
64,192,88027,1,0,3:0:0:0:
192,192,88249,1,0,0:0:0:0:
320,192,88249,1,0,0:0:0:0:
64,192,88472,1,0,0:0:0:0:
448,192,88472,1,4,0:0:0:0:
320,192,88472,1,0,3:0:0:0:
64,192,88916,1,0,0:0:0:0:
448,192,88916,1,4,0:0:0:0:
192,192,88916,1,0,3:0:0:0:
64,192,89361,1,0,0:0:0:0:
448,192,89361,1,4,0:0:0:0:
320,192,89361,1,0,3:0:0:0:
192,192,89583,1,0,3:0:0:0:
64,192,89694,1,0,3:0:0:0:
448,192,89805,1,0,3:0:0:0:
192,192,90027,1,0,3:0:0:0:
64,192,90138,1,0,3:0:0:0:
448,192,90249,1,0,2:0:0:0:
320,192,90249,1,0,3:0:0:0:
448,192,90361,1,0,0:0:0:0:
320,192,90361,1,0,3:0:0:0:
192,192,90472,1,0,3:0:0:0:
64,192,90472,1,0,0:0:0:0:
448,192,90694,1,0,0:0:0:0:
320,192,90694,1,0,3:0:0:0:
448,192,90805,1,0,0:0:0:0:
320,192,90805,1,0,3:0:0:0:
64,192,90916,1,0,0:0:0:0:
192,192,90916,1,0,3:0:0:0:
192,192,91027,1,0,3:0:0:0:
64,192,91027,1,0,0:0:0:0:
448,192,91138,1,4,0:0:0:0:
320,192,91138,1,0,3:0:0:0:
64,192,91361,1,0,0:0:0:0:
320,192,91361,1,2,0:0:0:0:
320,192,91583,1,0,0:0:0:0:
448,192,91583,1,8,0:0:0:0:
64,192,91805,1,0,0:0:0:0:
192,192,91805,1,2,0:0:0:0:
320,192,92027,1,0,3:0:0:0:
64,192,92249,1,0,0:0:0:0:
448,192,92249,1,2,0:0:0:0:
192,192,92472,1,8,0:0:0:0:
320,192,92694,1,2,0:0:0:0:
64,192,92694,1,0,0:0:0:0:
192,192,92916,1,0,3:0:0:0:
64,192,92916,1,0,0:0:0:0:
448,192,93138,1,2,0:0:0:0:
192,192,93361,1,8,0:0:0:0:
64,192,93361,1,0,0:0:0:0:
448,192,93583,1,2,0:0:0:0:
320,192,93583,1,0,0:0:0:0:
64,192,93805,128,0,94249:3:0:0:0:
448,192,93805,1,2,1:0:0:0:
192,192,94027,1,2,0:0:0:0:
320,192,94249,1,8,0:0:0:0:
64,192,94472,128,0,94694:0:0:0:0:
448,192,94472,1,2,0:0:0:0:
192,192,94694,1,0,3:0:0:0:
320,192,94694,1,0,0:0:0:0:
64,192,94916,1,2,0:0:0:0:
448,192,95138,1,8,0:0:0:0:
320,192,95138,1,0,0:0:0:0:
320,192,95361,1,2,0:0:0:0:
64,192,95361,1,0,0:0:0:0:
192,192,95583,1,0,3:0:0:0:
64,192,95805,1,2,0:0:0:0:
320,192,96027,1,0,0:0:0:0:
192,192,96027,1,8,0:0:0:0:
192,192,96249,1,0,0:0:0:0:
448,192,96249,1,2,0:0:0:0:
64,192,96472,1,0,3:0:0:0:
320,192,96694,1,2,0:0:0:0:
192,192,96694,1,0,0:0:0:0:
320,192,96916,1,8,0:0:0:0:
64,192,96916,1,0,0:0:0:0:
448,192,97138,1,2,0:0:0:0:
192,192,97138,1,0,0:0:0:0:
64,192,97361,128,2,97805:1:0:0:0:
192,192,97361,1,0,3:0:0:0:
448,192,97583,1,2,0:0:0:0:
320,192,97805,1,8,0:0:0:0:
192,192,97805,128,0,98249:0:0:0:0:
64,192,98027,1,2,0:0:0:0:
320,192,98249,1,0,3:0:0:0:
448,192,98249,1,0,0:0:0:0:
64,192,98472,1,2,0:0:0:0:
448,192,98694,1,8,0:0:0:0:
320,192,98694,1,0,0:0:0:0:
192,192,98916,1,2,0:0:0:0:
448,192,98916,1,0,0:0:0:0:
64,192,99138,1,0,3:0:0:0:
320,192,99361,1,0,0:0:0:0:
192,192,99361,1,2,0:0:0:0:
192,192,99583,1,8,0:0:0:0:
448,192,99583,1,0,0:0:0:0:
64,192,99805,1,0,0:0:0:0:
320,192,99805,1,2,0:0:0:0:
64,192,100027,1,0,3:0:0:0:
192,192,100249,1,0,0:0:0:0:
320,192,100249,1,2,0:0:0:0:
448,192,100472,1,8,0:0:0:0:
64,192,100472,1,0,0:0:0:0:
320,192,100694,1,0,0:0:0:0:
448,192,100694,1,2,0:0:0:0:
192,192,100916,128,2,101361:1:0:0:0:
64,192,100916,1,0,3:0:0:0:
448,192,101138,1,2,0:0:0:0:
64,192,101361,1,0,0:0:0:0:
320,192,101361,1,8,0:0:0:0:
448,192,101583,1,2,0:0:0:0:
192,192,101583,1,0,0:0:0:0:
64,192,101805,128,0,102249:0:0:0:0:
448,192,101805,1,0,3:0:0:0:
320,192,102027,1,2,0:0:0:0:
448,192,102249,1,8,0:0:0:0:
192,192,102249,1,0,0:0:0:0:
320,192,102472,128,0,102916:0:0:0:0:
64,192,102472,1,2,0:0:0:0:
448,192,102694,1,0,3:0:0:0:
64,192,102916,128,0,103361:0:0:0:0:
192,192,102916,1,2,0:0:0:0:
320,192,103138,1,8,0:0:0:0:
448,192,103361,128,2,104472:0:0:0:0:
64,192,103583,1,0,3:0:0:0:
192,192,103583,1,4,0:0:0:0:
320,192,103805,1,2,0:0:0:0:
192,192,103916,1,2,0:0:0:0:
64,192,104027,1,8,0:0:0:0:
320,192,104249,1,2,0:0:0:0:
192,192,104472,1,0,3:0:0:0:
64,192,104472,1,6,0:0:0:0:
320,192,104583,1,2,0:0:0:0:
64,192,104694,1,2,0:0:0:0:
448,192,104694,1,2,0:0:0:0:
192,192,104805,1,2,0:0:0:0:
320,192,104916,1,6,0:0:0:0:
448,192,104916,1,0,3:0:0:0:
192,192,105138,1,6,0:0:0:0:
64,192,105138,1,0,3:0:0:0:
320,192,105361,1,6,0:0:0:0:
448,192,105361,1,0,3:0:0:0:
192,192,105583,1,2,0:0:0:0:
64,192,105805,1,0,0:0:0:0:
448,192,105805,1,8,0:0:0:0:
320,192,106027,1,2,0:0:0:0:
192,192,106027,1,0,0:0:0:0:
448,192,106249,1,0,3:0:0:0:
320,192,106472,1,2,0:0:0:0:
64,192,106472,1,0,0:0:0:0:
192,192,106694,1,8,0:0:0:0:
320,192,106916,1,0,0:0:0:0:
448,192,106916,1,2,0:0:0:0:
64,192,107138,1,0,3:0:0:0:
448,192,107138,1,0,0:0:0:0:
192,192,107361,1,2,0:0:0:0:
320,192,107583,1,8,0:0:0:0:
64,192,107583,1,0,0:0:0:0:
448,192,107805,1,2,0:0:0:0:
192,192,107805,1,0,0:0:0:0:
320,192,108027,1,0,3:0:0:0:
448,192,108027,128,2,108472:1:0:0:0:
192,192,108249,1,2,0:0:0:0:
320,192,108472,1,8,0:0:0:0:
64,192,108472,1,0,0:0:0:0:
448,192,108694,1,0,0:0:0:0:
320,192,108694,1,2,0:0:0:0:
192,192,108916,1,0,3:0:0:0:
448,192,108916,1,0,0:0:0:0:
64,192,109138,1,2,0:0:0:0:
320,192,109361,1,0,0:0:0:0:
448,192,109361,1,8,0:0:0:0:
192,192,109583,1,0,0:0:0:0:
64,192,109583,1,2,0:0:0:0:
320,192,109805,1,0,3:0:0:0:
448,192,110027,1,2,0:0:0:0:
192,192,110249,1,0,0:0:0:0:
320,192,110249,1,8,0:0:0:0:
64,192,110472,1,0,0:0:0:0:
448,192,110472,1,2,0:0:0:0:
320,192,110694,1,0,3:0:0:0:
64,192,110916,1,2,0:0:0:0:
320,192,111138,1,8,0:0:0:0:
448,192,111138,1,0,0:0:0:0:
64,192,111361,1,2,0:0:0:0:
192,192,111361,1,0,0:0:0:0:
320,192,111583,128,2,112027:1:0:0:0:
448,192,111583,1,0,3:0:0:0:
192,192,111805,1,2,0:0:0:0:
448,192,112027,1,8,0:0:0:0:
64,192,112027,128,0,112472:0:0:0:0:
192,192,112249,128,2,112472:0:0:0:0:
448,192,112472,1,6,0:0:0:0:
320,192,112472,1,0,3:0:0:0:
192,192,112694,1,2,0:0:0:0:
64,192,112916,1,0,0:0:0:0:
448,192,112916,1,8,0:0:0:0:
320,192,113138,1,2,0:0:0:0:
64,192,113138,1,0,0:0:0:0:
192,192,113361,1,0,3:0:0:0:
448,192,113583,1,2,0:0:0:0:
320,192,113583,1,0,0:0:0:0:
192,192,113805,1,8,0:0:0:0:
320,192,114027,1,2,0:0:0:0:
64,192,114027,1,0,0:0:0:0:
64,192,114249,1,0,0:0:0:0:
192,192,114249,1,0,3:0:0:0:
448,192,114472,1,2,0:0:0:0:
320,192,114694,1,8,0:0:0:0:
192,192,114694,1,0,0:0:0:0:
320,192,114916,1,0,0:0:0:0:
448,192,114916,1,2,0:0:0:0:
64,192,115138,128,2,115583:1:0:0:0:
192,192,115138,1,0,3:0:0:0:
320,192,115361,1,2,0:0:0:0:
192,192,115583,1,0,0:0:0:0:
448,192,115583,1,8,0:0:0:0:
448,192,115805,1,2,0:0:0:0:
320,192,115805,1,0,0:0:0:0:
64,192,116027,1,0,0:0:0:0:
448,192,116027,1,0,3:0:0:0:
192,192,116249,1,2,0:0:0:0:
320,192,116249,1,0,0:0:0:0:
64,192,116472,1,0,0:0:0:0:
320,192,116472,1,8,0:0:0:0:
448,192,116694,1,0,0:0:0:0:
192,192,116694,1,2,0:0:0:0:
320,192,116916,1,0,3:0:0:0:
192,192,117138,1,2,0:0:0:0:
64,192,117138,1,0,0:0:0:0:
448,192,117361,1,8,0:0:0:0:
192,192,117361,1,0,0:0:0:0:
320,192,117583,1,2,0:0:0:0:
448,192,117583,1,0,0:0:0:0:
192,192,117805,1,4,0:0:0:0:
64,192,117805,1,0,3:0:0:0:
320,192,117805,1,2,0:0:0:0:
320,192,118027,1,2,0:0:0:0:
448,192,118138,1,2,0:0:0:0:
192,192,118138,1,0,0:0:0:0:
320,192,118249,1,0,0:0:0:0:
64,192,118249,1,8,0:0:0:0:
192,192,118472,1,0,0:0:0:0:
448,192,118472,1,2,0:0:0:0:
320,192,118694,1,2,0:0:0:0:
64,192,118694,1,4,0:0:0:0:
448,192,118694,1,0,3:0:0:0:
64,192,118805,1,2,0:0:0:0:
320,192,118916,1,2,0:0:0:0:
320,192,119027,1,2,0:0:0:0:
64,192,119138,1,4,0:0:0:0:
192,192,119138,1,0,3:0:0:0:
448,192,119138,1,2,0:0:0:0:
64,192,119361,1,4,0:0:0:0:
320,192,119361,1,0,3:0:0:0:
448,192,119361,1,2,0:0:0:0:
64,192,119583,1,4,0:0:0:0:
192,192,119583,1,0,3:0:0:0:
448,192,119583,1,2,0:0:0:0:
320,192,119805,1,0,0:0:0:0:
192,192,120027,1,0,0:0:0:0:
64,192,120249,1,0,0:0:0:0:
448,192,120249,1,0,0:0:0:0:
192,192,120694,1,0,0:0:0:0:
320,192,120916,1,0,0:0:0:0:
64,192,121138,1,0,0:0:0:0:
448,192,121138,1,0,0:0:0:0:
192,192,121361,1,0,0:0:0:0:
320,192,121361,1,0,0:0:0:0:
448,192,121805,1,0,0:0:0:0:
192,192,122027,1,0,0:0:0:0:
320,192,122027,1,0,0:0:0:0:
64,192,122472,1,0,0:0:0:0:
192,192,122694,1,0,0:0:0:0:
320,192,122694,1,0,0:0:0:0:
320,192,122916,1,0,0:0:0:0:
448,192,122916,1,0,0:0:0:0:
64,192,123138,1,0,0:0:0:0:
192,192,123138,1,0,0:0:0:0:
320,192,123361,1,0,0:0:0:0:
192,192,123583,1,0,0:0:0:0:
448,192,123583,1,0,0:0:0:0:
448,192,123805,1,0,0:0:0:0:
64,192,123805,1,0,0:0:0:0:
192,192,124249,1,0,0:0:0:0:
448,192,124472,1,0,0:0:0:0:
64,192,124472,1,0,0:0:0:0:
448,192,124694,1,0,0:0:0:0:
320,192,124694,1,0,0:0:0:0:
64,192,124916,1,0,0:0:0:0:
320,192,125361,1,0,0:0:0:0:
64,192,125361,128,0,125583:0:0:0:0:
448,192,125583,1,0,0:0:0:0:
192,192,125583,1,0,0:0:0:0:
64,192,126027,1,0,0:0:0:0:
320,192,126249,1,0,0:0:0:0:
448,192,126249,128,0,126472:0:0:0:0:
192,192,126472,1,0,0:0:0:0:
320,192,126694,1,0,0:0:0:0:
64,192,126916,1,0,0:0:0:0:
192,192,127138,1,0,0:0:0:0:
320,192,127138,1,0,0:0:0:0:
64,192,127361,1,0,0:0:0:0:
448,192,127361,1,0,0:0:0:0:
448,192,127805,1,0,0:0:0:0:
320,192,128027,1,0,0:0:0:0:
448,192,128249,1,0,0:0:0:0:
192,192,128249,1,0,0:0:0:0:
64,192,128472,1,0,0:0:0:0:
320,192,128694,1,0,0:0:0:0:
448,192,129138,1,0,0:0:0:0:
64,192,129138,1,0,0:0:0:0:
64,192,129583,1,0,0:0:0:0:
320,192,129583,1,0,0:0:0:0:
192,192,130249,1,0,0:0:0:0:
64,192,130249,1,0,0:0:0:0:
320,192,130472,1,0,0:0:0:0:
448,192,130694,1,0,0:0:0:0:
64,192,130694,1,0,0:0:0:0:
192,192,130916,1,0,0:0:0:0:
320,192,130916,1,0,0:0:0:0:
64,192,131361,1,0,0:0:0:0:
448,192,131583,1,0,0:0:0:0:
320,192,131583,1,0,0:0:0:0:
192,192,131805,1,0,0:0:0:0:
320,192,131805,1,0,0:0:0:0:
192,192,132249,1,0,0:0:0:0:
64,192,132472,1,0,0:0:0:0:
320,192,132472,1,0,0:0:0:0:
448,192,132694,128,0,133805:0:0:0:0:
64,192,133138,128,0,133694:0:0:0:0:
192,192,133361,128,0,133694:0:0:0:0:
320,192,133583,128,0,133805:0:0:0:0:
192,192,133805,1,4,0:0:0:0:
64,192,133805,1,0,3:0:0:0:
64,192,134027,1,0,0:0:0:0:
192,192,134138,1,0,3:0:0:0:
320,192,134249,1,0,0:0:0:0:
448,192,134472,1,0,3:0:0:0:
192,192,134472,1,0,0:0:0:0:
64,192,134694,1,0,0:0:0:0:
448,192,134694,1,8,0:0:0:0:
320,192,134916,1,0,0:0:0:0:
192,192,135027,1,0,0:0:0:0:
448,192,135138,1,0,3:0:0:0:
64,192,135138,1,0,0:0:0:0:
320,192,135361,1,0,0:0:0:0:
64,192,135583,1,0,0:0:0:0:
448,192,135583,1,0,3:0:0:0:
320,192,135805,1,0,0:0:0:0:
192,192,135916,1,0,3:0:0:0:
64,192,136027,1,0,0:0:0:0:
192,192,136249,1,0,0:0:0:0:
448,192,136249,1,0,3:0:0:0:
64,192,136472,1,0,0:0:0:0:
448,192,136472,1,8,0:0:0:0:
320,192,136694,1,0,0:0:0:0:
192,192,136805,1,0,0:0:0:0:
64,192,136916,1,0,0:0:0:0:
448,192,136916,1,0,3:0:0:0:
320,192,137138,1,0,0:0:0:0:
192,192,137361,1,0,0:0:0:0:
448,192,137361,1,0,3:0:0:0:
64,192,137361,1,4,0:0:0:0:
192,192,137583,1,0,0:0:0:0:
320,192,137694,1,0,3:0:0:0:
64,192,137805,1,0,0:0:0:0:
192,192,138027,1,0,0:0:0:0:
448,192,138027,1,0,3:0:0:0:
64,192,138249,1,0,0:0:0:0:
448,192,138249,1,8,0:0:0:0:
192,192,138472,1,0,0:0:0:0:
320,192,138583,1,0,0:0:0:0:
64,192,138694,1,0,0:0:0:0:
448,192,138694,1,0,3:0:0:0:
320,192,138916,1,0,0:0:0:0:
64,192,139138,1,0,3:0:0:0:
448,192,139138,128,0,139361:0:0:0:0:
320,192,139361,128,0,139583:0:0:0:0:
192,192,139472,1,0,3:0:0:0:
64,192,139583,128,0,139805:0:0:0:0:
320,192,139805,128,0,140027:0:0:0:0:
448,192,139805,1,0,3:0:0:0:
64,192,140027,1,0,0:0:0:0:
448,192,140027,1,8,0:0:0:0:
192,192,140249,1,0,0:0:0:0:
320,192,140361,1,0,0:0:0:0:
448,192,140472,1,0,3:0:0:0:
64,192,140472,1,0,0:0:0:0:
192,192,140694,1,0,0:0:0:0:
64,192,140916,1,0,0:0:0:0:
192,192,140916,1,0,3:0:0:0:
448,192,140916,1,4,0:0:0:0:
320,192,141138,1,0,0:0:0:0:
448,192,141249,1,0,3:0:0:0:
192,192,141361,1,0,0:0:0:0:
64,192,141361,1,0,0:0:0:0:
448,192,141583,1,0,3:0:0:0:
320,192,141583,128,0,141805:0:0:0:0:
64,192,141805,1,0,0:0:0:0:
448,192,141805,1,8,0:0:0:0:
192,192,142027,128,0,142249:0:0:0:0:
320,192,142138,1,0,0:0:0:0:
64,192,142249,1,0,0:0:0:0:
448,192,142249,1,0,3:0:0:0:
320,192,142472,128,0,142694:0:0:0:0:
64,192,142694,1,4,0:0:0:0:
448,192,142694,1,0,3:0:0:0:
192,192,142694,1,0,0:0:0:0:
320,192,142916,1,0,0:0:0:0:
448,192,143027,1,0,3:0:0:0:
192,192,143138,1,0,0:0:0:0:
64,192,143138,1,0,0:0:0:0:
320,192,143361,128,0,143583:0:0:0:0:
448,192,143361,1,0,3:0:0:0:
448,192,143583,1,0,0:0:0:0:
64,192,143583,1,8,0:0:0:0:
192,192,143805,128,0,144027:0:0:0:0:
320,192,143916,1,0,0:0:0:0:
448,192,144027,1,0,3:0:0:0:
64,192,144027,1,0,0:0:0:0:
192,192,144249,128,0,144472:0:0:0:0:
448,192,144472,1,0,3:0:0:0:
64,192,144472,1,4,0:0:0:0:
320,192,144472,128,0,144916:0:0:0:0:
192,192,144694,128,0,144916:0:0:0:0:
448,192,144694,1,0,0:0:0:0:
64,192,144916,1,8,0:0:0:0:
64,192,145138,128,0,145583:0:0:0:0:
320,192,145138,1,0,0:0:0:0:
192,192,145361,128,0,145805:0:0:0:0:
448,192,145361,1,4,0:0:0:0:
320,192,145361,1,0,3:0:0:0:
448,192,145583,128,0,145805:0:0:0:0:
320,192,145583,1,0,0:0:0:0:
64,192,145805,1,8,0:0:0:0:
448,192,146027,128,0,146249:0:0:0:0:
320,192,146027,1,0,0:0:0:0:
64,192,146249,1,0,3:0:0:0:
192,192,146249,1,4,0:0:0:0:
320,192,146249,1,0,0:0:0:0:
448,192,146472,128,0,146694:0:0:0:0:
192,192,146694,1,8,0:0:0:0:
64,192,146694,1,0,3:0:0:0:
448,192,146916,128,0,147138:0:0:0:0:
192,192,147138,1,0,0:0:0:0:
64,192,147138,1,0,3:0:0:0:
320,192,147361,1,0,0:0:0:0:
64,192,147472,128,0,147805:3:0:0:0:
192,192,147583,1,8,0:0:0:0:
448,192,147583,1,0,0:0:0:0:
448,192,147805,128,0,148027:3:0:0:0:
320,192,148027,1,6,0:0:0:0:
64,192,148027,128,0,148249:3:0:0:0:
448,192,148249,128,2,148472:0:0:0:0:
192,192,148249,1,0,0:0:0:0:
320,192,148472,128,2,148694:0:0:0:0:
64,192,148472,1,0,3:0:0:0:
192,192,148694,128,0,149138:0:0:0:0:
448,192,148694,128,2,149138:0:0:0:0:
64,192,148916,1,0,3:0:0:0:
64,192,149361,128,0,149583:3:0:0:0:
320,192,149361,128,2,149583:0:0:0:0:
448,192,149805,128,4,150694:0:0:0:0:
192,192,149805,1,0,3:0:0:0:
64,192,149805,1,2,0:0:0:0:
64,192,150249,1,0,3:0:0:0:
320,192,150694,1,0,3:0:0:0:
64,192,150694,128,0,151138:0:0:0:0:
192,192,150805,1,0,0:0:0:0:
320,192,150805,1,0,3:0:0:0:
448,192,150916,1,0,3:0:0:0:
448,192,151138,128,0,151472:0:0:0:0:
320,192,151138,1,0,3:0:0:0:
192,192,151249,1,0,0:0:0:0:
320,192,151249,1,0,3:0:0:0:
192,192,151361,1,0,0:0:0:0:
64,192,151361,1,0,3:0:0:0:
62,192,151472,1,0,3:0:0:0:
448,192,151583,1,2,0:0:0:0:
192,192,151583,1,0,3:0:0:0:
320,192,151583,1,4,0:0:0:0:
64,192,151805,1,0,0:0:0:0:
320,192,151805,1,0,0:0:0:0:
448,192,152027,1,8,0:0:0:0:
64,192,152027,1,0,0:0:0:0:
192,192,152249,1,0,0:0:0:0:
320,192,152249,1,0,0:0:0:0:
64,192,152472,1,2,0:0:0:0:
448,192,152694,1,0,0:0:0:0:
320,192,152694,1,0,0:0:0:0:
192,192,152916,1,8,0:0:0:0:
64,192,152916,1,0,0:0:0:0:
320,192,153138,1,0,0:0:0:0:
64,192,153138,1,0,0:0:0:0:
320,192,153361,1,2,0:0:0:0:
192,192,153361,1,0,0:0:0:0:
448,192,153583,1,0,0:0:0:0:
320,192,153805,1,8,0:0:0:0:
192,192,153805,1,0,0:0:0:0:
64,192,154027,1,0,0:0:0:0:
448,192,154027,1,0,0:0:0:0:
320,192,154249,128,2,154694:0:0:0:0:
448,192,154249,1,0,0:0:0:0:
192,192,154472,1,0,0:0:0:0:
64,192,154694,1,8,0:0:0:0:
448,192,154916,1,0,0:0:0:0:
320,192,154916,128,0,155138:0:0:0:0:
64,192,155138,1,0,0:0:0:0:
192,192,155138,1,2,0:0:0:0:
320,192,155361,1,0,0:0:0:0:
64,192,155583,1,0,0:0:0:0:
448,192,155583,1,8,0:0:0:0:
320,192,155805,1,0,0:0:0:0:
64,192,155805,1,0,0:0:0:0:
192,192,156027,1,2,0:0:0:0:
320,192,156249,1,0,0:0:0:0:
192,192,156472,1,8,0:0:0:0:
64,192,156472,1,0,0:0:0:0:
448,192,156694,1,0,0:0:0:0:
192,192,156694,1,0,0:0:0:0:
320,192,156916,1,2,0:0:0:0:
192,192,157138,1,0,0:0:0:0:
64,192,157138,1,0,0:0:0:0:
320,192,157361,1,8,0:0:0:0:
64,192,157361,1,0,0:0:0:0:
192,192,157583,1,0,0:0:0:0:
448,192,157583,1,0,0:0:0:0:
192,192,157805,1,2,0:0:0:0:
320,192,157805,128,0,158249:0:0:0:0:
448,192,158027,1,0,0:0:0:0:
192,192,158249,128,0,158694:0:0:0:0:
64,192,158249,1,8,0:0:0:0:
320,192,158472,1,0,0:0:0:0:
448,192,158694,1,0,0:0:0:0:
64,192,158694,1,2,0:0:0:0:
64,192,158916,1,0,0:0:0:0:
192,192,159138,1,0,0:0:0:0:
320,192,159138,1,8,0:0:0:0:
192,192,159361,1,0,0:0:0:0:
448,192,159361,1,0,0:0:0:0:
64,192,159583,1,2,0:0:0:0:
320,192,159805,1,0,0:0:0:0:
448,192,159805,1,0,0:0:0:0:
192,192,160027,1,0,0:0:0:0:
448,192,160027,1,8,0:0:0:0:
64,192,160249,1,0,0:0:0:0:
320,192,160249,1,0,0:0:0:0:
64,192,160472,1,2,0:0:0:0:
448,192,160694,1,0,0:0:0:0:
320,192,160694,1,0,0:0:0:0:
192,192,160916,1,8,0:0:0:0:
64,192,160916,1,0,0:0:0:0:
192,192,161138,1,0,0:0:0:0:
320,192,161138,1,0,0:0:0:0:
448,192,161361,128,0,161805:0:0:0:0:
64,192,161361,1,2,0:0:0:0:
192,192,161583,1,0,0:0:0:0:
320,192,161805,1,8,0:0:0:0:
64,192,161805,1,0,0:0:0:0:
448,192,162027,1,0,0:0:0:0:
192,192,162027,1,0,0:0:0:0:
192,192,162249,1,2,0:0:0:0:
64,192,162249,128,0,162694:0:0:0:0:
320,192,162472,1,0,0:0:0:0:
448,192,162694,1,8,0:0:0:0:
192,192,162694,1,0,0:0:0:0:
64,192,162916,1,0,0:0:0:0:
320,192,162916,128,0,163361:0:0:0:0:
192,192,163138,1,2,0:0:0:0:
64,192,163361,128,0,163805:0:0:0:0:
448,192,163361,1,0,0:0:0:0:
320,192,163583,1,8,0:0:0:0:
192,192,163805,128,0,164916:0:0:0:0:
448,192,164027,1,4,0:0:0:0:
64,192,164027,1,0,0:0:0:0:
320,192,164249,1,0,0:0:0:0:
448,192,164361,1,0,0:0:0:0:
64,192,164472,1,8,0:0:0:0:
320,192,164694,1,0,0:0:0:0:
64,192,164916,1,2,0:0:0:0:
448,192,164916,1,4,0:0:0:0:
320,192,165027,1,0,0:0:0:0:
192,192,165138,1,0,0:0:0:0:
64,192,165138,1,0,0:0:0:0:
448,192,165249,1,0,0:0:0:0:
320,192,165361,1,4,0:0:0:0:
192,192,165361,1,2,0:0:0:0:
64,192,165472,1,0,0:0:0:0:
448,192,165583,1,4,0:0:0:0:
320,192,165583,1,2,0:0:0:0:
192,192,165694,1,0,0:0:0:0:
64,192,165805,1,2,0:0:0:0:
448,192,165805,1,4,0:0:0:0:
320,192,165805,1,0,0:0:0:0:
192,192,166027,1,0,0:0:0:0:
320,192,166249,1,0,0:0:0:0:
448,192,166249,1,8,0:0:0:0:
192,192,166472,1,0,0:0:0:0:
64,192,166472,1,0,0:0:0:0:
448,192,166694,1,2,0:0:0:0:
320,192,166916,1,0,0:0:0:0:
192,192,166916,1,0,0:0:0:0:
64,192,167138,1,8,0:0:0:0:
448,192,167138,1,0,0:0:0:0:
448,192,167361,1,0,0:0:0:0:
192,192,167361,1,0,0:0:0:0:
448,192,167583,1,2,0:0:0:0:
320,192,167583,1,0,0:0:0:0:
64,192,167805,1,0,0:0:0:0:
320,192,168027,1,0,0:0:0:0:
192,192,168027,1,8,0:0:0:0:
448,192,168249,1,0,0:0:0:0:
64,192,168249,1,0,0:0:0:0:
192,192,168472,1,2,0:0:0:0:
448,192,168472,128,0,168916:0:0:0:0:
64,192,168694,1,0,0:0:0:0:
192,192,168916,1,0,0:0:0:0:
320,192,168916,1,8,0:0:0:0:
448,192,169138,1,0,0:0:0:0:
192,192,169138,1,0,0:0:0:0:
64,192,169361,1,0,0:0:0:0:
448,192,169361,1,2,0:0:0:0:
320,192,169583,1,0,0:0:0:0:
448,192,169805,1,8,0:0:0:0:
192,192,169805,1,0,0:0:0:0:
64,192,170027,1,0,0:0:0:0:
320,192,170027,1,0,0:0:0:0:
192,192,170249,1,2,0:0:0:0:
448,192,170472,1,0,0:0:0:0:
64,192,170694,1,0,0:0:0:0:
192,192,170694,1,8,0:0:0:0:
320,192,170916,1,0,0:0:0:0:
448,192,170916,1,0,0:0:0:0:
192,192,171138,1,2,0:0:0:0:
320,192,171361,1,0,0:0:0:0:
192,192,171583,1,0,0:0:0:0:
448,192,171583,1,8,0:0:0:0:
320,192,171805,1,0,0:0:0:0:
64,192,171805,1,0,0:0:0:0:
192,192,172027,128,0,172472:0:0:0:0:
448,192,172027,1,2,0:0:0:0:
64,192,172249,1,0,0:0:0:0:
320,192,172472,128,0,172916:0:0:0:0:
448,192,172472,1,8,0:0:0:0:
64,192,172694,128,0,172916:0:0:0:0:
448,192,172916,1,4,0:0:0:0:
192,192,172916,1,2,0:0:0:0:
64,192,173138,1,0,0:0:0:0:
320,192,173361,1,8,0:0:0:0:
448,192,173361,1,0,0:0:0:0:
192,192,173583,1,0,0:0:0:0:
320,192,173583,1,0,0:0:0:0:
64,192,173805,1,2,0:0:0:0:
192,192,174027,1,0,0:0:0:0:
448,192,174027,1,0,0:0:0:0:
64,192,174249,1,0,0:0:0:0:
448,192,174249,1,8,0:0:0:0:
192,192,174472,1,0,0:0:0:0:
320,192,174694,1,2,0:0:0:0:
64,192,174694,1,0,0:0:0:0:
448,192,174916,1,0,0:0:0:0:
192,192,175138,1,8,0:0:0:0:
64,192,175138,1,0,0:0:0:0:
192,192,175361,1,0,0:0:0:0:
448,192,175361,1,0,0:0:0:0:
320,192,175583,128,10,176027:0:0:0:0:
192,192,175805,1,0,0:0:0:0:
448,192,175805,1,0,0:0:0:0:
64,192,176027,1,0,0:0:0:0:
192,192,176027,1,8,0:0:0:0:
448,192,176249,1,0,0:0:0:0:
320,192,176249,1,0,0:0:0:0:
192,192,176472,1,0,0:0:0:0:
448,192,176472,1,2,0:0:0:0:
64,192,176472,128,0,176916:0:0:0:0:
320,192,176694,1,0,0:0:0:0:
192,192,176916,1,0,0:0:0:0:
448,192,176916,1,8,0:0:0:0:
64,192,177138,128,0,177583:0:0:0:0:
448,192,177138,1,0,0:0:0:0:
192,192,177361,1,2,0:0:0:0:
320,192,177583,128,0,178027:0:0:0:0:
448,192,177583,1,0,0:0:0:0:
64,192,177805,1,8,0:0:0:0:
448,192,178027,128,0,178249:0:0:0:0:
192,192,178027,1,0,0:0:0:0:
64,192,178249,128,0,179138:0:0:0:0:
320,192,178249,1,2,0:0:0:0:
192,192,178249,1,4,0:0:0:0:
448,192,178472,1,0,0:0:0:0:
320,192,178583,1,0,0:0:0:0:
192,192,178694,1,8,0:0:0:0:
320,192,178916,1,0,0:0:0:0:
192,192,179027,1,0,0:0:0:0:
448,192,179138,1,0,0:0:0:0:
320,192,179138,1,2,0:0:0:0:
64,192,179249,1,0,0:0:0:0:
448,192,179361,1,0,0:0:0:0:
64,192,179472,1,0,0:0:0:0:
320,192,179583,1,8,0:0:0:0:
448,192,179583,1,0,0:0:0:0:
64,192,179694,1,0,0:0:0:0:
192,192,179805,1,0,0:0:0:0:
320,192,179805,1,8,0:0:0:0:
64,192,179916,1,0,0:0:0:0:
320,192,180027,1,2,0:0:0:0:
448,192,180027,1,4,0:0:0:0:
192,192,180249,1,0,0:0:0:0:
64,192,180472,1,0,0:0:0:0:
320,192,180694,128,0,181138:0:0:0:0:
448,192,181138,128,0,181361:0:0:0:0:
64,192,181361,128,0,181805:0:0:0:0:
192,192,181805,1,0,0:0:0:0:
320,192,182027,1,0,0:0:0:0:
64,192,182249,1,0,0:0:0:0:
192,192,182472,128,0,183138:0:0:0:0:
64,192,183138,128,0,183472:0:0:0:0:
192,192,183472,1,0,0:0:0:0:
320,192,183527,1,0,0:0:0:0:
448,192,183583,128,0,185138:0:0:0:0:
64,192,183805,1,0,0:0:0:0:
192,192,184027,1,0,0:0:0:0:
320,192,184249,128,0,185194:0:0:0:0:
192,192,184694,128,0,185249:0:0:0:0:
64,192,185138,1,0,0:0:0:0:
448,192,185249,128,0,188361:0:0:0:0:
320,192,185305,128,0,188694:0:0:0:0:
192,192,185361,128,0,188583:0:0:0:0:
64,192,187138,128,0,188472:0:0:0:0:
448,192,188472,128,0,188805:0:0:0:0:
64,192,188583,128,0,188694:0:0:0:0:
192,192,188694,128,0,188805:0:0:0:0:
320,192,188805,128,0,188916:0:0:0:0:
192,192,188916,1,0,0:0:0:0:
64,192,188916,1,4,0:0:0:0:
448,192,188916,128,0,189805:0:0:0:0:
320,192,189361,1,8,0:0:0:0:
64,192,189361,1,0,0:0:0:0:
192,192,189805,1,0,0:0:0:0:
64,192,189805,128,0,190138:0:0:0:0:
320,192,190138,1,0,0:0:0:0:
192,192,190138,128,0,190472:0:0:0:0:
448,192,190249,1,8,0:0:0:0:
64,192,190249,1,0,0:0:0:0:
64,192,190472,1,0,0:0:0:0:
320,192,190472,128,0,190694:0:0:0:0:
192,192,190694,1,0,0:0:0:0:
448,192,190694,128,0,191361:0:0:0:0:
320,192,191138,1,8,0:0:0:0:
64,192,191138,1,0,0:0:0:0:
192,192,191361,128,0,191583:0:0:0:0:
320,192,191583,1,2,0:0:0:0:
448,192,191583,128,0,191916:0:0:0:0:
64,192,191583,128,0,192249:0:0:0:0:
192,192,191916,128,0,192249:0:0:0:0:
448,192,192027,1,8,0:0:0:0:
320,192,192027,1,0,0:0:0:0:
320,192,192249,128,0,192472:0:0:0:0:
192,192,192472,1,0,0:0:0:0:
64,192,192472,128,0,192805:0:0:0:0:
320,192,192805,128,0,193138:0:0:0:0:
64,192,192916,1,0,0:0:0:0:
192,192,192916,1,8,0:0:0:0:
448,192,193138,128,0,194027:0:0:0:0:
320,192,193361,1,0,0:0:0:0:
64,192,193472,1,0,0:0:0:0:
320,192,193583,1,0,0:0:0:0:
192,192,193805,1,8,0:0:0:0:
64,192,193805,1,0,0:0:0:0:
64,192,194027,1,0,0:0:0:0:
320,192,194027,128,0,194472:0:0:0:0:
192,192,194249,128,0,194694:0:0:0:0:
448,192,194249,1,0,0:0:0:0:
448,192,194472,128,0,194916:0:0:0:0:
64,192,194472,1,0,0:0:0:0:
64,192,194694,128,0,195138:0:0:0:0:
320,192,194694,1,8,0:0:0:0:
320,192,194916,128,0,195138:0:0:0:0:
192,192,194916,1,0,0:0:0:0:
192,192,195138,128,2,195583:0:0:0:0:
448,192,195138,128,0,195361:0:0:0:0:
320,192,195361,128,0,195805:0:0:0:0:
64,192,195361,1,0,0:0:0:0:
64,192,195583,128,0,195805:0:0:0:0:
448,192,195583,1,8,0:0:0:0:
192,192,195805,128,0,195916:0:0:0:0:
320,192,195916,128,0,196027:0:0:0:0:
64,192,196027,1,0,0:0:0:0:
192,192,196027,1,4,0:0:0:0:
448,192,196027,128,0,197361:0:0:0:0:
64,192,196472,1,0,0:0:0:0:
192,192,196472,1,8,0:0:0:0:
320,192,196694,1,0,0:0:0:0:
192,192,196805,1,0,0:0:0:0:
64,192,196916,128,0,197805:0:0:0:0:
320,192,197027,1,0,0:0:0:0:
192,192,197138,1,0,0:0:0:0:
320,192,197361,1,8,0:0:0:0:
192,192,197361,1,0,0:0:0:0:
448,192,197583,1,0,0:0:0:0:
192,192,197805,128,0,198138:0:0:0:0:
320,192,197805,1,0,0:0:0:0:
320,192,198138,128,0,198472:0:0:0:0:
448,192,198138,1,0,0:0:0:0:
64,192,198249,1,0,0:0:0:0:
192,192,198249,1,8,0:0:0:0:
448,192,198472,128,0,198694:0:0:0:0:
192,192,198472,1,0,0:0:0:0:
64,192,198694,128,0,199027:0:0:0:0:
320,192,198694,1,2,0:0:0:0:
320,192,199027,128,0,199361:0:0:0:0:
192,192,199027,1,0,0:0:0:0:
64,192,199138,1,0,0:0:0:0:
448,192,199138,1,8,0:0:0:0:
64,192,199361,128,0,199583:0:0:0:0:
448,192,199361,1,0,0:0:0:0:
192,192,199472,128,0,199583:0:0:0:0:
320,192,199583,128,0,199694:0:0:0:0:
448,192,199583,128,4,201361:0:0:0:0:
192,192,199916,128,0,200027:0:0:0:0:
320,192,200027,1,8,0:0:0:0:
64,192,200249,128,0,200361:0:0:0:0:
192,192,200472,1,0,0:0:0:0:
320,192,200472,1,0,0:0:0:0:
64,192,200583,1,0,0:0:0:0:
192,192,200694,1,0,0:0:0:0:
320,192,200916,1,8,0:0:0:0:
64,192,200916,1,0,0:0:0:0:
192,192,201138,128,0,201361:0:0:0:0:
320,192,201361,128,0,201694:0:0:0:0:
64,192,201361,1,0,0:0:0:0:
192,192,201694,128,0,202027:0:0:0:0:
64,192,201694,1,0,0:0:0:0:
448,192,201805,1,8,0:0:0:0:
320,192,201805,1,0,0:0:0:0:
64,192,202027,128,0,202472:0:0:0:0:
448,192,202027,1,0,0:0:0:0:
192,192,202249,1,0,0:0:0:0:
448,192,202249,1,2,0:0:0:0:
320,192,202361,1,0,0:0:0:0:
448,192,202472,128,0,202694:0:0:0:0:
192,192,202694,128,0,202916:0:0:0:0:
64,192,202694,1,8,0:0:0:0:
320,192,202916,128,0,203138:0:0:0:0:
64,192,202916,1,0,0:0:0:0:
448,192,203138,128,0,204027:0:0:0:0:
192,192,203138,1,4,0:0:0:0:
320,192,203361,1,0,0:0:0:0:
192,192,203472,128,0,203805:0:0:0:0:
64,192,203583,128,8,204027:0:0:0:0:
320,192,203805,128,0,204027:0:0:0:0:
192,192,204027,128,0,204249:0:0:0:0:
448,192,204138,1,0,0:0:0:0:
64,192,204249,128,0,204472:0:0:0:0:
320,192,204249,1,0,0:0:0:0:
192,192,204472,128,0,204694:0:0:0:0:
448,192,204472,1,8,0:0:0:0:
320,192,204694,128,0,204916:0:0:0:0:
64,192,204694,1,0,0:0:0:0:
448,192,204916,128,4,205138:0:0:0:0:
192,192,204916,1,0,0:0:0:0:
64,192,204916,128,0,205805:0:0:0:0:
192,192,205138,1,0,0:0:0:0:
448,192,205249,128,0,205694:0:0:0:0:
320,192,205249,1,0,0:0:0:0:
192,192,205361,1,8,0:0:0:0:
320,192,205583,1,0,0:0:0:0:
192,192,205694,1,0,0:0:0:0:
320,192,205805,128,0,206027:0:0:0:0:
448,192,205805,128,4,206472:0:0:0:0:
192,192,205916,1,0,0:0:0:0:
64,192,206027,1,0,0:0:0:0:
320,192,206138,128,0,206472:0:0:0:0:
192,192,206249,1,8,0:0:0:0:
64,192,206472,128,0,206694:0:0:0:0:
192,192,206472,1,0,0:0:0:0:
192,192,206694,1,0,0:0:0:0:
320,192,206694,128,0,206805:0:0:0:0:
448,192,206694,128,4,207583:0:0:0:0:
320,192,206916,1,2,0:0:0:0:
64,192,207027,1,8,0:0:0:0:
192,192,207027,128,0,207249:0:0:0:0:
320,192,207138,128,2,207361:0:0:0:0:
64,192,207361,128,8,207583:0:0:0:0:
192,192,207361,1,0,0:0:0:0:
320,192,207583,1,4,0:0:0:0:
192,192,207583,1,0,0:0:0:0:
64,192,207694,1,0,0:0:0:0:
448,192,207694,1,0,0:0:0:0:
192,192,207805,1,2,0:0:0:0:
448,192,207916,1,0,0:0:0:0:
320,192,207916,1,8,0:0:0:0:
64,192,208027,1,0,0:0:0:0:
192,192,208027,1,2,0:0:0:0:
448,192,208249,128,0,209916:0:0:0:0:
320,192,208249,128,8,209472:0:0:0:0:
192,192,208472,128,4,209027:0:0:0:0:
64,192,208472,128,0,208583:0:0:0:0:
64,192,208694,128,0,210361:0:0:0:0:
192,192,209138,128,0,210805:0:0:0:0:
320,192,209583,1,0,0:0:0:0:
320,192,209694,128,0,211916:0:0:0:0:
448,192,210027,1,0,0:0:0:0:
448,192,210138,128,0,211916:0:0:0:0:
64,192,210472,1,0,0:0:0:0:
64,192,210583,128,0,211916:0:0:0:0:
192,192,210916,1,0,0:0:0:0:
192,192,211027,128,0,211916:0:0:0:0:
64,192,212027,128,0,215583:0:0:0:0:
320,192,212027,128,2,213805:0:0:0:0:
448,192,213805,128,2,220916:0:0:0:0:
192,192,215583,128,2,217361:0:0:0:0:
320,192,217361,128,2,219138:0:0:0:0:
64,192,218249,128,2,224361:0:0:0:0:
192,192,219138,128,2,224361:0:0:0:0:
320,192,220916,128,2,224361:0:0:0:0:
448,192,222694,128,2,224361:0:0:0:0:
64,192,224472,128,0,225249:0:0:0:0:
448,192,224472,128,0,225249:0:0:0:0:
192,192,224472,1,4,3:0:0:0:
320,192,224472,1,4,0:0:0:0:
320,192,224916,1,0,0:0:0:0:
192,192,224916,1,4,3:0:0:0:
64,192,225361,128,0,225694:0:0:0:0:
448,192,225361,128,0,225694:0:0:0:0:
320,192,225361,1,4,0:0:0:0:
192,192,225361,1,4,3:0:0:0:
320,192,225694,1,0,0:0:0:0:
192,192,225694,1,4,3:0:0:0:
64,192,225805,128,0,226138:0:0:0:0:
448,192,225805,128,0,226138:0:0:0:0:
320,192,225805,1,4,0:0:0:0:
192,192,225805,1,4,3:0:0:0:
320,192,226027,1,0,0:0:0:0:
192,192,226027,1,4,3:0:0:0:
64,192,226249,1,0,0:0:0:0:
448,192,226249,1,0,0:0:0:0:
192,192,226249,1,4,3:0:0:0:
320,192,226249,1,4,0:0:0:0:
192,192,226472,1,2,0:0:0:0:
64,192,226694,1,0,0:0:0:0:
448,192,226694,1,0,0:0:0:0:
320,192,226694,1,8,0:0:0:0:
64,192,226916,1,0,0:0:0:0:
192,192,226916,1,2,0:0:0:0:
448,192,227138,1,0,3:0:0:0:
320,192,227361,1,2,0:0:0:0:
192,192,227361,1,0,0:0:0:0:
320,192,227583,1,8,0:0:0:0:
448,192,227583,1,0,0:0:0:0:
64,192,227583,1,0,0:0:0:0:
320,192,227805,1,2,0:0:0:0:
64,192,227805,1,0,0:0:0:0:
192,192,228027,1,0,0:0:0:0:
448,192,228027,1,0,3:0:0:0:
64,192,228249,1,2,0:0:0:0:
320,192,228472,1,0,0:0:0:0:
448,192,228472,1,8,0:0:0:0:
192,192,228472,1,0,0:0:0:0:
320,192,228694,1,2,0:0:0:0:
192,192,228694,1,0,0:0:0:0:
64,192,228916,128,2,229361:1:0:0:0:
192,192,228916,1,0,3:0:0:0:
448,192,229138,1,2,0:0:0:0:
320,192,229138,1,0,0:0:0:0:
192,192,229361,1,0,0:0:0:0:
448,192,229361,1,8,0:0:0:0:
448,192,229583,1,2,0:0:0:0:
64,192,229583,1,0,0:0:0:0:
192,192,229805,1,0,0:0:0:0:
448,192,229805,1,0,3:0:0:0:
64,192,230027,1,2,0:0:0:0:
192,192,230249,1,0,0:0:0:0:
320,192,230249,1,8,0:0:0:0:
64,192,230249,1,0,0:0:0:0:
320,192,230472,1,0,0:0:0:0:
448,192,230472,1,2,0:0:0:0:
192,192,230694,1,0,0:0:0:0:
448,192,230694,1,0,3:0:0:0:
64,192,230916,1,2,0:0:0:0:
320,192,231138,1,8,0:0:0:0:
192,192,231138,1,0,0:0:0:0:
64,192,231138,1,0,0:0:0:0:
320,192,231361,1,0,0:0:0:0:
448,192,231361,1,2,0:0:0:0:
192,192,231583,1,0,0:0:0:0:
448,192,231583,1,0,3:0:0:0:
64,192,231805,1,0,0:0:0:0:
192,192,231805,1,2,0:0:0:0:
320,192,232027,1,0,0:0:0:0:
448,192,232027,1,8,0:0:0:0:
64,192,232027,1,0,0:0:0:0:
448,192,232249,1,2,0:0:0:0:
192,192,232249,1,0,0:0:0:0:
320,192,232472,1,0,3:0:0:0:
64,192,232472,128,2,232916:1:0:0:0:
448,192,232694,1,2,0:0:0:0:
448,192,232916,1,8,0:0:0:0:
320,192,232916,1,0,0:0:0:0:
192,192,232916,1,0,0:0:0:0:
64,192,233138,1,0,0:0:0:0:
320,192,233138,1,2,0:0:0:0:
448,192,233361,1,4,0:0:0:0:
64,192,233361,1,0,3:0:0:0:
320,192,233361,1,0,0:0:0:0:
192,192,233361,1,0,0:0:0:0:
320,192,233583,1,2,0:0:0:0:
64,192,233805,1,0,0:0:0:0:
448,192,233805,1,8,0:0:0:0:
192,192,233805,1,0,0:0:0:0:
320,192,234027,1,0,0:0:0:0:
448,192,234027,1,2,0:0:0:0:
64,192,234249,1,0,3:0:0:0:
192,192,234472,1,0,0:0:0:0:
320,192,234472,1,2,0:0:0:0:
64,192,234694,1,0,0:0:0:0:
192,192,234694,1,0,0:0:0:0:
448,192,234694,1,8,0:0:0:0:
320,192,234916,1,2,0:0:0:0:
192,192,234916,1,0,0:0:0:0:
64,192,235138,1,0,0:0:0:0:
320,192,235138,1,0,3:0:0:0:
448,192,235361,1,2,0:0:0:0:
192,192,235583,1,0,0:0:0:0:
64,192,235583,1,0,0:0:0:0:
320,192,235583,1,8,0:0:0:0:
192,192,235805,1,0,0:0:0:0:
320,192,235805,1,2,0:0:0:0:
320,192,236027,1,0,3:0:0:0:
448,192,236027,128,2,236472:1:0:0:0:
64,192,236249,1,0,0:0:0:0:
192,192,236249,1,2,0:0:0:0:
320,192,236472,1,8,0:0:0:0:
64,192,236472,1,0,0:0:0:0:
448,192,236694,1,2,0:0:0:0:
64,192,236694,1,0,0:0:0:0:
320,192,236916,1,0,0:0:0:0:
64,192,236916,1,0,3:0:0:0:
192,192,236916,1,0,0:0:0:0:
448,192,236916,1,4,0:0:0:0:
448,192,237138,1,2,0:0:0:0:
192,192,237361,1,0,0:0:0:0:
320,192,237361,1,8,0:0:0:0:
64,192,237361,1,0,0:0:0:0:
192,192,237583,1,0,0:0:0:0:
448,192,237583,1,2,0:0:0:0:
448,192,237805,1,0,3:0:0:0:
320,192,237805,1,0,0:0:0:0:
64,192,238027,1,2,0:0:0:0:
192,192,238249,1,0,0:0:0:0:
320,192,238249,1,0,0:0:0:0:
448,192,238249,1,8,0:0:0:0:
448,192,238472,1,2,0:0:0:0:
192,192,238472,1,0,0:0:0:0:
64,192,238694,1,0,3:0:0:0:
448,192,238694,1,4,0:0:0:0:
320,192,238694,1,0,0:0:0:0:
192,192,238694,1,0,0:0:0:0:
448,192,238916,1,0,0:0:0:0:
192,192,238916,1,0,0:0:0:0:
192,192,239138,1,0,0:0:0:0:
64,192,239138,1,0,0:0:0:0:
64,192,239361,1,0,0:0:0:0:
320,192,239361,1,0,0:0:0:0:
448,192,239583,128,0,239916:0:0:0:0:
320,192,239583,1,0,0:0:0:0:
192,192,239694,1,0,0:0:0:0:
64,192,239805,1,0,0:0:0:0:
192,192,239916,1,0,0:0:0:0:
448,192,240027,128,0,240138:0:0:0:0:
320,192,240027,128,0,240138:0:0:0:0:
192,192,240138,1,0,0:0:0:0:
64,192,240249,1,0,0:0:0:0:
320,192,240249,128,0,240361:0:0:0:0:
448,192,240249,128,0,240361:0:0:0:0:
192,192,240361,1,0,0:0:0:0:
320,192,240472,1,0,0:0:0:0:
192,192,240472,1,0,0:0:0:0:
448,192,240472,1,0,0:0:0:0:
64,192,240472,1,0,0:0:0:0:
448,192,240694,1,0,0:0:0:0:
64,192,240916,1,0,0:0:0:0:
192,192,240916,1,0,0:0:0:0:
320,192,240916,128,0,241138:0:0:0:0:
448,192,241138,1,0,0:0:0:0:
64,192,241138,128,0,241583:0:0:0:0:
192,192,241361,1,0,0:0:0:0:
448,192,241583,1,0,0:0:0:0:
320,192,241583,128,0,241805:0:0:0:0:
192,192,241805,1,0,0:0:0:0:
64,192,241805,1,0,0:0:0:0:
448,192,241805,1,0,0:0:0:0:
64,192,242027,1,0,0:0:0:0:
320,192,242027,1,0,0:0:0:0:
192,192,242249,1,0,0:0:0:0:
448,192,242249,128,0,242694:0:0:0:0:
64,192,242472,1,0,0:0:0:0:
320,192,242694,1,0,0:0:0:0:
64,192,242694,1,0,0:0:0:0:
192,192,242694,128,0,242916:0:0:0:0:
448,192,242916,1,0,0:0:0:0:
320,192,242916,128,0,243361:0:0:0:0:
64,192,243138,128,0,243583:0:0:0:0:
448,192,243138,1,0,0:0:0:0:
192,192,243361,1,0,0:0:0:0:
448,192,243361,128,0,243805:0:0:0:0:
320,192,243583,1,0,0:0:0:0:
192,192,243583,1,0,0:0:0:0:
64,192,243805,1,0,0:0:0:0:
448,192,244027,1,0,0:0:0:0:
192,192,244027,128,0,244472:0:0:0:0:
64,192,244249,1,0,0:0:0:0:
320,192,244472,1,0,0:0:0:0:
64,192,244472,1,0,0:0:0:0:
448,192,244472,128,0,244694:0:0:0:0:
192,192,244694,1,0,0:0:0:0:
320,192,244694,128,0,245138:0:0:0:0:
64,192,244916,1,0,0:0:0:0:
448,192,245138,1,0,0:0:0:0:
192,192,245138,128,0,245583:0:0:0:0:
448,192,245361,1,0,0:0:0:0:
320,192,245361,1,0,0:0:0:0:
64,192,245361,1,0,0:0:0:0:
320,192,245583,1,0,0:0:0:0:
192,192,245805,1,0,0:0:0:0:
448,192,245805,128,0,246249:0:0:0:0:
64,192,246027,1,0,0:0:0:0:
320,192,246249,1,0,0:0:0:0:
192,192,246249,1,0,0:0:0:0:
64,192,246249,128,0,246472:0:0:0:0:
320,192,246472,1,0,0:0:0:0:
448,192,246472,128,0,246916:0:0:0:0:
64,192,246694,128,0,247361:0:0:0:0:
192,192,246694,1,0,0:0:0:0:
320,192,246916,1,0,0:0:0:0:
192,192,246916,128,0,247138:0:0:0:0:
448,192,247138,1,0,0:0:0:0:
320,192,247138,128,0,247361:0:0:0:0:
192,192,247361,1,0,0:0:0:0:
448,192,247361,128,0,247583:0:0:0:0:
320,192,247583,1,0,0:0:0:0:
64,192,247583,1,0,0:0:0:0:
192,192,247583,1,0,0:0:0:0:
320,192,247805,1,0,0:0:0:0:
64,192,248027,1,0,0:0:0:0:
448,192,248027,128,0,248249:0:0:0:0:
192,192,248249,1,0,0:0:0:0:
320,192,248249,128,0,248694:0:0:0:0:
64,192,248472,1,0,0:0:0:0:
192,192,248694,1,0,0:0:0:0:
448,192,248694,128,0,249361:0:0:0:0:
64,192,248916,1,0,0:0:0:0:
192,192,249138,1,0,0:0:0:0:
64,192,249361,1,0,0:0:0:0:
320,192,249361,128,0,249805:0:0:0:0:
192,192,249583,1,0,0:0:0:0:
448,192,249805,1,0,0:0:0:0:
64,192,249805,128,0,250027:0:0:0:0:
320,192,250027,1,0,0:0:0:0:
448,192,250027,128,0,250472:0:0:0:0:
64,192,250249,1,0,0:0:0:0:
192,192,250249,128,0,250694:0:0:0:0:
320,192,250472,1,0,0:0:0:0:
64,192,250472,128,0,250694:0:0:0:0:
448,192,250694,128,0,250916:0:0:0:0:
320,192,250916,1,0,0:0:0:0:
192,192,250916,128,0,251138:0:0:0:0:
64,192,251138,1,0,0:0:0:0:
448,192,251138,128,0,251583:0:0:0:0:
192,192,251361,1,0,0:0:0:0:
192,192,251583,1,0,0:0:0:0:
64,192,251583,128,0,251805:0:0:0:0:
192,192,251805,1,0,0:0:0:0:
448,192,251805,128,0,252249:0:0:0:0:
192,192,252027,1,0,0:0:0:0:
64,192,252027,1,0,0:0:0:0:
320,192,252138,1,0,0:0:0:0:
64,192,252249,128,0,252694:0:0:0:0:
448,192,252361,1,0,0:0:0:0:
192,192,252472,1,0,0:0:0:0:
320,192,252472,1,0,0:0:0:0:
448,192,252583,1,0,0:0:0:0:
320,192,252694,1,0,0:0:0:0:
192,192,252805,1,0,0:0:0:0:
64,192,252916,1,0,0:0:0:0:
448,192,252916,1,0,0:0:0:0:
192,192,253027,1,0,0:0:0:0:
320,192,253138,1,0,0:0:0:0:
448,192,253249,1,0,0:0:0:0:
64,192,253361,1,0,0:0:0:0:
448,192,253361,1,0,0:0:0:0:
192,192,253472,1,0,0:0:0:0:
320,192,253583,1,0,0:0:0:0:
448,192,253694,1,0,0:0:0:0:
448,192,253805,128,0,254138:0:0:0:0:
320,192,253805,1,0,0:0:0:0:
64,192,253805,1,0,0:0:0:0:
192,192,253916,1,0,0:0:0:0:
64,192,254027,1,0,0:0:0:0:
192,192,254138,1,0,0:0:0:0:
448,192,254249,128,0,254361:0:0:0:0:
320,192,254249,128,0,254361:0:0:0:0:
192,192,254361,1,0,0:0:0:0:
64,192,254472,1,0,0:0:0:0:
320,192,254472,128,0,254583:0:0:0:0:
448,192,254472,128,0,254583:0:0:0:0:
192,192,254583,1,0,0:0:0:0:
320,192,254694,1,0,0:0:0:0:
448,192,254694,1,0,0:0:0:0:
64,192,254694,1,0,0:0:0:0:
192,192,254694,1,0,0:0:0:0:
192,192,254916,1,0,0:0:0:0:
320,192,255027,1,0,0:0:0:0:
64,192,255138,1,0,0:0:0:0:
448,192,255138,1,0,0:0:0:0:
192,192,255138,1,0,0:0:0:0:
64,192,255361,1,0,0:0:0:0:
192,192,255361,1,0,0:0:0:0:
320,192,255472,1,0,0:0:0:0:
448,192,255583,1,0,0:0:0:0:
64,192,255694,1,0,0:0:0:0:
320,192,255805,1,0,0:0:0:0:
192,192,255805,1,0,0:0:0:0:
448,192,256027,1,0,0:0:0:0:
320,192,256027,1,0,0:0:0:0:
64,192,256027,1,0,0:0:0:0:
320,192,256249,1,0,0:0:0:0:
64,192,256249,1,0,0:0:0:0:
192,192,256472,1,0,0:0:0:0:
448,192,256472,1,0,0:0:0:0:
64,192,256694,1,0,0:0:0:0:
192,192,256805,1,0,0:0:0:0:
448,192,256916,1,0,0:0:0:0:
320,192,256916,1,0,0:0:0:0:
192,192,257138,1,0,0:0:0:0:
320,192,257138,1,0,0:0:0:0:
448,192,257249,1,0,0:0:0:0:
192,192,257361,1,0,0:0:0:0:
64,192,257361,128,0,257805:0:0:0:0:
448,192,257472,1,0,0:0:0:0:
320,192,257583,1,0,0:0:0:0:
192,192,257583,1,0,0:0:0:0:
448,192,257805,1,0,0:0:0:0:
320,192,257805,1,0,0:0:0:0:
448,192,258027,1,0,0:0:0:0:
64,192,258027,1,0,0:0:0:0:
320,192,258249,1,0,0:0:0:0:
64,192,258249,1,0,0:0:0:0:
448,192,258472,1,0,0:0:0:0:
64,192,258583,1,0,0:0:0:0:
192,192,258694,1,0,0:0:0:0:
320,192,258694,1,0,0:0:0:0:
64,192,258916,1,0,0:0:0:0:
192,192,258916,1,0,0:0:0:0:
448,192,259027,1,0,0:0:0:0:
320,192,259138,1,0,0:0:0:0:
64,192,259138,1,0,0:0:0:0:
192,192,259361,1,0,0:0:0:0:
448,192,259361,1,0,0:0:0:0:
192,192,259583,1,0,0:0:0:0:
320,192,259583,1,0,0:0:0:0:
192,192,259805,1,0,0:0:0:0:
64,192,259805,1,0,0:0:0:0:
320,192,260027,1,0,0:0:0:0:
64,192,260027,1,0,0:0:0:0:
320,192,260249,1,0,0:0:0:0:
448,192,260249,1,0,0:0:0:0:
192,192,260361,1,0,0:0:0:0:
64,192,260472,1,0,0:0:0:0:
448,192,260472,1,0,0:0:0:0:
448,192,260694,1,0,0:0:0:0:
64,192,260694,128,0,261249:0:0:0:0:
192,192,260805,1,0,0:0:0:0:
320,192,260916,1,0,0:0:0:0:
448,192,260916,128,0,261361:0:0:0:0:
192,192,261138,1,0,0:0:0:0:
320,192,261249,1,0,0:0:0:0:
64,192,261361,1,0,0:0:0:0:
192,192,261361,128,0,261694:0:0:0:0:
320,192,261583,1,0,0:0:0:0:
448,192,261583,1,0,0:0:0:0:
64,192,261805,1,0,0:0:0:0:
448,192,261805,1,0,0:0:0:0:
320,192,261805,1,0,0:0:0:0:
192,192,261805,1,0,0:0:0:0:
192,192,262027,1,0,0:0:0:0:
64,192,262249,1,0,0:0:0:0:
448,192,262249,1,0,0:0:0:0:
320,192,262361,1,0,0:0:0:0:
192,192,262472,1,0,0:0:0:0:
64,192,262472,1,0,0:0:0:0:
320,192,262583,1,0,0:0:0:0:
448,192,262694,1,0,0:0:0:0:
64,192,262805,1,0,0:0:0:0:
192,192,262916,1,0,0:0:0:0:
320,192,262916,1,0,0:0:0:0:
64,192,263027,1,0,0:0:0:0:
320,192,263138,1,0,0:0:0:0:
448,192,263138,1,0,0:0:0:0:
192,192,263249,1,0,0:0:0:0:
64,192,263361,1,0,0:0:0:0:
320,192,263361,1,0,0:0:0:0:
448,192,263472,1,0,0:0:0:0:
192,192,263583,1,0,0:0:0:0:
320,192,263583,1,0,0:0:0:0:
64,192,263694,1,0,0:0:0:0:
448,192,263805,1,0,0:0:0:0:
192,192,263916,1,0,0:0:0:0:
320,192,264027,1,0,0:0:0:0:
448,192,264027,1,0,0:0:0:0:
64,192,264138,1,0,0:0:0:0:
192,192,264249,1,0,0:0:0:0:
320,192,264249,1,0,0:0:0:0:
448,192,264361,1,0,0:0:0:0:
64,192,264472,128,0,264916:0:0:0:0:
192,192,264472,1,0,0:0:0:0:
448,192,264583,1,0,0:0:0:0:
192,192,264694,1,0,0:0:0:0:
320,192,264694,1,0,0:0:0:0:
448,192,264805,1,0,0:0:0:0:
320,192,264916,1,0,0:0:0:0:
192,192,265027,1,0,0:0:0:0:
64,192,265138,1,0,0:0:0:0:
448,192,265138,1,0,0:0:0:0:
320,192,265249,1,0,0:0:0:0:
448,192,265361,1,0,0:0:0:0:
64,192,265361,1,0,0:0:0:0:
192,192,265472,1,0,0:0:0:0:
64,192,265583,1,0,0:0:0:0:
448,192,265694,1,0,0:0:0:0:
320,192,265805,1,0,0:0:0:0:
192,192,265805,1,0,0:0:0:0:
448,192,265916,1,0,0:0:0:0:
64,192,266027,1,0,0:0:0:0:
320,192,266027,1,0,0:0:0:0:
192,192,266138,1,0,0:0:0:0:
64,192,266249,1,0,0:0:0:0:
320,192,266361,1,0,0:0:0:0:
192,192,266472,1,0,0:0:0:0:
64,192,266583,1,0,0:0:0:0:
320,192,266583,1,0,0:0:0:0:
448,192,266694,1,0,0:0:0:0:
192,192,266694,1,0,0:0:0:0:
320,192,266805,1,0,0:0:0:0:
448,192,266916,1,0,0:0:0:0:
64,192,266916,1,0,0:0:0:0:
192,192,267027,1,0,0:0:0:0:
64,192,267138,1,0,0:0:0:0:
320,192,267138,1,0,0:0:0:0:
448,192,267138,1,0,0:0:0:0:
64,192,267361,1,0,0:0:0:0:
448,192,267361,1,0,0:0:0:0:
320,192,267472,1,0,0:0:0:0:
192,192,267472,1,0,0:0:0:0:
64,192,267583,1,0,0:0:0:0:
448,192,267583,1,0,0:0:0:0:
448,192,267805,1,0,0:0:0:0:
64,192,267805,1,0,0:0:0:0:
64,192,268027,128,0,268138:0:0:0:0:
448,192,268027,128,0,268249:0:0:0:0:
320,192,268027,1,0,0:0:0:0:
192,192,268138,128,0,268249:0:0:0:0:
64,192,268249,128,0,268472:0:0:0:0:
320,192,268249,128,0,268361:0:0:0:0:
448,192,268361,128,0,268472:0:0:0:0:
320,192,268472,128,0,268694:0:0:0:0:
192,192,268472,128,0,268583:0:0:0:0:
64,192,268583,128,0,268694:0:0:0:0:
448,192,268694,128,0,268916:0:0:0:0:
192,192,268694,128,0,268916:0:0:0:0:
64,192,268916,1,0,0:0:0:0:
320,192,268916,128,0,270249:0:0:0:0:
64,192,269138,1,0,0:0:0:0:
448,192,269361,1,0,0:0:0:0:
192,192,269361,1,0,0:0:0:0:
448,192,269583,1,0,0:0:0:0:
64,192,269583,1,0,0:0:0:0:
192,192,269805,1,0,0:0:0:0:
448,192,269916,1,0,0:0:0:0:
64,192,270027,1,0,0:0:0:0:
192,192,270027,1,0,0:0:0:0:
192,192,270249,1,0,0:0:0:0:
64,192,270249,128,0,270694:0:0:0:0:
448,192,270472,1,0,0:0:0:0:
320,192,270694,1,0,0:0:0:0:
192,192,270694,128,0,272027:0:0:0:0:
448,192,270916,1,0,0:0:0:0:
320,192,271138,1,0,0:0:0:0:
64,192,271138,1,0,0:0:0:0:
448,192,271361,1,0,0:0:0:0:
64,192,271361,1,0,0:0:0:0:
448,192,271583,128,0,272027:0:0:0:0:
320,192,271583,1,0,0:0:0:0:
64,192,271805,1,0,0:0:0:0:
320,192,271805,1,0,0:0:0:0:
64,192,272027,1,0,0:0:0:0:
320,192,272027,128,0,272472:0:0:0:0:
448,192,272249,1,0,0:0:0:0:
192,192,272361,1,0,0:0:0:0:
64,192,272472,1,0,0:0:0:0:
448,192,272472,128,0,273138:0:0:0:0:
320,192,272694,1,0,0:0:0:0:
64,192,272916,1,0,0:0:0:0:
192,192,272916,1,0,0:0:0:0:
320,192,273138,1,0,0:0:0:0:
192,192,273138,128,0,273583:0:0:0:0:
64,192,273249,1,0,0:0:0:0:
448,192,273361,1,0,0:0:0:0:
320,192,273472,1,0,0:0:0:0:
64,192,273583,1,0,0:0:0:0:
448,192,273583,1,0,0:0:0:0:
64,192,273805,128,0,274249:0:0:0:0:
192,192,273805,1,0,0:0:0:0:
448,192,274027,1,0,0:0:0:0:
320,192,274249,128,0,274916:0:0:0:0:
192,192,274249,1,0,0:0:0:0:
448,192,274472,1,0,0:0:0:0:
192,192,274694,1,0,0:0:0:0:
64,192,274694,1,0,0:0:0:0:
192,192,274916,1,0,0:0:0:0:
448,192,274916,1,0,0:0:0:0:
320,192,275138,1,0,0:0:0:0:
448,192,275138,128,0,275583:0:0:0:0:
64,192,275249,1,0,0:0:0:0:
320,192,275361,1,0,0:0:0:0:
192,192,275472,1,0,0:0:0:0:
320,192,275583,1,0,0:0:0:0:
64,192,275583,128,0,275916:0:0:0:0:
320,192,275805,128,0,276027:0:0:0:0:
448,192,276027,1,0,0:0:0:0:
64,192,276027,128,0,277583:0:0:0:0:
192,192,276027,1,0,0:0:0:0:
192,192,276249,1,0,0:0:0:0:
448,192,276361,1,0,0:0:0:0:
320,192,276472,1,0,0:0:0:0:
192,192,276694,1,0,0:0:0:0:
448,192,276805,1,0,0:0:0:0:
320,192,276916,1,0,0:0:0:0:
192,192,277027,1,0,0:0:0:0:
448,192,277138,1,0,0:0:0:0:
320,192,277361,1,0,0:0:0:0:
448,192,277361,1,0,0:0:0:0:
192,192,277583,1,0,0:0:0:0:
448,192,277583,1,0,0:0:0:0:
448,192,277805,1,0,0:0:0:0:
192,192,277805,128,0,279361:0:0:0:0:
320,192,278027,1,0,0:0:0:0:
64,192,278138,1,0,0:0:0:0:
448,192,278249,1,0,0:0:0:0:
64,192,278472,1,0,0:0:0:0:
320,192,278583,1,0,0:0:0:0:
448,192,278694,128,0,279138:0:0:0:0:
64,192,278694,1,0,0:0:0:0:
320,192,278805,1,0,0:0:0:0:
64,192,278916,1,0,0:0:0:0:
320,192,279138,1,0,0:0:0:0:
64,192,279138,1,0,0:0:0:0:
448,192,279361,1,0,0:0:0:0:
320,192,279361,1,0,0:0:0:0:
192,192,279472,1,0,0:0:0:0:
448,192,279583,1,0,0:0:0:0:
64,192,279583,128,0,281361:0:0:0:0:
320,192,279805,1,0,0:0:0:0:
320,192,280027,1,0,0:0:0:0:
192,192,280027,1,0,0:0:0:0:
448,192,280249,1,0,0:0:0:0:
192,192,280249,1,0,0:0:0:0:
320,192,280472,1,0,0:0:0:0:
192,192,280583,1,0,0:0:0:0:
320,192,280694,1,0,0:0:0:0:
448,192,280694,1,0,0:0:0:0:
320,192,280916,1,0,0:0:0:0:
192,192,280916,1,0,0:0:0:0:
448,192,281138,1,0,0:0:0:0:
192,192,281138,1,0,0:0:0:0:
448,192,281361,1,0,0:0:0:0:
320,192,281361,1,0,0:0:0:0:
192,192,281361,1,0,0:0:0:0:
448,192,281583,1,0,0:0:0:0:
192,192,281583,1,0,0:0:0:0:
64,192,281805,1,0,0:0:0:0:
320,192,281805,1,0,0:0:0:0:
448,192,282027,1,0,0:0:0:0:
192,192,282027,1,0,0:0:0:0:
448,192,282249,1,0,0:0:0:0:
64,192,282249,1,0,0:0:0:0:
192,192,282249,128,0,282361:0:0:0:0:
320,192,282361,128,0,282472:0:0:0:0:
64,192,282472,1,0,0:0:0:0:
448,192,282472,128,0,282583:0:0:0:0:
192,192,282583,128,0,282694:0:0:0:0:
64,192,282694,1,0,0:0:0:0:
448,192,282694,1,0,0:0:0:0:
320,192,282694,128,0,282805:0:0:0:0:
192,192,282805,128,0,282916:0:0:0:0:
448,192,282916,1,0,0:0:0:0:
64,192,282916,128,0,283027:0:0:0:0:
320,192,283027,128,0,283138:0:0:0:0:
192,192,283138,1,0,0:0:0:0:
64,192,283138,1,0,0:0:0:0:
448,192,283138,128,0,284916:0:0:0:0:
320,192,283361,1,0,0:0:0:0:
64,192,283361,1,0,0:0:0:0:
192,192,283472,1,0,0:0:0:0:
320,192,283583,1,0,0:0:0:0:
64,192,283805,1,0,0:0:0:0:
320,192,283916,1,0,0:0:0:0:
192,192,284027,1,0,0:0:0:0:
64,192,284138,1,0,0:0:0:0:
320,192,284249,128,0,284472:0:0:0:0:
192,192,284472,1,0,0:0:0:0:
64,192,284472,128,0,284694:0:0:0:0:
320,192,284694,1,0,0:0:0:0:
64,192,284805,1,0,0:0:0:0:
192,192,284916,128,0,286694:0:0:0:0:
448,192,285138,1,0,0:0:0:0:
320,192,285138,128,0,285361:0:0:0:0:
64,192,285249,1,0,0:0:0:0:
448,192,285361,1,0,0:0:0:0:
320,192,285583,1,0,0:0:0:0:
448,192,285694,1,0,0:0:0:0:
64,192,285805,1,0,0:0:0:0:
320,192,285916,1,0,0:0:0:0:
448,192,286027,128,0,286249:0:0:0:0:
320,192,286249,1,0,0:0:0:0:
64,192,286249,1,0,0:0:0:0:
64,192,286472,128,0,286583:0:0:0:0:
448,192,286583,128,0,286694:0:0:0:0:
320,192,286694,128,0,288583:0:0:0:0:
192,192,286916,1,0,0:0:0:0:
64,192,287138,1,0,0:0:0:0:
448,192,287138,1,0,0:0:0:0:
192,192,287361,1,0,0:0:0:0:
448,192,287472,1,0,0:0:0:0:
64,192,287583,1,0,0:0:0:0:
192,192,287694,1,0,0:0:0:0:
448,192,287805,128,0,287916:0:0:0:0:
192,192,287916,128,0,288027:0:0:0:0:
64,192,288027,1,0,0:0:0:0:
448,192,288027,1,0,0:0:0:0:
192,192,288249,1,0,0:0:0:0:
64,192,288249,128,0,289027:0:0:0:0:
192,192,288472,1,0,0:0:0:0:
448,192,288694,128,0,289472:0:0:0:0:
320,192,288694,1,0,0:0:0:0:
320,192,288916,1,0,0:0:0:0:
192,192,289138,128,0,289916:0:0:0:0:
64,192,289138,1,0,0:0:0:0:
64,192,289361,128,0,289805:0:0:0:0:
448,192,289583,1,0,0:0:0:0:
320,192,289583,128,0,290027:0:0:0:0:
448,192,289805,1,0,0:0:0:0:
192,192,290027,128,0,290249:0:0:0:0:
64,192,290027,1,0,0:0:0:0:
320,192,290249,1,0,0:0:0:0:
64,192,290249,1,0,0:0:0:0:
448,192,290249,128,0,291583:0:0:0:0:
192,192,290472,1,0,0:0:0:0:
320,192,290583,1,0,0:0:0:0:
64,192,290583,1,0,0:0:0:0:
192,192,290694,1,0,0:0:0:0:
192,192,290916,1,0,0:0:0:0:
320,192,291027,1,0,0:0:0:0:
64,192,291027,1,0,0:0:0:0:
192,192,291138,1,0,0:0:0:0:
64,192,291249,1,0,0:0:0:0:
192,192,291361,1,0,0:0:0:0:
320,192,291472,1,0,0:0:0:0:
64,192,291583,1,0,0:0:0:0:
192,192,291583,1,0,0:0:0:0:
192,192,291805,128,0,291916:0:0:0:0:
448,192,291805,1,0,0:0:0:0:
64,192,291916,128,0,292027:0:0:0:0:
320,192,291916,1,0,0:0:0:0:
448,192,292027,128,0,293361:0:0:0:0:
192,192,292027,1,0,0:0:0:0:
192,192,292249,1,0,0:0:0:0:
64,192,292361,1,0,0:0:0:0:
320,192,292361,1,0,0:0:0:0:
192,192,292472,1,0,0:0:0:0:
320,192,292694,1,0,0:0:0:0:
64,192,292805,1,0,0:0:0:0:
320,192,292916,1,0,0:0:0:0:
192,192,292916,1,0,0:0:0:0:
64,192,293027,1,0,0:0:0:0:
320,192,293138,1,0,0:0:0:0:
64,192,293249,1,0,0:0:0:0:
320,192,293361,1,0,0:0:0:0:
192,192,293361,1,0,0:0:0:0:
192,192,293583,128,0,293694:0:0:0:0:
64,192,293583,1,0,0:0:0:0:
448,192,293694,128,0,293805:0:0:0:0:
320,192,293694,1,0,0:0:0:0:
192,192,293805,1,0,0:0:0:0:
64,192,293805,1,0,0:0:0:0:
320,192,293805,1,0,0:0:0:0:
448,192,293916,1,0,0:0:0:0:
320,192,294027,1,0,0:0:0:0:
192,192,294027,1,0,0:0:0:0:
64,192,294138,1,0,0:0:0:0:
448,192,294138,1,0,0:0:0:0:
320,192,294249,1,0,0:0:0:0:
192,192,294361,1,0,0:0:0:0:
320,192,294472,1,0,0:0:0:0:
64,192,294472,1,0,0:0:0:0:
448,192,294583,1,0,0:0:0:0:
192,192,294583,1,0,0:0:0:0:
320,192,294694,1,0,0:0:0:0:
448,192,294694,1,0,0:0:0:0:
64,192,294694,1,0,0:0:0:0:
192,192,294805,1,0,0:0:0:0:
320,192,294916,1,0,0:0:0:0:
448,192,294916,1,0,0:0:0:0:
64,192,295027,1,0,0:0:0:0:
192,192,295027,1,0,0:0:0:0:
320,192,295138,1,0,0:0:0:0:
448,192,295249,1,0,0:0:0:0:
192,192,295361,1,0,0:0:0:0:
320,192,295361,1,0,0:0:0:0:
64,192,295472,1,0,0:0:0:0:
448,192,295472,1,0,0:0:0:0:
192,192,295583,1,0,0:0:0:0:
448,192,295583,1,0,0:0:0:0:
64,192,295583,1,0,0:0:0:0:
320,192,295583,1,0,0:0:0:0:
192,192,295694,1,0,0:0:0:0:
448,192,295805,1,0,0:0:0:0:
320,192,295805,1,0,0:0:0:0:
64,192,295916,1,0,0:0:0:0:
192,192,295916,1,0,0:0:0:0:
448,192,296027,1,0,0:0:0:0:
64,192,296027,1,0,0:0:0:0:
320,192,296138,1,0,0:0:0:0:
192,192,296249,1,0,0:0:0:0:
64,192,296249,1,0,0:0:0:0:
320,192,296361,1,0,0:0:0:0:
448,192,296361,1,0,0:0:0:0:
448,192,296472,1,0,0:0:0:0:
192,192,296472,1,0,0:0:0:0:
64,192,296472,1,0,0:0:0:0:
192,192,296583,1,0,0:0:0:0:
320,192,296583,1,0,0:0:0:0:
448,192,296694,1,0,0:0:0:0:
320,192,296694,1,0,0:0:0:0:
64,192,296805,1,0,0:0:0:0:
192,192,296805,1,0,0:0:0:0:
320,192,296916,1,0,0:0:0:0:
448,192,296916,1,0,0:0:0:0:
64,192,296916,1,0,0:0:0:0:
192,192,297027,1,0,0:0:0:0:
320,192,297027,1,0,0:0:0:0:
192,192,297138,1,0,0:0:0:0:
64,192,297138,1,0,0:0:0:0:
448,192,297138,1,0,0:0:0:0:
320,192,297249,1,0,0:0:0:0:
448,192,297249,1,0,0:0:0:0:
320,192,297361,1,0,0:0:0:0:
64,192,297361,1,0,0:0:0:0:
192,192,297361,1,0,0:0:0:0:
448,192,297361,128,0,297583:0:0:0:0:
64,192,297583,128,0,297805:0:0:0:0:
192,192,297805,128,0,298027:0:0:0:0:
320,192,298027,128,0,298472:0:0:0:0:
448,192,298472,128,0,298916:0:0:0:0:
64,192,298694,128,0,299138:0:0:0:0:
320,192,298916,128,0,299138:0:0:0:0:
448,192,299138,128,0,299361:0:0:0:0:
320,192,299361,128,0,299583:0:0:0:0:
64,192,299583,128,0,299805:0:0:0:0:
192,192,299805,128,0,300472:0:0:0:0:
448,192,300249,128,0,300472:0:0:0:0:
64,192,300472,128,0,307361:0:0:0:0:
320,192,300694,1,0,0:0:0:0:
192,192,300805,1,0,0:0:0:0:
320,192,300861,1,0,0:0:0:0:
448,192,300916,128,0,301361:0:0:0:0:
192,192,301138,1,0,0:0:0:0:
320,192,301361,1,0,0:0:0:0:
448,192,301583,128,0,302027:0:0:0:0:
320,192,302027,128,0,302249:0:0:0:0:
192,192,302249,128,0,302472:0:0:0:0:
448,192,302694,128,0,309805:0:0:0:0:
192,192,304916,128,0,306916:0:0:0:0:
320,192,305805,128,0,306472:0:0:0:0:
