osu file format v13

[General]
AudioFilename: 02. Affection.mp3
AudioLeadIn: 0
PreviewTime: 1615
Countdown: 0
SampleSet: Soft
StackLeniency: 0.7
Mode: 0
LetterboxInBreaks: 0
EpilepsyWarning: 1
WidescreenStoryboard: 0

[Editor]
DistanceSpacing: 1.3
BeatDivisor: 4
GridSize: 8
TimelineZoom: 1

[Metadata]
Title:Affection feat. Another Infinity
TitleUnicode:Affection feat. Another Infinity
Artist:Mayumi Morinaga
ArtistUnicode:Mayumi Morinaga
Creator:Evil_Twilight
Version:Normal
Source:ゆゆ式
Tags:YUYUSHIKI ending littlecar3370 Megurine Luka 森永真由美 senya
BeatmapID:556161
BeatmapSetID:106359

[Difficulty]
HPDrainRate:3
CircleSize:3
OverallDifficulty:3
ApproachRate:4
SliderMultiplier:1
SliderTickRate:1

[Events]
//Background and Video events
0,0,"BG.jpg",0,0
//Break Periods
2,17969,28757
2,144123,148757
//Storyboard Layer 0 (Background)
//Storyboard Layer 1 (Fail)
//Storyboard Layer 2 (Pass)
//Storyboard Layer 3 (Foreground)
//Storyboard Sound Samples
//Background Colour Transformations
3,100,163,162,255

[TimingPoints]
2385,384.615384615385,4,2,0,60,1,0
8538,-100,4,2,0,80,0,1
17769,-100,4,2,0,80,0,0
17865,-100,4,2,0,60,0,0
40846,-100,4,2,0,40,0,0
41615,-100,4,2,0,50,0,0
42385,-100,4,2,1,60,0,0
45077,-100,4,2,0,60,0,0
45461,-100,4,2,1,60,0,0
48154,-100,4,2,0,60,0,0
48538,-100,4,2,0,60,0,0
57769,-133.333333333333,4,2,0,60,0,0
57865,-133.333333333333,4,2,0,40,0,0
59308,-100,4,2,0,80,0,1
70077,-100,4,2,0,80,0,0
71038,-100,4,2,0,60,0,0
71615,-100,4,2,0,80,0,1
87000,-100,4,2,0,60,0,0
97769,-100,4,2,0,40,0,0
98538,-100,4,2,0,50,0,0
99308,-100,4,2,1,60,0,0
102000,-100,4,2,0,60,0,0
102385,-100,4,2,1,60,0,0
105077,-100,4,2,0,60,0,0
116231,-100,4,2,0,80,0,1
127000,-100,4,2,0,80,0,0
127961,-100,4,2,0,60,0,0
128538,-100,4,2,0,80,0,1
143923,-100,4,2,0,80,0,0
156231,-100,4,2,1,60,0,0
158923,-100,4,2,0,60,0,0
159308,-100,4,2,1,60,0,0
162000,-100,4,2,0,60,0,0
170846,-100,4,2,0,70,0,0
171615,-100,4,2,0,60,0,0
174692,-133.333333333333,4,2,0,60,0,0
175077,-100,4,2,0,80,0,1
185461,-100,4,2,0,80,0,0
186423,-100,4,2,0,60,0,0
187000,-100,4,2,0,80,0,1
202385,-133.333333333333,4,2,0,40,0,0
214776,631.578947368421,4,2,0,40,1,0
215685,666.666666666667,4,2,0,40,1,0
215851,-100,4,2,0,30,0,0

[Colours]
Combo1 : 241,218,50
Combo2 : 121,121,189
Combo3 : 255,149,202
SliderBorder : 255,218,218

[HitObjects]
64,72,2385,6,0,P|175:74|250:20,1,200,4|2,0:0|0:0,0:0:0:0:
435,49,3923,2,0,P|377:144|387:236,1,200,0|2,0:0|0:0,0:0:0:0:
268,382,5461,2,0,P|214:284|129:246,1,200,0|2,0:0|0:0,0:0:0:0:
48,288,6615,1,0,0:0:0:0:
56,192,7000,2,0,P|30:149|34:93,1,100,0|0,0:0|1:0,0:0:0:0:
104,32,7769,2,0,P|130:75|126:131,1,100,0|0,0:0|1:0,0:0:0:0:
152,224,8538,6,0,P|264:224|334:154,1,200,4|0,0:0|1:0,0:0:0:0:
496,64,10077,2,0,P|435:140|440:238,1,200,0|0,0:0|1:0,0:0:0:0:
392,328,11231,1,0,0:0:0:0:
344,240,11615,2,0,P|302:216|238:223,1,100,4|0,0:0|0:0,0:0:0:0:
192,296,12385,2,0,P|150:319|86:312,1,100,0|0,1:0|0:0,0:0:0:0:
16,256,13154,6,0,P|-8:152|34:66,2,200,4|4|4,0:0|0:0|0:0,0:0:0:0:
104,216,15077,1,0,0:0:0:0:
200,192,15461,1,4,0:0:0:0:
256,192,15654,12,4,17769,0:0:0:0:
280,272,30077,6,0,B|260:338|174:366|114:333,2,200,4|2|0,0:0|0:0|0:0,0:0:0:0:
232,184,32000,1,0,1:0:0:0:
248,88,32385,2,0,P|286:52|349:51,1,100,2|0,0:0|1:0,0:0:0:0:
424,80,33154,6,0,B|475:125|478:215|423:256,2,200,0|2|0,0:0|0:0|0:0,0:0:0:0:
344,144,35077,1,0,1:0:0:0:
248,176,35461,2,0,P|199:171|157:131,1,100,2|0,0:0|1:0,0:0:0:0:
80,80,36231,6,0,B|141:110|167:196|125:250,2,200,4|2|0,0:0|0:0|0:0,0:0:0:0:
168,32,38154,1,0,1:0:0:0:
240,96,38538,2,0,P|279:67|340:66,1,100,2|0,0:0|1:0,0:0:0:0:
416,112,39308,5,4,0:0:0:0:
240,216,40077,1,2,0:0:0:0:
440,240,40846,2,0,P|446:291|409:342,1,100,4|0,1:2|1:0,0:0:0:0:
328,360,41615,2,0,P|322:309|359:258,1,100,4|0,1:2|1:0,0:0:0:0:
368,168,42385,6,0,P|356:93|294:33,1,150,4|2,0:0|0:0,0:0:0:0:
216,80,43346,2,0,P|185:74|160:56,1,50,2|8,0:0|0:0,0:0:0:0:
80,112,43923,1,2,0:0:0:0:
160,168,44308,2,0,P|158:217|131:258,2,100,8|0|2,0:0|0:0|0:0,0:0:0:0:
216,80,45461,6,0,P|279:43|362:50,1,150,2|2,0:0|0:0,0:0:0:0:
440,104,46423,2,0,P|453:129|456:160,1,50,2|8,0:0|0:0,0:0:0:0:
400,232,47000,1,2,0:0:0:0:
304,256,47385,2,0,P|282:299|286:363,2,100,8|0|2,0:0|0:0|0:0,0:0:0:0:
336,160,48538,5,4,0:0:0:0:
144,96,49308,1,2,0:0:0:0:
336,56,50077,1,0,0:0:0:0:
200,200,50846,2,0,P|203:255|231:297,1,100,2|0,0:0|0:0,0:0:0:0:
296,360,51615,6,0,P|226:327|138:337,1,150,4|2,0:0|0:0,0:0:0:0:
112,360,52385,2,0,P|76:377|25:371,2,75,2|2|2,0:0|0:0|0:0,0:0:0:0:
112,312,53154,6,0,B|127:260|97:225|97:225|44:193|52:129,1,200,2|0,0:0|0:0,0:0:0:0:
128,64,54308,1,0,0:0:0:0:
208,120,54692,6,0,B|274:138|351:104|378:47,1,200,4|2,0:0|0:0,0:0:0:0:
464,96,55846,1,0,0:0:0:0:
400,176,56231,2,0,B|375:219|381:273|425:260|431:314|403:365,1,200,4|2,0:0|0:0,0:0:0:0:
304,368,57385,1,0,0:0:0:0:
224,312,57769,1,4,0:1:0:0:
256,192,57961,12,4,59308,0:0:0:0:
128,120,60077,6,0,P|131:173|101:221,1,100,0|0,1:0|0:0,0:0:0:0:
56,296,60846,2,0,B|90:237|172:214|235:245,1,200,2|0,0:0|1:0,0:0:0:0:
288,320,62000,1,0,0:0:0:0:
384,312,62385,2,0,B|443:278|466:196|435:133,1,200,2|0,0:0|1:0,0:0:0:0:
352,88,63538,1,0,0:0:0:0:
256,120,63923,6,0,P|218:82|216:24,2,100,2|0|0,0:0|0:0|1:0,0:0:0:0:
336,184,65077,1,0,0:0:0:0:
288,272,65461,2,0,B|259:213|170:189|113:233,1,200,2|0,0:0|1:0,0:0:0:0:
40,296,66615,1,0,0:0:0:0:
24,200,67000,6,0,P|53:160|49:98,1,100,2|0,0:0|0:0,0:0:0:0:
144,152,67769,2,0,P|145:102|173:62,1,100,0|0,1:0|0:0,0:0:0:0:
264,24,68538,2,0,B|330:-1|410:33|437:99,1,200,4|0,0:0|1:0,0:0:0:0:
408,192,69692,1,2,0:0:0:0:
312,152,70077,6,0,P|276:211|290:301,1,150,4|4,0:0|0:0,0:0:0:0:
189,265,71038,2,0,P|150:234|100:234,1,100,4|0,0:0|0:0,0:0:0:0:
56,248,71615,6,0,B|113:219|141:132|101:63,1,200,4|0,0:0|1:0,0:0:0:0:
192,16,72769,1,0,0:0:0:0:
240,104,73154,2,0,P|281:129|330:124,1,100,2|0,0:0|0:0,0:0:0:0:
432,128,73923,2,0,P|388:151|369:196,1,100,0|0,1:0|0:0,0:0:0:0:
272,200,74692,2,0,B|326:244|328:333|273:386,1,200,2|0,0:0|1:0,0:0:0:0:
176,384,75846,1,0,0:0:0:0:
128,296,76231,6,0,P|84:271|24:276,2,100,2|0|0,0:0|0:0|1:0,0:0:0:0:
224,264,77385,1,0,0:0:0:0:
152,200,77769,2,0,B|125:120|218:95|170:8,1,200,4|0,0:0|1:0,0:0:0:0:
272,24,78923,1,0,0:0:0:0:
344,96,79308,6,0,P|387:68|440:72,1,100,2|0,0:0|0:0,0:0:0:0:
504,144,80077,2,0,P|506:195|476:239,1,100,0|0,1:0|0:0,0:0:0:0:
416,160,80846,2,0,B|365:215|397:280|397:280|423:307|416:353,1,200,4|0,0:0|1:0,0:0:0:0:
320,376,82000,1,2,0:0:0:0:
264,296,82385,6,0,B|240:235|152:206|81:254,1,200,4|4,0:0|0:0,0:0:0:0:
64,344,83538,1,4,0:0:0:0:
160,320,83923,2,0,B|200:261|171:173|110:149,1,200,4|4,0:0|0:0,0:0:0:0:
256,192,84885,12,4,87000,0:0:0:0:
48,288,87769,6,0,B|79:353|165:372|225:329,1,200
216,232,88923,1,0,1:0:0:0:
280,160,89308,2,0,P|328:154|371:178,1,100,2|0,0:0|1:0,0:0:0:0:
440,256,90077,6,0,B|389:211|386:121|441:80,2,200,0|2|0,0:0|0:0|0:0,0:0:0:0:
400,344,92000,1,0,1:0:0:0:
336,272,92384,2,0,P|287:277|245:317,1,100,2|0,0:0|1:0,0:0:0:0:
160,352,93154,5,4,0:0:0:0:
16,216,93923,1,0,0:0:0:0:
104,160,94308,2,0,P|100:130|85:99,1,50,2|2,0:0|0:0,0:0:0:0:
208,16,95077,1,0,1:0:0:0:
256,104,95461,2,0,P|305:100|344:70,1,100,2|0,0:0|1:0,0:0:0:0:
432,24,96231,5,4,0:0:0:0:
312,184,97000,1,2,0:0:0:0:
480,288,97769,2,0,P|486:339|449:390,1,100,4|0,1:2|1:0,0:0:0:0:
368,360,98538,1,4,1:2:0:0:
272,336,98923,1,0,1:0:0:0:
176,304,99308,6,0,P|100:296|26:340,1,150,4|2,0:0|0:0,0:0:0:0:
48,232,100269,2,0,P|59:210|63:185,1,50,2|8,0:0|0:0,0:0:0:0:
128,112,100846,1,2,0:0:0:0:
232,112,101231,2,0,P|234:63|261:22,2,100,8|0|2,0:0|0:0|0:0,0:0:0:0:
296,192,102385,6,0,P|368:205|436:176,1,150,2|2,0:0|0:0,0:0:0:0:
472,272,103346,2,0,P|459:297|456:328,1,50,2|8,0:0|0:0,0:0:0:0:
368,368,103923,1,2,0:0:0:0:
288,304,104308,2,0,P|245:282|181:286,2,100,8|0|2,0:0|0:0|0:0,0:0:0:0:
352,232,105461,5,4,0:0:0:0:
160,184,106231,1,2,0:0:0:0:
336,96,107000,1,0,0:0:0:0:
160,8,107769,2,0,P|105:11|63:39,1,100,2|0,0:0|0:0,0:0:0:0:
24,120,108538,6,0,P|20:194|53:260,1,150,4|2,0:0|0:0,0:0:0:0:
80,304,109308,2,0,P|51:327|15:336,2,75,2|2|2,0:0|0:0|0:0,0:0:0:0:
108,264,110077,6,0,B|156:243|219:265|186:302|247:321|299:298,1,200,2|0,0:0|0:0,0:0:0:0:
384,336,111231,1,0,0:0:0:0:
368,240,111615,6,0,B|361:171|408:101|469:85,1,200,4|2,0:0|0:0,0:0:0:0:
392,24,112769,1,0,0:0:0:0:
320,96,113154,2,0,B|268:131|184:122|136:74,1,200,4|2,0:0|0:0,0:0:0:0:
48,32,114308,1,0,0:0:0:0:
56,128,114692,1,4,0:1:0:0:
256,192,114885,12,4,116231,0:0:0:0:
312,48,117000,6,0,P|317:99|359:137,1,100,0|0,1:0|0:0,0:0:0:0:
440,184,117769,2,0,B|469:243|446:325|387:359,1,200,2|0,0:0|1:0,0:0:0:0:
288,376,118923,1,0,0:0:0:0:
248,288,119308,2,0,B|214:229|132:206|69:237,1,200,2|0,0:0|1:0,0:0:0:0:
40,144,120461,1,0,0:0:0:0:
128,96,120846,6,0,P|90:58|88:0,2,100,2|0|0,0:0|0:0|1:0,0:0:0:0:
216,48,122000,1,0,0:0:0:0:
312,72,122384,2,0,B|354:126|330:215|271:244,1,200,2|0,0:0|1:0,0:0:0:0:
184,288,123538,1,0,0:0:0:0:
168,192,123923,6,0,P|128:163|78:162,1,100,2|0,0:0|0:0,0:0:0:0:
8,232,124692,2,0,P|48:260|97:260,1,100,0|0,1:0|0:0,0:0:0:0:
168,192,125461,2,0,B|201:138|286:118|347:154,1,200,4|0,0:0|1:0,0:0:0:0:
408,232,126615,1,2,0:0:0:0:
408,336,127000,6,0,P|341:355|258:318,1,150,4|4,0:0|0:0,0:0:0:0:
168,344,127961,2,0,P|199:305|199:255,1,100,4|0,0:0|0:0,0:0:0:0:
168,216,128538,6,0,B|112:182|94:93|123:37,1,200,4|0,0:0|1:0,0:0:0:0:
216,0,129692,1,0,0:0:0:0:
312,16,130077,2,0,P|337:57|332:106,1,100,2|0,0:0|0:0,0:0:0:0:
416,160,130846,2,0,P|391:201|396:250,1,100,0|0,1:0|0:0,0:0:0:0:
456,336,131615,2,0,B|422:275|334:257|272:302,1,200,2|0,0:0|1:0,0:0:0:0:
200,352,132769,1,0,0:0:0:0:
128,288,133154,6,0,P|84:263|24:268,2,100,2|0|0,0:0|0:0|1:0,0:0:0:0:
224,248,134308,1,0,0:0:0:0:
296,320,134692,2,0,B|354:345|441:319|466:256,1,200,4|0,0:0|1:0,0:0:0:0:
456,160,135846,1,0,0:0:0:0:
360,152,136231,6,0,P|332:109|336:56,1,100,2|0,0:0|0:0,0:0:0:0:
240,16,137000,2,0,P|242:65|216:107,1,100,0|0,1:0|0:0,0:0:0:0:
128,152,137769,2,0,B|68:187|47:272|91:342,1,200,4|0,0:0|1:0,0:0:0:0:
176,376,138923,1,2,0:0:0:0:
280,376,139308,6,0,B|339:340|360:255|316:185,1,200,4|4,0:0|0:0,0:0:0:0:
224,208,140461,1,4,0:0:0:0:
128,176,140846,2,0,B|92:120|113:34|172:0,1,200,4|4,0:0|0:0,0:0:0:0:
256,192,141808,12,4,143923,0:0:0:0:
416,40,150077,6,0,B|478:126|367:155|428:244,1,200,4|0,0:0|0:0,0:0:0:0:
464,320,151231,1,0,1:0:0:0:
464,320,151423,2,0,P|402:279|315:283,1,150,2|0,0:0|0:0,0:0:0:0:
280,296,152192,2,0,P|248:295|213:275,2,50,2|2|2,0:0|0:0|0:0,0:0:0:0:
392,192,153154,6,0,P|391:118|350:56,1,150,4|4,0:0|0:0,0:0:0:0:
256,32,154115,1,4,0:0:0:0:
160,56,154500,2,0,P|119:118|123:205,1,150,4|0,0:0|0:0,0:0:0:0:
136,240,155269,2,0,P|92:213|27:219,1,100,4|4,0:0|0:0,0:0:0:0:
232,304,156231,6,0,P|294:264|368:266,1,150,4|2,0:0|0:0,0:0:0:0:
472,256,157192,2,0,P|483:234|487:209,1,50,2|8,0:0|0:0,0:0:0:0:
432,128,157769,1,2,0:0:0:0:
336,120,158154,2,0,P|338:71|365:30,2,100,8|0|2,0:0|0:0|0:0,0:0:0:0:
288,208,159308,6,0,P|214:211|150:174,1,150,2|2,0:0|0:0,0:0:0:0:
48,152,160269,2,0,P|61:177|64:208,1,50,2|8,0:0|0:0,0:0:0:0:
24,288,160846,1,2,0:0:0:0:
104,344,161231,2,0,P|147:322|211:326,2,100,8|0|2,0:0|0:0|0:0,0:0:0:0:
104,248,162384,5,4,0:0:0:0:
304,216,163154,1,2,0:0:0:0:
144,96,163923,1,0,0:0:0:0:
344,64,164692,2,0,P|393:65|436:90,1,100,2|0,0:0|0:0,0:0:0:0:
488,176,165461,6,0,P|491:250|458:316,1,150,4|2,0:0|0:0,0:0:0:0:
368,360,166423,2,0,P|325:338|263:344,1,100
240,376,167000,6,0,B|257:338|261:282|207:294|208:235|240:186,1,200,2|0,0:0|0:0,0:0:0:0:
312,120,168154,1,0,0:0:0:0:
256,40,168538,6,0,P|216:64|157:58,1,100,4|0,1:0|1:0,0:0:0:0:
72,24,169308,1,4,1:0:0:0:
72,24,169692,1,0,1:0:0:0:
16,112,170077,2,0,B|-21:166|8:259|76:279,1,200,4|2,1:2|0:0,0:0:0:0:
168,264,171231,1,0,1:0:0:0:
224,176,171615,5,4,0:1:0:0:
320,168,172000,2,0,P|339:184|354:208,2,50,0|0|8,1:0|1:0|0:1,0:0:0:0:
224,176,172769,1,0,1:0:0:0:
128,184,173154,2,0,P|109:168|94:144,2,50,0|0|0,1:0|0:0|1:0,0:0:0:0:
184,264,173923,2,0,P|184:316|151:364,1,100,2|0,0:0|0:0,0:0:0:0:
248,320,174692,6,0,P|282:303|328:304,1,75.0000028610231,0|4,0:0|0:0,0:0:0:0:
408,352,175461,6,0,P|437:312|442:263,1,100,0|0,1:0|0:0,0:0:0:0:
384,184,176230,2,0,B|328:150|311:58|344:4,1,200,2|0,0:0|1:0,0:0:0:0:
248,24,177384,1,0,0:0:0:0:
224,120,177769,2,0,B|190:176|98:193|44:160,1,200,2|0,0:0|1:0,0:0:0:0:
16,256,178922,1,0,0:0:0:0:
112,288,179307,6,0,P|150:326|152:384,2,100,2|0|0,0:0|0:0|1:0,0:0:0:0:
176,216,180461,1,0,0:0:0:0:
248,288,180845,2,0,B|302:330|391:306|420:247,1,200,2|0,0:0|1:0,0:0:0:0:
416,144,181999,1,0,0:0:0:0:
344,72,182384,6,0,P|294:68|252:94,1,100,2|0,0:0|0:0,0:0:0:0:
184,168,183154,2,0,P|134:171|92:145,1,100,0|0,1:0|0:0,0:0:0:0:
8,88,183922,2,0,B|66:111|100:191|75:257,1,200,4|0,0:0|1:0,0:0:0:0:
40,352,185076,1,2,0:0:0:0:
136,336,185461,6,0,P|195:300|285:314,1,150,4|4,0:0|0:0,0:0:0:0:
360,352,186423,2,0,P|409:351|447:320,1,100,4|0,0:0|0:0,0:0:0:0:
480,280,187000,6,0,B|514:221|486:134|429:105,1,200,4|0,0:0|1:0,0:0:0:0:
336,72,188153,1,0,0:0:0:0:
288,160,188538,2,0,P|238:157|201:124,2,100,2|0|0,0:0|0:0|1:0,0:0:0:0:
368,224,189692,1,0,0:0:0:0:
304,296,190076,2,0,B|245:317|159:293|120:232,1,200,2|0,0:0|1:0,0:0:0:0:
152,144,191230,1,0,0:0:0:0:
136,48,191615,6,0,P|92:21|32:28,2,100,2|0|0,0:0|0:0|1:0,0:0:0:0:
152,144,192769,1,0,0:0:0:0:
232,208,193153,2,0,B|293:243|382:209|403:134,1,200,4|0,0:0|1:0,0:0:0:0:
464,72,194307,1,0,0:0:0:0:
496,168,194692,6,0,P|468:211|472:264,1,100,2|0,0:0|0:0,0:0:0:0:
440,352,195461,2,0,P|402:316|349:311,1,100,0|0,1:0|0:0,0:0:0:0:
264,352,196230,2,0,B|217:396|118:376|93:306,1,200,4|0,0:0|1:0,0:0:0:0:
109,212,197384,1,2,0:0:0:0:
204,241,197769,6,0,B|248:194|228:95|163:71,1,200,4|4,0:0|0:0,0:0:0:0:
240,8,198922,1,4,0:0:0:0:
296,88,199308,2,0,B|504:48,1,200,4|4,0:0|0:0,0:0:0:0:
256,192,200269,12,4,202385,0:0:0:0:
288,296,203154,5,0,0:0:0:0:
328,152,203923,2,0,P|392:113|477:125,2,150.000005722046,2|0|2,0:0|0:0|0:0,0:0:0:0:
208,240,206231,1,0,0:0:0:0:
72,176,207000,2,0,P|111:112|99:27,2,150.000005722046,2|0|2,0:0|0:0|0:0,0:0:0:0:
120,320,209308,1,0,0:0:0:0:
208,200,210077,6,0,P|274:161|354:173,1,150.000005722046,2|0,0:0|0:0,0:0:0:0:
448,280,211615,2,0,P|382:319|302:307,1,150.000005722046,2|0,0:0|0:0,0:0:0:0:
256,256,212769,1,2,0:0:0:0:
192,208,213154,6,0,P|118:201|55:239,1,150.000005722046,2|2,0:0|0:0,0:0:0:0:
320,176,214776,6,0,P|394:183|448:144,1,143.75,2|2,0:0|0:0,0:0:0:0:
256,192,215851,12,2,218018,0:0:0:0:
