osu file format v7

[General]
AudioFilename: Icharabu Come Home! (TV Size).mp3
AudioLeadIn: 0
PreviewTime: 52690
Countdown: 0
SampleSet: Normal
StackLeniency: 0.4
Mode: 0
LetterboxInBreaks: 0

[Editor]
Bookmarks: 7262,10690,17547,24405,31262,38119,44976,52690,60405,67262,74119,77547,84405
DistanceSpacing: 0.800000011920929
BeatDivisor: 4
GridSize: 32

[Metadata]
Title:Icharabu Come Home! (TV Size)
Artist:Mayoi Neko Overrun!
Creator:DJPop
Version:Normal
Source:Itou Kanae, Iguchi Yuka, Taketatsu Ayana
Tags:Serizawa Fumino Umenomori Chise Kiriya Nozomi

[Difficulty]
HPDrainRate:2
CircleSize:3
OverallDifficulty:4
SliderMultiplier:1.28
SliderTickRate:4

[Events]
//Background and Video events
0,0,"Icharabu Come Home! (TV Size).png"
Video,330,"Icharabu Come Home! (TV Size).avi"
//Break Periods
//Storyboard Layer 0 (Background)
//Storyboard Layer 1 (Fail)
//Storyboard Layer 2 (Pass)
//Storyboard Layer 3 (Foreground)
//Storyboard Sound Samples
//Background Colour Transformations
3,100,255,128,64

[TimingPoints]
405,428.571428571429,4,2,1,80,1,0
52690,-100,4,1,1,80,0,0
53547,-100,4,1,1,80,0,1
67261,-100,4,1,1,80,0,1
67262,-100,4,1,1,80,0,1
73905,-100,4,2,1,90,0,1
75726,-100,4,1,1,80,0,1
76047,-100,4,1,1,80,0,0
86333,-100,4,1,2,0,0,0

[Colours]
Combo1 : 0,255,0
Combo2 : 0,255,255
Combo3 : 255,0,255
Combo4 : 255,255,0

[HitObjects]
256,192,7262,12,4,10690
112,192,11547,5,0
256,336,12405,1,0
400,192,13262,1,0
256,48,14119,6,0,B|208:32|144:24|144:80|144:136|80:128|32:112,1,256
32,320,15833,2,0,B|160:346|288:320,2,256
192,192,18405,5,0
416,192,19262,2,0,C|288:192,1,128,2|2
112,64,20976,5,0
208,48,21405,1,0
304,48,21833,1,0
400,64,22262,1,0
320,128,22690,2,0,C|192:128,1,128,2|2
400,192,24405,5,4
256,336,25262,1,0
112,192,26119,1,0
256,48,26976,1,0
464,192,27833,6,0,C|336:192,3,128
240,192,29547,2,0,C|48:192,2,192
256,296,31262,5,0
256,88,32119,1,0
64,32,32976,2,0,B|48:48|40:56|22:88|40:120|48:128|64:144,3,128,2|2|2|2
144,208,34690,2,0,B|160:224|192:256|256:302|320:256|352:224|368:208,2,256
256,32,38119,6,0,C|256:160,1,128,4|8
256,352,39405,1,8
64,352,40262,1,8
64,160,41119,1,8
256,160,41976,5,8
448,160,42833,1,8
448,352,43690,1,8
256,352,44547,1,8
256,256,44976,6,0,C|256:128,3,128,0|8|0|8
160,128,46690,2,0,B|128:192|48:192|3:144|16:80|32:16|144:32|208:32,1,384,0|8
305,31,48405,2,0,B|368:32|480:16|496:80|509:144|464:192|384:192|352:128,1,384,0|8
256,192,50119,12,4,52047
192,336,53547,6,0,B|112:304|80:256|58:192|80:128|112:80|192:48,1,384,4|0
321,48,55262,2,0,B|399:80|431:128|453:192|431:256|399:304|320:336,1,384
256,256,56976,6,0,C|256:128,2,128
64,320,58690,6,0,B|256:359|448:320,1,384
368,240,60405,6,0,C|448:64,2,192,4|0|0
256,240,62119,2,0,C|256:48,2,192
144,240,63833,2,0,C|64:64,2,192
208,320,65547,5,2
304,320,65976,1,2
256,240,66405,1,2
256,144,66833,1,6
256,48,67262,6,0,B|352:32|407:46|448:80|464:144,1,256,4|0
368,192,68547,1,0
463,241,68976,2,0,B|448:304|407:338|352:352|256:336,1,256
208,240,70262,1,0
160,336,70690,6,0,C|32:336,3,128
32,240,72405,2,0,B|32:192|32:61|160:48,1,256
256,48,73690,1,0
256,144,74119,6,0,C|256:208,8,64,2|2|2|2|2|2|2|2|4
256,328,77547,5,4
464,328,78405,1,0
312,192,79262,1,0
464,56,80119,1,0
360,56,80547,1,0
256,56,80976,5,0
48,56,81833,1,0
200,192,82690,1,0
48,328,83547,1,0
152,328,83976,1,0
256,328,84405,6,0,C|344:288,2,96,2|2|2
256,260,85262,2,0,C|168:220,2,96,2|2|2
256,192,86119,1,4
256,192,86226,12,0,89547
