osu file format v7

[General]
AudioFilename: Icharabu Come Home! (TV Size).mp3
AudioLeadIn: 0
PreviewTime: 52690
Countdown: 0
SampleSet: Soft
StackLeniency: 0.4
Mode: 0
LetterboxInBreaks: 0

[Editor]
Bookmarks: 7262,10690,17547,24405,31262,38119,44976,52690,60405,67262,74119,77547,84405
DistanceSpacing: 1
BeatDivisor: 4
GridSize: 16

[Metadata]
Title:Icharabu Come Home! (TV Size)
Artist:Mayoi Neko Overrun!
Creator:DJPop
Version:Insane
Source:Itou Kanae, Iguchi Yuka, Taketatsu Ayana
Tags:Serizawa Fumino Umenomori Chise Kiriya Nozomi

[Difficulty]
HPDrainRate:6
CircleSize:5
OverallDifficulty:8
SliderMultiplier:1.92
SliderTickRate:4

[Events]
//Background and Video events
0,0,"Icharabu Come Home! (TV Size).png"
Video,330,"Icharabu Come Home! (TV Size).avi"
//Break Periods
//Storyboard Layer 0 (Background)
//Storyboard Layer 1 (Fail)
//Storyboard Layer 2 (Pass)
//Storyboard Layer 3 (Foreground)
//Storyboard Sound Samples
//Background Colour Transformations
3,100,255,128,64

[TimingPoints]
405,428.571428571429,4,2,1,80,1,0
50012,-100,4,2,2,50,0,0
50547,-100,4,2,2,60,0,0
50976,-100,4,2,2,70,0,0
51405,-100,4,2,2,80,0,0
51833,-200,4,2,2,80,0,0
52369,-200,4,1,2,0,0,0
52583,-200,4,2,2,60,0,0
53333,-100,4,1,1,80,0,0
53547,-100,4,1,1,80,0,1
67261,-100,4,1,1,80,0,1
67262,-100,4,1,1,80,0,1
73905,-100,4,2,1,90,0,1
75726,-100,4,1,1,80,0,1
76047,-100,4,2,1,80,0,0
77440,-100,4,1,1,80,0,0
86333,-100,4,1,2,0,0,0

[Colours]
Combo1 : 0,255,0
Combo2 : 0,255,255
Combo3 : 255,0,255
Combo4 : 255,255,0

[HitObjects]
64,192,7262,6,0,C|104:160,3,48,4|0|0|0
112,192,7690,2,0,C|152:224,3,48
160,192,8119,2,0,C|200:160,3,48
208,192,8547,2,0,C|248:224,3,48
256,192,8976,6,0,C|296:160,3,48
304,192,9405,2,0,C|344:224,3,48
352,192,9834,2,0,C|392:160,3,48
400,192,10262,2,0,C|424:216,5,32
448,192,10690,5,4
480,352,11119,2,0,B|448:352|374:352|336:320|320:272,1,192,8|0
256,240,11762,1,0
256,240,11976,1,8
191,272,12190,2,0,B|176:320|138:352|64:352|32:352,1,192
32,288,12833,6,0,C|32:96,1,192,8|0
64,32,13476,1,0
96,96,13690,1,8
128,32,13905,1,0
160,96,14119,5,2
184,88,14226,1,2
208,96,14333,1,2
224,160,14547,1,10
248,168,14655,1,2
272,160,14762,1,2
288,96,14976,1,0
352,64,15190,1,0
416,32,15405,1,8
480,64,15619,1,0
416,96,15833,5,0
352,128,16047,1,0
416,160,16262,1,8
480,192,16476,2,0,B|472:224|456:256|416:275|376:256|360:224|352:192,1,192
288,160,17119,2,0,B|264:128|240:112|208:100|176:112|152:128|128:160,1,192,8|0
32,320,17976,5,8
96,352,18190,1,0
128,288,18405,1,0
160,288,18512,1,0
192,352,18726,1,0
224,352,18833,1,8
256,288,19047,1,0
320,320,19262,6,0,B|384:320|446:320|480:240,1,192,2|10
256,192,20119,1,0
32,144,20547,1,8
192,32,20976,5,0
128,64,21190,1,0
160,128,21405,1,8
224,96,21619,1,0
288,64,21833,1,0
352,32,22047,1,0
384,96,22262,2,0,C|320:128,2,64,8|0|0
384,96,22690,5,0
384,288,23119,1,8
224,192,23547,2,0,C|184:224,3,48
176,192,23976,2,0,C|136:160,3,48,8|0|0|0
128,192,24405,5,4
32,352,24833,1,8
224,352,25262,1,0
253,288,25476,1,0
323,288,25690,1,8
352,352,25905,1,0
480,192,26333,6,0,C|480:288,1,96,0|8
480,96,26976,1,0
448,32,27190,1,0
416,96,27405,1,8
384,32,27619,1,0
352,96,27833,5,2
328,112,27940,1,2
304,128,28047,1,2
280,112,28155,1,2
256,96,28262,1,10
192,64,28476,1,2
164,56,28583,1,2
136,64,28690,1,2
72,96,28905,1,2
60,120,29012,1,2
48,144,29119,1,10
32,208,29333,1,0
48,272,29547,5,0
96,320,29762,1,0
160,352,29976,1,8
224,352,30190,2,0,C|416:352,1,192
480,352,30833,1,8
256,288,31262,5,0
256,64,31690,2,0,C|256:160,1,96,8|0
224,224,32119,1,0
224,224,32226,1,0
288,224,32440,1,0
288,224,32547,1,8
256,288,32762,1,0
256,352,32976,5,2
256,32,33405,1,10
480,192,33833,2,0,B|448:168|432:144|420:112|432:80|448:56|480:32,1,192,2|10
352,192,34690,5,0
352,224,34797,1,0
288,192,35012,1,0
288,224,35119,1,8
224,192,35333,1,0
224,224,35440,1,0
160,192,35655,1,0
160,224,35762,1,0
128,288,35976,1,8
96,352,36190,1,0
160,352,36405,5,0
224,352,36619,1,2
192,288,36833,1,2
256,288,37047,1,2
320,288,37262,1,2
288,352,37476,1,2
352,352,37690,1,2
416,352,37905,1,2
384,288,38119,5,4
256,128,38547,1,8
320,96,38762,1,2
256,64,38976,1,2
192,64,39190,2,0,C|96:64,1,96,8|8
192,128,39619,2,0,C|96:128,1,96,2|0
32,64,40047,5,2
32,128,40262,1,8
40,192,40476,1,2
48,256,40690,1,0
64,280,40797,1,0
80,304,40905,1,2
104,320,41012,1,0
136,328,41119,1,8
168,320,41226,1,0
192,304,41333,1,2
208,280,41440,1,0
224,256,41547,5,0
256,192,41762,1,2
288,256,41976,1,8
320,320,42190,1,2
384,352,42405,1,2
448,320,42619,2,0,B|484:283|480:232,1,96,8|8
383,279,43047,2,0,B|380:229|416:192,1,96,2|0
480,160,43476,5,2
448,96,43690,1,8
384,64,43905,1,2
320,96,44119,1,0
296,80,44226,1,0
272,64,44333,1,2
248,48,44440,1,0
224,32,44547,1,8
200,48,44655,1,0
176,64,44762,1,2
152,80,44869,1,0
128,96,44976,6,0,C|88:64,2,48,0|0|2
96,160,45405,2,0,C|136:192,2,48,8|0|2
64,224,45833,1,2
64,256,45940,2,0,B|68:306|112:336,1,96
144,352,46262,2,0,B|192:362|240:352,1,96,8|2
304,336,46690,5,0
448,352,47012,1,2
384,224,47333,1,2
336,176,47547,1,0
400,160,47762,1,2
464,144,47976,1,8
416,96,48190,1,2
368,48,48405,6,0,B|392:24|435:13|472:40|480:64|480:80,2,144,0|2|2
352,112,49262,1,0
304,64,49476,1,2
288,128,49690,1,8
240,80,49905,1,2
192,32,50119,5,10
170,49,50226,1,8
148,66,50333,1,10
126,83,50440,1,8
104,100,50547,1,8
104,123,50655,1,8
126,140,50762,1,10
148,157,50869,1,8
170,174,50976,1,8
192,191,51083,1,8
192,214,51190,1,10
170,231,51297,1,8
148,248,51405,1,10
126,265,51512,1,8
104,282,51619,1,10
192,352,52047,6,0,C|96:352,1,96,4|0
32,352,52690,1,0
256,352,53119,1,0
480,352,53547,5,4
352,288,53869,1,0
480,224,54190,1,0
416,192,54405,2,0,B|400:152|393:93|432:56|480:32,1,192
256,32,55262,5,0
320,160,55583,1,0
192,96,55905,1,0
128,64,56119,2,0,B|80:24|12:62|16:112|32:160,1,192
64,352,56976,5,0
76,324,57083,1,0
88,296,57190,1,0
144,336,57405,1,0
208,336,57619,1,0
264,296,57833,1,0
276,324,57940,1,0
288,352,58047,2,0,C|480:352,1,192
480,288,58690,5,0
352,192,59012,1,0
224,96,59333,1,0
160,64,59547,2,0,B|152:104|128:128|96:142|64:128|40:104|32:64,1,192
224,32,60405,5,4
288,32,60619,1,0
352,32,60833,1,0
384,96,61047,1,0
416,96,61155,1,0
448,32,61369,2,0,B|475:37|480:64,1,48
480,128,61690,1,0
480,352,62119,5,0
416,352,62333,1,0
352,352,62547,1,0
320,288,62762,1,0
288,288,62869,1,0
256,352,63083,1,0
224,352,63190,1,0
192,288,63405,1,0
128,288,63619,1,0
96,352,63833,6,0,B|56:344|32:320|18:288|32:256|56:232|96:224,1,192
95,159,64476,2,0,B|56:152|32:128|18:96|32:64|56:40|96:32,1,192
160,32,65119,2,0,C|256:32,1,96
256,32,65547,5,2
480,192,65976,1,2
256,352,66405,1,2
32,192,66833,1,6
256,192,67262,5,4
384,264,67583,1,0
384,120,67905,1,0
416,192,68119,2,0,C|320:192,1,96
256,192,68547,1,0
64,264,68976,5,0
64,120,69297,1,0
192,192,69619,1,0
128,228,69833,1,0
128,156,70047,1,0
64,192,70262,1,0
256,352,70690,5,0
256,336,70797,1,0
256,320,70905,1,0
256,252,71119,1,0
256,236,71226,1,0
256,220,71333,1,0
256,152,71547,2,0,C|256:32,1,120
480,264,72405,5,0
480,120,72726,1,0
352,192,73047,1,0
368,128,73262,2,0,B|416:136|432:160|434:192|432:224|416:248|368:256,1,192
160,352,74119,5,2
96,312,74333,1,2
32,272,74547,1,2
96,232,74762,1,2
160,192,74976,1,2
96,152,75190,1,2
32,112,75404,1,2
96,72,75619,1,2
160,32,75833,5,4
352,32,76262,1,0
456,192,76690,1,0
352,352,77119,1,0
288,352,77333,1,0
224,352,77547,6,0,C|184:264,1,96,4|0
151,264,77869,2,0,C|112:352,1,96
112,352,78190,1,0
48,352,78405,1,0
32,192,78726,1,0
48,32,79047,1,0
112,31,79262,6,0,C|151:119,1,96
184,119,79583,2,0,C|224:31,1,96
224,31,79905,1,0
288,64,80119,1,0
256,128,80333,1,0
224,192,80547,1,0
320,352,80976,6,0,C|360:264,1,96
392,264,81298,2,0,C|431:351,1,96
432,352,81619,1,0
480,288,81833,2,0,C|480:192,1,96
480,192,82262,2,0,C|480:96,1,96
432,32,82690,6,0,C|392:120,1,96
359,119,83012,2,0,C|319:31,1,96
320,32,83333,1,0
224,96,83547,1,0
288,128,83762,1,0
320,192,83976,1,0
288,256,84190,1,0
224,288,84405,5,2
144,280,84619,1,0
144,280,84726,1,2
80,232,84940,1,0
80,232,85047,1,2
80,152,85262,1,2
144,104,85476,1,0
144,104,85583,1,2
224,96,85797,1,0
224,96,85905,1,2
256,192,86119,5,4
256,192,86226,12,0,89547
