osu file format v7

[General]
AudioFilename: Happy New Nyaa (TV Size).mp3
AudioLeadIn: 0
PreviewTime: 50866
Countdown: 0
SampleSet: Normal
StackLeniency: 0.4
Mode: 0
LetterboxInBreaks: 0

[Editor]
Bookmarks: 8761,14375,19989,25603,31217,36831,42445,50866,56480,64901,70515,74725,78936,84550,88761
DistanceSpacing: 0.800000011920929
BeatDivisor: 4
GridSize: 32

[Metadata]
Title:Happy New Nyaa (TV Size)
Artist:Mayoi Neko Overrun!
Creator:DJPop
Version:Normal
Source:Itou Kanae, Iguchi Yuka, Taketatsu Ayana
Tags:Serizawa Fumino Umenomori Chise Kiriya Nozomi

[Difficulty]
HPDrainRate:2
CircleSize:4
OverallDifficulty:4
SliderMultiplier:1.28
SliderTickRate:2

[Events]
//Background and Video events
Video,-300,"Happy New Nyaa (TV Size).avi"
0,0,"Happy New Nyaa (TV Size).png"
//Break Periods
//Storyboard Layer 0 (Background)
//Storyboard Layer 1 (Fail)
//Storyboard Layer 2 (Pass)
//Storyboard Layer 3 (Foreground)
//Storyboard Sound Samples
//Background Colour Transformations
3,100,255,128,64

[TimingPoints]
340,350.877192982456,4,1,1,80,1,0
10515,-100,4,1,2,80,0,0
10603,-100,4,1,1,80,0,0
13322,-100,4,1,2,80,0,0
13410,-100,4,1,1,80,0,0
21743,-100,4,1,2,80,0,0
21831,-100,4,1,1,80,0,0
24550,-100,4,1,2,80,0,0
24638,-100,4,1,1,80,0,0
37182,-100,4,1,2,80,0,0
37269,-100,4,1,1,80,0,0
38585,-100,4,1,2,80,0,0
38673,-100,4,1,1,80,0,0
48410,-100,4,1,2,80,0,0
48497,-100,4,1,1,80,0,0
50866,-100,4,1,1,80,0,1
51217,-100,4,1,2,80,0,1
51304,-100,4,1,1,80,0,1
52620,-100,4,1,2,80,0,1
52708,-100,4,1,1,80,0,1
54024,-100,4,1,2,80,0,1
54111,-100,4,1,1,80,0,1
55427,-100,4,1,2,80,0,1
55515,-100,4,1,1,80,0,1
58234,-100,4,1,2,80,0,1
58322,-100,4,1,1,80,0,1
63147,-100,4,1,2,80,0,1
63234,-100,4,1,1,80,0,1
64900,-100,4,1,1,80,0,0
64901,-100,4,1,1,80,0,1
65252,-100,4,1,2,80,0,1
65339,-100,4,1,1,80,0,1
66655,-100,4,1,2,80,0,1
66743,-100,4,1,1,80,0,1
68059,-100,4,1,2,80,0,1
68147,-100,4,1,1,80,0,1
69462,-100,4,1,2,80,0,1
69550,-100,4,1,1,80,0,1
75778,-100,4,1,2,80,0,1
75866,-100,4,1,1,80,0,1
78497,-100,4,1,1,80,0,0
79287,-100,4,1,2,80,0,0
79375,-100,4,1,1,80,0,0
82094,-100,4,1,2,80,0,0
82182,-100,4,1,1,80,0,0
85603,-100,4,1,2,80,0,0
85690,-100,4,1,1,80,0,0
87006,-100,4,1,2,80,0,0
87094,-100,4,1,1,80,0,0

[Colours]
Combo1 : 0,255,0
Combo2 : 0,255,255
Combo3 : 255,0,255
Combo4 : 255,255,0

[HitObjects]
256,192,5954,12,0,7182
256,192,7708,5,2
48,32,8761,6,0,C|176:32,3,128,4|8|0|10
272,32,10164,2,0,C|464:32,2,192,0|0|8
192,96,11568,6,0,C|64:96,3,128,4|8|0|8
64,96,12796,1,0
64,192,13147,2,0,C|192:192,2,128
64,192,14024,1,8
64,288,14375,6,0,C|192:288,1,128,4|8
288,320,15076,1,0
384,352,15427,1,8
480,320,15778,2,0,C|480:192,1,128,0|8
448,96,16480,1,0
352,64,16831,1,8
256,32,17182,6,0,C|128:32,3,128,0|8|0|8
48,96,18585,1,0
128,160,18936,1,8
208,224,19287,1,0
288,160,19638,1,8
384,160,19989,6,0,B|416:160|469:160|480:224,3,128,4|8|0|10
384,256,21392,2,0,B|368:304|384:352|454:367|480:320|480:288,2,192,0|0|8
288,256,22796,6,0,C|160:256,3,128,4|8|0|8
160,256,24024,1,0
160,352,24375,2,0,C|288:352,2,128
160,352,25252,1,8
64,352,25603,5,4
32,256,25954,1,8
64,160,26304,2,0,B|64:128|64:75|128:64,1,128,0|8
224,32,27006,1,0
320,64,27357,1,8
416,96,27708,2,0,B|480:108|480:160|480:192,1,128,0|8
384,192,28410,6,0,C|256:192,3,128,0|8|0|8
256,192,29638,1,0
160,192,29989,2,0,C|96:192,3,64,8|8|8|10
256,352,31217,5,4
352,352,31568,1,8
352,256,31918,1,0
256,256,32269,1,8
160,256,32620,1,0
160,352,32971,1,8
160,352,33147,2,0,B|128:352|96:360|32:362|32:288|32:256,1,192,0|8
32,160,34024,6,0,C|32:32,3,128,4|8|0|8
128,48,35427,1,0
128,144,35778,1,8
224,144,36129,1,0
224,48,36480,1,8
320,32,36831,6,0,B|384:32|435:32|464:80|480:112,2,192,4|0|8
320,128,38234,2,0,B|336:160|362:208|416:208|480:208,2,192,0|0|8
256,208,39638,5,4
336,272,39989,1,8
256,336,40339,1,0
176,272,40690,1,8
96,336,41041,2,0,C|96:208,3,128,0|8|0|8
32,128,42445,5,4
96,48,42796,2,0,C|32:48,2,64,8|0|0
192,48,43497,2,0,C|256:48,2,64,8|0|0
256,128,44199,1,8
256,224,44550,2,0,C|256:352,1,128,0|8
352,352,45252,6,0,C|480:352,3,128,4|8|0|8
480,256,46655,2,0,C|352:256,3,128,0|8|0|8
352,256,47883,6,0,B|352:160|352:64|256:38|160:64|160:160|160:256,1,448,0|8
256,256,49462,5,4
256,352,49813,1,4
256,256,50164,1,2
448,64,50866,6,0,C|64:64,1,384,4|8
160,128,52269,2,0,C|352:128,2,192,0|0|8
64,192,53673,6,0,C|448:192,1,384,0|8
352,256,55076,2,0,C|160:256,1,192
352,256,56129,1,8
448,256,56480,6,0,B|448:288|448:341|384:352,3,128,4|8|0|8
288,352,57883,2,0,C|96:352,2,192,0|0|8
288,256,59287,5,4
288,160,59638,1,8
288,160,59813,2,0,B|320:160|416:187|416:96|416:64,1,192,0|8
320,64,60690,1,0
224,64,61041,1,8
224,64,61217,2,0,B|192:64|96:37|96:128|96:160,1,192,0|8
64,256,62094,5,0
32,352,62445,1,8
128,352,62796,2,0,B|183:340|192:288,2,96
288,352,63848,1,8
384,352,64199,2,2,C|448:352,3,64,2|2|10|2
448,288,64901,6,0,C|64:288,1,384,4|8
160,224,66304,2,0,C|352:224,2,192,0|0|8
64,160,67708,6,0,C|448:160,1,384,0|8
352,96,69111,2,0,C|160:96,1,192
352,96,70164,1,8
272,32,70515,5,4
176,32,70866,1,8
176,32,71041,2,0,C|48:32,2,128
176,32,71918,1,0
176,128,72269,1,8
176,128,72445,2,0,C|304:128,2,128
176,128,73322,5,0
176,224,73673,2,0,C|48:224,1,128,8|0
48,320,74375,2,0,C|176:320,1,128,8|0
272,320,75076,1,8
272,320,75252,2,0,C|400:320,2,128
256,224,76304,2,0,C|256:160,3,64,2|2|2|2
256,64,77182,1,0
256,160,77532,2,0,C|256:224,5,64
416,224,78936,6,0,B|384:288|320:320|256:326|192:320|128:288|96:224,1,384,4|8
192,192,80339,2,0,C|320:192,1,128,0|8
320,160,80866,2,0,B|320:128|304:104|256:78|208:104|192:128|192:160,1,192,0|8
96,128,81743,6,0,B|144:64|192:32|256:9|320:32|368:64|416:128,1,384,0|8
416,224,83147,2,0,C|416:288,3,64,0|0|8|0
256,352,84199,1,8
160,320,84550,5,4
128,224,84901,1,8
128,224,85076,2,0,B|32:312,2,128
128,224,85954,1,0
128,128,86304,1,8
128,128,86480,2,0,C|32:40,2,128
224,96,87532,6,0,C|288:96,3,64,2|2|2|2
256,192,88410,1,0
256,288,88761,6,0,C|256:352,3,64,2|2|2|2
