osu file format v7

[General]
AudioFilename: Happy New Nyaa (TV Size).mp3
AudioLeadIn: 0
PreviewTime: 50866
Countdown: 0
SampleSet: Normal
StackLeniency: 0.4
Mode: 0
LetterboxInBreaks: 0

[Editor]
Bookmarks: 8761,14375,19989,25603,31217,36831,42445,50866,56480,64901,70515,74725,78936,88761
DistanceSpacing: 0.800000011920929
BeatDivisor: 4
GridSize: 32

[Metadata]
Title:Happy New Nyaa (TV Size)
Artist:Mayoi Neko Overrun!
Creator:DJPop
Version:Hard
Source:Itou Kanae, Iguchi Yuka, Taketatsu Ayana
Tags:Serizawa Fumino Umenomori Chise Kiriya Nozomi

[Difficulty]
HPDrainRate:4
CircleSize:4
OverallDifficulty:6
SliderMultiplier:1.6
SliderTickRate:2

[Events]
//Background and Video events
Video,-300,"Happy New Nyaa (TV Size).avi"
0,0,"Happy New Nyaa (TV Size).png"
//Break Periods
//Storyboard Layer 0 (Background)
//Storyboard Layer 1 (Fail)
//Storyboard Layer 2 (Pass)
//Storyboard Layer 3 (Foreground)
//Storyboard Sound Samples
//Background Colour Transformations
3,100,255,128,64

[TimingPoints]
340,350.877192982456,4,1,1,80,1,0
15427,-100,4,1,2,80,0,0
15515,-100,4,1,1,80,0,0
16831,-100,4,1,2,80,0,0
16918,-100,4,1,1,80,0,0
25954,-100,4,1,2,80,0,0
26041,-100,4,1,1,80,0,0
28059,-100,4,1,2,80,0,0
28147,-100,4,1,1,80,0,0
29462,-100,4,1,2,80,0,0
29550,-100,4,1,1,80,0,0
30427,-250,4,1,1,80,0,0
30778,-250,4,2,1,0,0,0
30954,-100,4,1,1,80,0,0
37883,-100,4,1,2,80,0,0
37971,-100,4,1,1,80,0,0
39287,-100,4,1,2,80,0,0
39375,-100,4,1,1,80,0,0
50866,-100,4,1,1,80,0,1
63147,-100,4,1,2,80,0,1
63234,-100,4,1,1,80,0,1
64900,-100,4,1,1,80,0,0
64901,-100,4,1,1,80,0,1
70954,-200,4,1,1,80,0,1
71831,-100,4,1,1,80,0,1
72357,-200,4,1,1,80,0,1
73234,-100,4,1,1,80,0,1
75778,-100,4,1,2,80,0,1
75866,-100,4,1,1,80,0,1
78497,-100,4,1,1,80,0,0

[Colours]
Combo1 : 0,255,0
Combo2 : 0,255,255
Combo3 : 255,0,255
Combo4 : 255,255,0

[HitObjects]
256,192,5954,12,0,7182
256,192,7708,5,2
416,96,8761,5,4
384,32,8936,1,0
320,64,9111,1,8
256,96,9287,1,0
192,64,9462,1,0
128,32,9638,1,0
96,96,9813,1,10
32,224,10164,6,0,C|128:352,1,160,0|8
192,352,10690,2,0,C|288:224,1,160
320,160,11217,1,8
448,224,11568,6,0,B|448:288|416:288|419:352|480:352,2,160,4|8|0
448,160,12445,1,0
448,96,12620,1,8
448,32,12796,1,0
320,32,13147,5,0
256,32,13322,1,8
192,32,13497,2,0,B|168:24|136:32|144:80|152:128|120:136|95:128,1,160
32,128,14024,1,8
32,256,14375,6,0,C|192:256,1,160,4|8
256,256,14901,1,0
256,192,15076,1,0
320,192,15252,2,0,C|480:192,1,160
480,320,15954,5,0
416,352,16129,1,8
352,320,16304,1,0
288,352,16480,1,0
224,320,16655,2,0,B|160:352|106:352|96:288,1,160
96,224,17182,6,0,B|96:208|88:168|64:152|40:136|32:96|32:80,2,160,0|8|0
160,256,18059,1,0
224,224,18234,1,8
160,192,18410,1,0
160,128,18585,6,0,C|160:48,1,80
224,48,18936,2,0,C|224:128,1,80,8|0
288,128,19287,2,0,C|288:48,1,80
352,48,19638,2,0,C|352:128,1,80,8|0
351,191,19989,5,4
384,256,20164,1,0
320,288,20339,1,8
256,320,20515,1,0
192,288,20690,1,0
128,256,20866,1,0
160,192,21041,1,10
176,32,21392,6,0,C|336:32,1,160,0|8
336,96,21918,2,0,C|176:96,1,160
176,96,22445,1,8
64,160,22796,6,0,B|64:96|96:96|93:32|32:32,2,160,4|8|0
64,224,23673,1,0
64,288,23848,1,8
64,352,24024,1,0
192,352,24375,5,0
256,352,24550,1,8
320,352,24725,2,0,B|352:360|384:336|368:304|352:272|384:248|416:256,1,160
480,256,25252,1,8
480,128,25603,5,4
480,128,25778,2,0,C|320:160,1,160
336,80,26304,2,0,C|176:112,1,160,0|8
192,32,26831,2,0,C|32:64,1,160
32,128,27356,5,8
32,192,27532,1,0
32,256,27708,1,0
32,320,27883,2,0,C|192:352,1,160
256,352,28410,6,0,C|256:192,1,160,0|8
256,192,28936,2,0,C|256:32,2,160
352,288,29989,5,8
352,224,30164,1,8
416,192,30339,1,8
352,160,30515,2,0,C|352:96,1,64,10|0
480,32,31217,5,4
480,96,31392,1,0
480,160,31568,1,8
480,224,31743,1,0
416,256,31918,1,0
416,320,32094,1,0
352,352,32269,1,8
288,320,32445,1,0
224,288,32620,5,0
160,320,32796,1,0
96,352,32971,1,8
32,320,33147,2,0,C|32:160,1,160
32,96,33673,1,8
160,32,34024,6,0,B|160:80|175:141|96:160,2,160,0|8|0
224,32,34901,1,0
256,96,35076,1,8
288,32,35252,1,0
352,32,35427,6,0,C|352:112,1,80
416,112,35778,2,0,C|416:192,1,80,8|0
480,192,36129,2,0,C|480:272,1,80
416,272,36480,2,0,C|416:352,1,80,8|0
352,352,36831,5,4
288,352,37006,1,0
224,352,37182,1,8
160,352,37357,1,0
160,288,37532,2,2,C|40:288,2,120
160,224,38234,5,0
224,224,38410,1,0
288,224,38585,1,8
352,224,38761,1,0
352,160,38936,2,2,C|472:160,2,120
352,96,39638,5,4
320,32,39813,1,0
288,96,39989,1,8
256,160,40164,1,0
224,96,40339,1,0
192,32,40515,1,0
160,96,40690,1,8
128,160,40866,1,0
96,96,41041,6,0,C|16:96,1,80
16,160,41392,2,0,C|16:240,1,80,8|0
16,304,41743,2,0,C|96:304,1,80
160,304,42094,2,0,C|160:224,1,80,8|0
192,160,42445,5,4
224,288,42796,1,8
256,352,42971,1,0
288,288,43147,1,0
320,160,43497,1,8
256,160,43673,1,0
256,96,43848,6,0,C|256:16,4,80,0|2|10|2|2
256,224,44901,1,8
384,160,45252,6,0,B|384:144|396:60|464:48|480:48,2,160,4|8|0
448,192,46129,1,0
480,256,46304,1,8
448,320,46480,1,0
384,352,46655,6,0,C|224:352,3,160,0|8|0|8
160,352,47883,1,0
96,352,48059,6,0,C|32:304,1,80
128,288,48410,2,0,C|64:240,1,80,8|0
160,224,48761,2,0,C|96:176,1,80
192,160,49111,2,0,C|128:112,1,80,8|0
64,64,49462,5,4
256,320,49813,5,4
448,64,50164,5,2
480,352,50866,6,0,C|320:352,3,160,4|8|0|8
192,352,52269,6,0,C|32:352,1,160,0|8
32,288,52796,2,0,B|32:264|40:232|80:232|120:232|128:200|128:175,1,160
128,112,53322,2,0,C|128:32,1,80,8|0
192,32,53673,6,0,C|352:32,3,160,0|8|0|8
480,96,55076,5,0
480,160,55252,1,0
480,224,55427,1,8
480,288,55603,2,0,C|320:288,1,160
280,232,56129,2,0,C|280:152,1,80,8|0
320,96,56480,6,0,C|480:96,2,160,4|8|0
256,64,57357,1,0
192,32,57532,1,8
128,64,57708,1,0
64,96,57883,6,0,B|32:112|24:136|10:160|24:184|32:208|64:224,1,160,0|8
120,264,58410,2,0,C|256:352,1,160
320,352,58936,1,8
384,352,59111,1,0
448,320,59287,5,4
480,256,59462,1,0
448,192,59638,1,8
384,160,59813,2,0,C|224:160,1,160
160,160,60339,1,8
128,224,60515,1,0
64,192,60690,5,0
32,128,60866,1,0
64,64,61041,1,8
128,32,61217,2,0,C|288:32,1,160
352,32,61743,2,0,B|368:32|395:24|408:40|416:64,1,80,8|0
416,128,62094,5,0
480,160,62269,1,0
480,224,62445,1,8
416,256,62620,1,0
352,288,62796,2,0,B|383:348|448:352,2,120
288,288,63497,6,0,C|208:288,3,80,0|0|8|0
208,224,64199,2,2,C|288:224,1,80
288,160,64550,2,2,C|208:160,1,80,10|2
208,96,64901,6,0,B|184:72|160:64|136:61|112:64|88:72|64:96,3,160,4|8|0|8
32,224,66304,6,0,C|128:352,1,160,0|8
192,352,66831,2,0,C|288:224,1,160
320,160,67357,2,0,B|328:136|346:125|368:120|384:128,1,80,8|0
448,128,67708,6,0,B|480:144|488:168|503:192|488:216|480:240|448:256,3,160,0|8|0|8
336,352,69111,6,0,C|176:352,1,160,0|8
176,288,69638,2,0,C|336:288,1,160,0|2
352,224,70164,1,10
288,224,70339,1,2
224,224,70515,5,4
160,224,70690,1,0
192,160,70866,1,8
256,160,71041,2,0,C|336:160,2,80
224,96,71918,5,0
288,96,72094,1,0
352,96,72269,1,8
320,32,72445,2,0,C|400:32,2,80
256,32,73322,5,0
192,32,73497,1,0
160,96,73673,1,8
128,32,73848,2,0,B|112:32|20:18|32:112|32:128,1,160
32,192,74375,1,8
96,192,74550,1,0
96,256,74725,5,0
160,256,74901,1,0
160,320,75076,1,8
224,320,75252,2,0,C|384:320,2,160
184,192,76304,5,2
220,128,76480,1,2
292,128,76655,1,2
328,192,76831,1,2
256,64,77182,5,0
256,192,77532,5,0
292,256,77708,1,0
220,256,77883,1,0
184,320,78059,1,0
256,320,78234,1,0
328,320,78410,1,0
480,192,78936,6,0,C|480:32,3,160,4|8|0|8
352,32,80339,6,0,C|352:192,1,160,0|8
416,224,80866,1,0
480,256,81041,2,0,C|432:320,1,80
368,288,81392,2,0,C|320:352,1,80,8|0
256,352,81743,6,0,C|96:352,3,160,0|8|0|8
32,224,83147,5,0
64,160,83322,1,0
96,96,83497,1,8
128,32,83673,1,0
192,32,83848,2,0,C|240:96,1,80
280,152,84199,2,0,C|328:216,1,80,8|0
368,272,84550,5,4
424,312,84725,1,0
368,352,84901,1,8
312,312,85076,2,0,B|219:312|192:224,1,160
160,160,85603,1,8
192,96,85778,1,0
224,32,85954,5,0
288,64,86129,1,0
352,32,86304,1,8
384,96,86480,2,0,B|424:176|480:224,1,160
448,288,87006,1,8
416,352,87182,1,0
256,352,87532,5,2
256,288,87708,1,2
256,224,87883,1,2
256,160,88059,1,2
256,32,88410,5,0
256,160,88761,5,2
256,224,88936,1,2
256,288,89111,1,2
256,352,89287,1,2
