osu file format v7

[General]
AudioFilename: Happy New Nyaa (TV Size).mp3
AudioLeadIn: 0
PreviewTime: 50866
Countdown: 0
SampleSet: Normal
StackLeniency: 0.4
Mode: 0
LetterboxInBreaks: 0

[Editor]
Bookmarks: 8761,14375,19989,25603,31217,36831,42445,50866,56480,64901,70515,74725,78936,84550,88761
DistanceSpacing: 0.600000023841858
BeatDivisor: 4
GridSize: 32

[Metadata]
Title:Happy New Nyaa (TV Size)
Artist:Mayoi Neko Overrun!
Creator:DJPop
Version:Easy
Source:Itou Kanae, Iguchi Yuka, Taketatsu Ayana
Tags:Serizawa Fumino Umenomori Chise Kiriya Nozomi

[Difficulty]
HPDrainRate:1
CircleSize:3
OverallDifficulty:2
SliderMultiplier:0.96
SliderTickRate:2

[Events]
//Background and Video events
Video,-300,"Happy New Nyaa (TV Size).avi"
0,0,"Happy New Nyaa (TV Size).png"
//Break Periods
//Storyboard Layer 0 (Background)
//Storyboard Layer 1 (Fail)
//Storyboard Layer 2 (Pass)
//Storyboard Layer 3 (Foreground)
//Storyboard Sound Samples
//Background Colour Transformations
3,100,255,128,64

[TimingPoints]
340,350.877192982456,4,1,1,80,1,0
29024,-100,4,2,1,80,0,0
29111,-100,4,1,1,80,0,0
50866,-100,4,1,1,80,0,1
64900,-100,4,1,1,80,0,0
64901,-100,4,1,1,80,0,1
78497,-100,4,1,1,80,0,0

[Colours]
Combo1 : 0,255,0
Combo2 : 0,255,255
Combo3 : 255,0,255
Combo4 : 255,255,0

[HitObjects]
402,102,8761,5,4
110,105,9813,1,2
416,304,11568,6,0,B|360:344|296:352|256:356|216:352|168:344|96:304,1,336,4|0
320,32,14375,6,0,B|352:48|368:80|371:112|368:144|352:176|320:192,1,192,4|0
192,192,15778,2,0,B|160:176|144:144|141:112|144:80|160:48|192:32,1,192
256,112,17182,6,0,C|256:304,3,192
144,336,19989,5,4
368,336,21041,1,2
96,80,22796,6,0,B|152:40|216:32|256:28|296:32|344:40|416:80,1,336,4|0
192,352,25603,6,0,B|160:336|144:304|141:272|144:240|160:208|192:192,1,192,4|0
320,192,27006,2,0,B|352:208|368:240|371:272|368:304|352:336|320:352,1,192
256,256,28410,6,0,C|256:88,2,168
256,88,30515,1,2
360,32,31217,5,4
432,120,31918,1,0
384,224,32620,2,0,B|428:277|440:320|448:352,2,144
384,224,34024,5,4
288,160,34725,1,0
192,96,35427,2,0,B|112:40,2,96
88,144,36831,6,0,C|88:288,1,144,4|0
256,288,38234,2,0,C|256:144,1,144
424,144,39638,5,4
424,256,40339,1,0
352,352,41041,2,0,C|160:352,1,192
64,288,42445,5,4
160,224,43147,1,0
64,160,43848,2,0,C|64:64,2,96
160,96,45252,5,4
256,32,45954,1,0
352,96,46655,1,0
256,160,47357,1,0
256,192,48059,12,4,49462
256,192,50164,5,2
128,192,50866,6,0,B|144:256|160:320|256:347|352:320|368:256|384:192,1,384,4|0
296,192,52796,1,0
128,192,53673,6,0,B|144:128|160:64|256:37|352:64|368:128|384:192,1,384
296,192,55603,1,0
352,320,56480,6,0,C|160:320,1,192,4|0
160,192,57883,2,0,C|352:192,1,192
288,96,59287,6,0,C|432:96,2,144,4|0|0
224,96,60690,2,0,C|80:96,2,144
256,48,62094,5,0
256,192,62796,1,0
256,336,63497,1,0
384,352,64199,5,2
384,352,64550,1,2
384,352,64901,6,0,B|448:304|480:256|503:192|480:128|448:80|384:32,1,384,4|0
296,32,66831,1,0
128,32,67708,6,0,B|64:80|32:128|9:192|32:256|64:304|128:352,1,384
216,352,69638,1,0
288,208,70515,6,0,C|432:208,2,144,4|0|0
224,208,71918,2,0,C|80:208,2,144
256,160,73322,6,0,C|256:16,2,144
256,224,74725,2,0,C|256:368,1,144
256,64,76304,6,0,C|256:112,3,48,2|2|2|2
160,192,77532,2,0,B|176:232|216:256|256:268|296:256|336:232|352:192,1,240
384,288,78936,6,0,B|352:320|312:352|256:357|200:352|160:320|128:288,1,288,4|0
128,224,80339,1,0
224,224,80866,1,0
384,96,81743,6,0,B|352:64|312:32|256:27|200:32|160:64|128:96,1,288
128,160,83147,1,0
224,160,83673,1,0
328,256,84550,6,0,C|472:256,2,144,4|0|0
328,256,85954,1,0
232,256,86480,2,0,C|40:256,1,192
40,176,87532,6,0,C|40:128,3,48,2|2|2|2
472,176,88761,6,0,C|472:128,3,48,2|2|2|2
