osu file format v12

[General]
AudioFilename: DumDumDiday.mp3
AudioLeadIn: 2000
PreviewTime: 86094
Countdown: 0
SampleSet: None
StackLeniency: 0.7
Mode: 1
LetterboxInBreaks: 0
WidescreenStoryboard: 0

[Editor]
Bookmarks: 19899,26508,52990,65818,79473,86094,92715,119197,132439
DistanceSpacing: 0.1
BeatDivisor: 4
GridSize: 32

[Metadata]
Title:Dum Dum Diday
TitleUnicode:Dum Dum Diday
Artist:Mayhem
ArtistUnicode:Mayhem
Creator:marshallracer
Version:Taiko Collab
Source:
Tags:boat It's Murder As of Yet Unnamed Lapfox Vulpvibe
BeatmapID:292888
BeatmapSetID:91503

[Difficulty]
HPDrainRate:6
CircleSize:6
OverallDifficulty:5
ApproachRate:5
SliderMultiplier:1.4
SliderTickRate:1

[Events]
//Background and Video events
0,0,"bg.jpg",0,0
//Break Periods
//Storyboard Layer 0 (Background)
//Storyboard Layer 1 (Fail)
//Storyboard Layer 2 (Pass)
//Storyboard Layer 3 (Foreground)
//Storyboard Sound Samples
//Background Colour Transformations
3,100,163,162,255

[TimingPoints]
37,413.794444444445,4,1,0,100,1,0
37,-125,4,1,0,55,0,0
13278,-100,4,1,0,75,0,0
26312,-90.9090909090909,4,1,0,75,0,0
26508,413.794444444445,4,1,0,75,1,0
26508,-90.9090909090909,4,1,0,75,0,1
52370,-90.9090909090909,4,1,0,75,0,0
52577,-90.9090909090909,4,1,0,75,0,1
52783,-90.9090909090909,4,1,0,75,0,0
66025,-125,4,1,0,55,0,0
78232,-100,4,1,0,75,0,0
105956,-100,4,1,0,75,0,1
118577,-100,4,1,0,75,0,0
118784,-100,4,1,0,75,0,1
118991,-100,4,1,0,75,0,0
132025,-100,4,1,0,75,0,1
132232,-100,4,1,0,75,0,0

[Colours]
Combo1 : 180,0,0
Combo2 : 55,55,55

[HitObjects]
115,104,37,1,8,0:0:0:0:
115,104,243,1,0,0:0:0:0:
115,104,450,1,8,0:0:0:0:
115,104,657,1,8,0:0:0:0:
115,104,864,1,8,0:0:0:0:
115,104,968,1,0,0:0:0:0:
115,104,1174,1,0,0:0:0:0:
115,104,1278,1,8,0:0:0:0:
115,104,1485,1,0,0:0:0:0:
115,104,1899,1,0,0:0:0:0:
115,104,2002,1,0,0:0:0:0:
115,104,2105,1,8,0:0:0:0:
115,104,2312,1,0,0:0:0:0:
115,104,2519,1,8,0:0:0:0:
115,104,2623,1,8,0:0:0:0:
115,104,2830,1,0,0:0:0:0:
115,104,2933,1,8,0:0:0:0:
115,104,3140,1,8,0:0:0:0:
115,104,3554,1,0,0:0:0:0:
115,104,3657,1,0,0:0:0:0:
115,104,3761,1,8,0:0:0:0:
115,104,3968,1,0,0:0:0:0:
115,104,4174,1,8,0:0:0:0:
115,104,4278,1,0,0:0:0:0:
115,104,4485,1,0,0:0:0:0:
115,104,4588,1,8,0:0:0:0:
115,104,4795,1,8,0:0:0:0:
115,104,5209,1,8,0:0:0:0:
115,104,5312,1,8,0:0:0:0:
115,104,5416,1,0,0:0:0:0:
115,104,5623,1,0,0:0:0:0:
115,104,5830,1,8,0:0:0:0:
115,104,5933,1,0,0:0:0:0:
115,104,6140,1,0,0:0:0:0:
115,104,6243,1,8,0:0:0:0:
115,104,6450,1,8,0:0:0:0:
115,104,6864,1,8,0:0:0:0:
115,104,7278,1,8,0:0:0:0:
115,104,7485,1,8,0:0:0:0:
115,104,7588,1,0,0:0:0:0:
115,104,7795,1,0,0:0:0:0:
115,104,7899,1,8,0:0:0:0:
115,104,8105,1,8,0:0:0:0:
115,104,8519,1,0,0:0:0:0:
115,104,8623,1,0,0:0:0:0:
115,104,8726,1,8,0:0:0:0:
115,104,8933,1,8,0:0:0:0:
115,104,9140,1,8,0:0:0:0:
115,104,9243,1,0,0:0:0:0:
115,104,9450,1,0,0:0:0:0:
115,104,9554,1,8,0:0:0:0:
115,104,9761,1,8,0:0:0:0:
115,104,10174,1,8,0:0:0:0:
115,104,10278,1,8,0:0:0:0:
115,104,10381,1,8,0:0:0:0:
115,104,10588,1,8,0:0:0:0:
115,104,10795,1,8,0:0:0:0:
115,104,10899,1,0,0:0:0:0:
115,104,11106,1,0,0:0:0:0:
115,104,11209,1,8,0:0:0:0:
115,104,11416,1,8,0:0:0:0:
115,104,11830,1,0,0:0:0:0:
115,104,11933,1,8,0:0:0:0:
115,104,12037,1,8,0:0:0:0:
115,104,12243,1,8,0:0:0:0:
115,104,12450,1,8,0:0:0:0:
115,104,12554,1,0,0:0:0:0:
115,104,12761,1,0,0:0:0:0:
115,104,12864,1,8,0:0:0:0:
256,160,13071,1,2,0:0:0:0:
256,160,13278,1,12,0:0:0:0:
256,160,13485,1,8,0:0:0:0:
256,160,13692,1,0,0:0:0:0:
256,160,13899,1,0,0:0:0:0:
256,160,14002,1,2,0:0:0:0:
256,160,14209,1,2,0:0:0:0:
256,160,14312,1,0,0:0:0:0:
256,160,14519,1,2,0:0:0:0:
256,160,14726,1,8,0:0:0:0:
256,160,14830,1,0,0:0:0:0:
256,160,14933,1,8,0:0:0:0:
256,160,15140,1,8,0:0:0:0:
256,160,15347,1,0,0:0:0:0:
256,160,15450,1,8,0:0:0:0:
256,160,15554,1,8,0:0:0:0:
256,160,15657,1,0,0:0:0:0:
256,160,15864,1,2,0:0:0:0:
256,160,15968,1,0,0:0:0:0:
256,160,16174,1,2,0:0:0:0:
256,160,16381,1,0,0:0:0:0:
256,160,16485,1,8,0:0:0:0:
256,160,16588,1,8,0:0:0:0:
256,160,16795,1,8,0:0:0:0:
256,160,17002,1,0,0:0:0:0:
256,160,17209,1,0,0:0:0:0:
256,160,17312,1,2,0:0:0:0:
256,160,17519,1,2,0:0:0:0:
256,160,17623,1,0,0:0:0:0:
256,160,17830,1,8,0:0:0:0:
224,96,18036,1,2,0:0:0:0:
224,96,18140,1,0,0:0:0:0:
224,96,18243,1,8,0:0:0:0:
224,96,18450,1,8,0:0:0:0:
224,96,18657,1,0,0:0:0:0:
224,96,18761,1,8,0:0:0:0:
224,96,18864,1,8,0:0:0:0:
224,96,18968,1,0,0:0:0:0:
224,96,19174,1,8,0:0:0:0:
224,96,19278,1,0,0:0:0:0:
224,96,19485,1,2,0:0:0:0:
128,64,19692,1,0,0:0:0:0:
128,64,19795,1,0,0:0:0:0:
128,64,19899,1,8,0:0:0:0:
128,64,20106,1,0,0:0:0:0:
128,64,20312,1,8,0:0:0:0:
128,64,20519,1,8,0:0:0:0:
128,64,20623,1,0,0:0:0:0:
160,128,20726,1,8,0:0:0:0:
160,128,20830,1,0,0:0:0:0:
160,128,20933,1,0,0:0:0:0:
160,128,21140,1,8,0:0:0:0:
160,128,21347,1,8,0:0:0:0:
160,128,21450,1,0,0:0:0:0:
160,128,21554,1,8,0:0:0:0:
160,128,21657,1,0,0:0:0:0:
160,128,21761,1,0,0:0:0:0:
160,128,21968,1,8,0:0:0:0:
160,128,22175,1,0,0:0:0:0:
160,128,22278,1,8,0:0:0:0:
160,128,22381,1,8,0:0:0:0:
160,128,22485,1,8,0:0:0:0:
160,128,22588,1,0,0:0:0:0:
160,128,22795,1,8,0:0:0:0:
160,128,23002,1,0,0:0:0:0:
160,128,23209,1,8,0:0:0:0:
160,128,23416,1,8,0:0:0:0:
160,128,23623,1,0,0:0:0:0:
160,128,23830,1,8,0:0:0:0:
160,128,23933,1,0,0:0:0:0:
160,128,24037,1,8,0:0:0:0:
160,128,24140,1,0,0:0:0:0:
160,128,24243,1,0,0:0:0:0:
160,128,24450,1,8,0:0:0:0:
160,128,24657,1,0,0:0:0:0:
160,128,24864,1,8,0:0:0:0:
160,128,25071,1,8,0:0:0:0:
160,128,25175,1,0,0:0:0:0:
160,128,25278,1,8,0:0:0:0:
160,128,25381,1,0,0:0:0:0:
160,128,25485,1,0,0:0:0:0:
160,128,25692,1,8,0:0:0:0:
160,128,25795,1,0,0:0:0:0:
160,128,25899,1,8,0:0:0:0:
160,128,26106,1,0,0:0:0:0:
256,160,26508,1,12,0:0:0:0:
256,160,26714,1,0,0:0:0:0:
256,160,26921,1,2,0:0:0:0:
256,160,27128,1,0,0:0:0:0:
256,160,27232,1,2,0:0:0:0:
256,160,27439,1,2,0:0:0:0:
256,160,27542,1,0,0:0:0:0:
256,160,27749,1,2,0:0:0:0:
256,160,27956,1,0,0:0:0:0:
256,160,28059,1,2,0:0:0:0:
256,160,28163,1,2,0:0:0:0:
256,160,28370,1,0,0:0:0:0:
256,160,28576,1,0,0:0:0:0:
256,160,28680,1,2,0:0:0:0:
256,160,28783,1,2,0:0:0:0:
256,160,28887,1,2,0:0:0:0:
256,160,29094,1,0,0:0:0:0:
256,160,29197,1,0,0:0:0:0:
256,160,29404,1,2,0:0:0:0:
256,160,29611,1,0,0:0:0:0:
256,160,29714,1,2,0:0:0:0:
256,160,29818,1,0,0:0:0:0:
256,160,30025,1,2,0:0:0:0:
256,160,30232,1,0,0:0:0:0:
256,160,30439,1,0,0:0:0:0:
256,160,30542,1,2,0:0:0:0:
256,160,30749,1,2,0:0:0:0:
256,160,30852,1,0,0:0:0:0:
256,160,31059,1,0,0:0:0:0:
256,160,31266,1,2,0:0:0:0:
256,160,31370,1,0,0:0:0:0:
256,160,31473,1,2,0:0:0:0:
256,160,31680,1,2,0:0:0:0:
256,160,31887,1,0,0:0:0:0:
256,160,31990,1,0,0:0:0:0:
256,160,32094,1,2,0:0:0:0:
256,160,32197,1,2,0:0:0:0:
256,160,32404,1,2,0:0:0:0:
256,160,32508,1,0,0:0:0:0:
256,160,32714,1,2,0:0:0:0:
256,160,32921,1,0,0:0:0:0:
256,160,33025,1,0,0:0:0:0:
256,160,33128,1,2,0:0:0:0:
256,160,33335,1,0,0:0:0:0:
256,160,33542,1,0,0:0:0:0:
256,160,33749,1,0,0:0:0:0:
256,160,33852,1,2,0:0:0:0:
256,160,34060,1,2,0:0:0:0:
256,160,34163,1,0,0:0:0:0:
256,160,34370,1,2,0:0:0:0:
256,160,34576,1,2,0:0:0:0:
256,160,34680,1,0,0:0:0:0:
256,160,34783,1,2,0:0:0:0:
256,160,34990,1,2,0:0:0:0:
256,160,35197,1,0,0:0:0:0:
256,160,35301,1,2,0:0:0:0:
256,160,35404,1,2,0:0:0:0:
256,160,35508,1,2,0:0:0:0:
256,160,35714,1,2,0:0:0:0:
256,160,35818,1,0,0:0:0:0:
256,160,36025,1,2,0:0:0:0:
256,160,36232,1,0,0:0:0:0:
256,160,36335,1,2,0:0:0:0:
256,160,36439,1,2,0:0:0:0:
256,160,36645,1,0,0:0:0:0:
256,160,36852,1,2,0:0:0:0:
256,160,37059,1,0,0:0:0:0:
256,160,37163,1,2,0:0:0:0:
256,160,37370,1,2,0:0:0:0:
256,160,37473,1,0,0:0:0:0:
256,160,37680,1,2,0:0:0:0:
256,160,37887,1,2,0:0:0:0:
256,160,37990,1,0,0:0:0:0:
256,160,38094,1,2,0:0:0:0:
256,160,38301,1,2,0:0:0:0:
256,160,38508,1,0,0:0:0:0:
256,160,38611,1,2,0:0:0:0:
256,160,38714,1,2,0:0:0:0:
256,160,38818,1,0,0:0:0:0:
256,160,39025,1,2,0:0:0:0:
256,160,39128,1,0,0:0:0:0:
256,160,39335,1,2,0:0:0:0:
256,160,39542,1,0,0:0:0:0:
256,160,39645,1,0,0:0:0:0:
256,160,39749,1,2,0:0:0:0:
256,160,39956,1,2,0:0:0:0:
256,160,40163,1,0,0:0:0:0:
256,160,40370,1,2,0:0:0:0:
256,160,40473,1,0,0:0:0:0:
256,160,40680,1,2,0:0:0:0:
256,160,40783,1,0,0:0:0:0:
256,160,40990,1,6,0:0:0:0:
256,160,41197,1,2,0:0:0:0:
256,160,41301,1,0,0:0:0:0:
256,160,41404,1,2,0:0:0:0:
256,160,41611,1,2,0:0:0:0:
256,160,41818,1,0,0:0:0:0:
256,160,41921,1,2,0:0:0:0:
256,160,42025,1,0,0:0:0:0:
256,160,42128,1,2,0:0:0:0:
256,160,42335,1,2,0:0:0:0:
256,160,42439,1,0,0:0:0:0:
256,160,42645,1,4,0:0:0:0:
256,160,42852,1,0,0:0:0:0:
256,160,42956,1,0,0:0:0:0:
256,160,43059,1,2,0:0:0:0:
256,160,43163,1,0,0:0:0:0:
256,160,43266,1,2,0:0:0:0:
256,160,43473,1,0,0:0:0:0:
256,160,43680,1,0,0:0:0:0:
256,160,43783,1,2,0:0:0:0:
256,160,43990,1,2,0:0:0:0:
256,160,44094,1,0,0:0:0:0:
256,160,44301,1,6,0:0:0:0:
256,160,44508,1,0,0:0:0:0:
256,160,44611,1,2,0:0:0:0:
256,160,44714,1,2,0:0:0:0:
256,160,44921,1,0,0:0:0:0:
256,160,45128,1,2,0:0:0:0:
256,160,45232,1,0,0:0:0:0:
256,160,45335,1,2,0:0:0:0:
256,160,45439,1,0,0:0:0:0:
256,160,45645,1,0,0:0:0:0:
256,160,45749,1,0,0:0:0:0:
256,160,45956,1,4,0:0:0:0:
256,160,46163,1,2,0:0:0:0:
256,160,46266,1,0,0:0:0:0:
256,160,46370,1,2,0:0:0:0:
256,160,46576,1,2,0:0:0:0:
256,160,46783,1,0,0:0:0:0:
256,160,46990,1,2,0:0:0:0:
256,160,47094,1,0,0:0:0:0:
256,160,47301,1,2,0:0:0:0:
256,160,47404,1,0,0:0:0:0:
256,160,47611,1,6,0:0:0:0:
256,160,47818,1,2,0:0:0:0:
256,160,47921,1,0,0:0:0:0:
256,160,48025,1,2,0:0:0:0:
256,160,48232,1,0,0:0:0:0:
256,160,48439,1,0,0:0:0:0:
256,160,48645,1,2,0:0:0:0:
256,160,48749,1,0,0:0:0:0:
256,160,48956,1,0,0:0:0:0:
256,160,49059,1,0,0:0:0:0:
256,160,49266,1,4,0:0:0:0:
256,160,49473,1,0,0:0:0:0:
256,160,49576,1,0,0:0:0:0:
256,160,49680,1,2,0:0:0:0:
256,160,49887,1,2,0:0:0:0:
256,160,50094,1,0,0:0:0:0:
256,160,50301,1,2,0:0:0:0:
256,160,50404,1,2,0:0:0:0:
256,160,50611,1,0,0:0:0:0:
256,160,50714,1,2,0:0:0:0:
256,160,50921,1,6,0:0:0:0:
256,160,51128,1,0,0:0:0:0:
256,160,51232,1,2,0:0:0:0:
256,160,51335,1,0,0:0:0:0:
256,160,51542,1,2,0:0:0:0:
256,160,51749,1,0,0:0:0:0:
256,160,51852,1,2,0:0:0:0:
256,160,51956,1,2,0:0:0:0:
256,160,52059,1,2,0:0:0:0:
256,160,52266,1,2,0:0:0:0:
256,160,52370,1,0,0:0:0:0:
256,160,52576,1,4,0:0:0:0:
130,92,52990,1,8,0:0:0:0:
130,92,53197,1,0,0:0:0:0:
130,92,53404,1,8,0:0:0:0:
130,92,53611,1,8,0:0:0:0:
130,92,53714,1,0,0:0:0:0:
130,92,53818,1,8,0:0:0:0:
130,92,53921,1,0,0:0:0:0:
130,92,54025,1,0,0:0:0:0:
130,92,54232,1,0,0:0:0:0:
130,92,54335,1,8,0:0:0:0:
130,92,54439,1,8,0:0:0:0:
130,92,54542,1,8,0:0:0:0:
130,92,54646,1,0,0:0:0:0:
130,92,54852,1,0,0:0:0:0:
130,92,55059,1,8,0:0:0:0:
130,92,55266,1,8,0:0:0:0:
130,92,55370,1,0,0:0:0:0:
130,92,55473,1,8,0:0:0:0:
130,92,55577,1,8,0:0:0:0:
130,92,55680,1,0,0:0:0:0:
130,92,55887,1,0,0:0:0:0:
130,92,55990,1,0,0:0:0:0:
130,92,56094,1,8,0:0:0:0:
130,92,56301,1,0,0:0:0:0:
130,92,56508,1,0,0:0:0:0:
130,92,56714,1,8,0:0:0:0:
130,92,56921,1,8,0:0:0:0:
130,92,57025,1,0,0:0:0:0:
130,92,57128,1,8,0:0:0:0:
130,92,57232,1,0,0:0:0:0:
130,92,57335,1,0,0:0:0:0:
130,92,57542,1,0,0:0:0:0:
130,92,57646,1,0,0:0:0:0:
130,92,57749,1,8,0:0:0:0:
130,92,57852,1,0,0:0:0:0:
130,92,57956,1,8,0:0:0:0:
130,92,58059,1,0,0:0:0:0:
130,92,58163,1,0,0:0:0:0:
130,92,58370,1,0,0:0:0:0:
130,92,58473,1,8,0:0:0:0:
130,92,58577,1,8,0:0:0:0:
130,92,58680,1,0,0:0:0:0:
130,92,58783,1,8,0:0:0:0:
130,92,58887,1,0,0:0:0:0:
130,92,58990,1,0,0:0:0:0:
130,92,59197,1,0,0:0:0:0:
130,92,59404,1,8,0:0:0:0:
130,92,59611,1,0,0:0:0:0:
130,92,59818,1,0,0:0:0:0:
130,92,60025,1,8,0:0:0:0:
130,92,60232,1,8,0:0:0:0:
130,92,60335,1,0,0:0:0:0:
130,92,60439,1,8,0:0:0:0:
130,92,60542,1,0,0:0:0:0:
130,92,60646,1,0,0:0:0:0:
130,92,60852,1,0,0:0:0:0:
130,92,60956,1,8,0:0:0:0:
130,92,61059,1,8,0:0:0:0:
130,92,61163,1,8,0:0:0:0:
130,92,61266,1,0,0:0:0:0:
130,92,61473,1,0,0:0:0:0:
130,92,61680,1,8,0:0:0:0:
130,92,61887,1,8,0:0:0:0:
130,92,61990,1,0,0:0:0:0:
130,92,62094,1,8,0:0:0:0:
130,92,62197,1,8,0:0:0:0:
130,92,62301,1,0,0:0:0:0:
130,92,62508,1,0,0:0:0:0:
130,92,62611,1,8,0:0:0:0:
130,92,62715,1,8,0:0:0:0:
130,92,62818,1,8,0:0:0:0:
130,92,62921,1,0,0:0:0:0:
130,92,63128,1,0,0:0:0:0:
130,92,63335,1,8,0:0:0:0:
130,92,63542,1,8,0:0:0:0:
130,92,63646,1,0,0:0:0:0:
130,92,63749,1,8,0:0:0:0:
130,92,63852,1,0,0:0:0:0:
130,92,63956,1,0,0:0:0:0:
130,92,64163,1,0,0:0:0:0:
130,92,64370,1,8,0:0:0:0:
130,92,64577,1,8,0:0:0:0:
130,92,64680,1,8,0:0:0:0:
130,92,64783,1,0,0:0:0:0:
130,92,64990,1,0,0:0:0:0:
130,92,65094,1,0,0:0:0:0:
130,92,65197,1,8,0:0:0:0:
130,92,65301,1,8,0:0:0:0:
130,92,65404,1,0,0:0:0:0:
130,92,65818,1,12,0:0:0:0:
130,92,66232,1,8,0:0:0:0:
130,92,66542,1,0,0:0:0:0:
130,92,66852,1,0,0:0:0:0:
130,92,67059,1,0,0:0:0:0:
130,92,67163,1,8,0:0:0:0:
130,92,67370,1,8,0:0:0:0:
130,92,67473,1,8,0:0:0:0:
128,96,67680,1,8,0:0:0:0:
130,92,68094,1,0,0:0:0:0:
130,92,68197,1,0,0:0:0:0:
130,92,68301,1,8,0:0:0:0:
130,92,68508,1,8,0:0:0:0:
130,92,68715,1,8,0:0:0:0:
130,92,68818,1,0,0:0:0:0:
130,92,69025,1,0,0:0:0:0:
128,96,69128,1,8,0:0:0:0:
130,92,69335,1,8,0:0:0:0:
130,92,69749,1,0,0:0:0:0:
130,92,69852,1,0,0:0:0:0:
130,92,69956,1,8,0:0:0:0:
130,92,70163,1,0,0:0:0:0:
130,92,70370,1,0,0:0:0:0:
128,96,70473,1,8,0:0:0:0:
128,96,70680,1,8,0:0:0:0:
130,92,70784,1,8,0:0:0:0:
130,92,70990,1,8,0:0:0:0:
130,92,71404,1,8,0:0:0:0:
130,92,71508,1,8,0:0:0:0:
130,92,71611,1,8,0:0:0:0:
130,92,71818,1,0,0:0:0:0:
128,96,72025,1,0,0:0:0:0:
128,96,72128,1,8,0:0:0:0:
130,92,72335,1,8,0:0:0:0:
130,92,72439,1,0,0:0:0:0:
130,92,72646,1,8,0:0:0:0:
130,92,73059,1,0,0:0:0:0:
130,92,73163,1,0,0:0:0:0:
130,92,73266,1,8,0:0:0:0:
128,96,73473,1,0,0:0:0:0:
128,96,73680,1,0,0:0:0:0:
130,92,73784,1,8,0:0:0:0:
130,92,73990,1,8,0:0:0:0:
130,92,74094,1,8,0:0:0:0:
130,92,74301,1,8,0:0:0:0:
130,92,74715,1,8,0:0:0:0:
130,92,74818,1,8,0:0:0:0:
128,96,74921,1,8,0:0:0:0:
128,96,75128,1,0,0:0:0:0:
130,92,75335,1,0,0:0:0:0:
130,92,75439,1,8,0:0:0:0:
130,92,75646,1,8,0:0:0:0:
130,92,75749,1,0,0:0:0:0:
130,92,75956,1,8,0:0:0:0:
130,92,76370,1,0,0:0:0:0:
128,96,76473,1,0,0:0:0:0:
128,96,76577,1,8,0:0:0:0:
130,92,76784,1,0,0:0:0:0:
130,92,76990,1,0,0:0:0:0:
130,92,77094,1,8,0:0:0:0:
130,92,77301,1,8,0:0:0:0:
130,92,77404,1,8,0:0:0:0:
130,92,77611,1,8,0:0:0:0:
128,96,78025,1,8,0:0:0:0:
128,96,78128,1,8,0:0:0:0:
130,92,78232,1,0,0:0:0:0:
130,92,78439,1,8,0:0:0:0:
130,92,78646,1,8,0:0:0:0:
130,92,78749,1,0,0:0:0:0:
130,92,78956,1,0,0:0:0:0:
130,92,79059,1,8,0:0:0:0:
256,160,79266,1,2,0:0:0:0:
256,160,79473,1,4,0:0:0:0:
256,160,79680,1,2,0:0:0:0:
256,160,79887,1,0,0:0:0:0:
256,160,80094,1,0,0:0:0:0:
256,160,80197,1,8,0:0:0:0:
256,160,80404,1,2,0:0:0:0:
256,160,80508,1,0,0:0:0:0:
256,160,80715,1,2,0:0:0:0:
256,160,80921,1,0,0:0:0:0:
256,160,81025,1,8,0:0:0:0:
256,160,81128,1,2,0:0:0:0:
256,160,81232,1,0,0:0:0:0:
256,160,81335,1,0,0:0:0:0:
256,160,81542,1,0,0:0:0:0:
256,160,81646,1,8,0:0:0:0:
256,160,81749,1,0,0:0:0:0:
256,160,81853,1,2,0:0:0:0:
256,160,82059,1,2,0:0:0:0:
256,160,82163,1,0,0:0:0:0:
256,160,82370,1,2,0:0:0:0:
256,160,82577,1,0,0:0:0:0:
256,160,82680,1,8,0:0:0:0:
256,160,82784,1,2,0:0:0:0:
256,160,82887,1,0,0:0:0:0:
256,160,82990,1,0,0:0:0:0:
256,160,83197,1,2,0:0:0:0:
256,160,83404,1,0,0:0:0:0:
256,160,83508,1,2,0:0:0:0:
256,160,83715,1,8,0:0:0:0:
256,160,83818,1,0,0:0:0:0:
256,160,84025,1,8,0:0:0:0:
256,160,84232,1,0,0:0:0:0:
256,160,84335,1,8,0:0:0:0:
256,160,84439,1,8,0:0:0:0:
256,160,84542,1,0,0:0:0:0:
256,160,84646,1,0,0:0:0:0:
256,160,84853,1,0,0:0:0:0:
256,160,84956,1,8,0:0:0:0:
256,160,85059,1,0,0:0:0:0:
256,160,85163,1,2,0:0:0:0:
256,160,85370,1,0,0:0:0:0:
256,160,85473,1,2,0:0:0:0:
256,160,85680,1,6,0:0:0:0:
256,160,85887,1,8,0:0:0:0:
256,160,85990,1,0,0:0:0:0:
94,69,86094,1,8,0:0:0:0:
94,69,86197,1,0,0:0:0:0:
94,69,86301,1,0,0:0:0:0:
94,69,86508,1,8,0:0:0:0:
94,69,86714,1,8,0:0:0:0:
94,69,86818,1,0,0:0:0:0:
94,69,86921,1,8,0:0:0:0:
94,69,87025,1,0,0:0:0:0:
94,69,87128,1,0,0:0:0:0:
94,69,87335,1,8,0:0:0:0:
94,69,87542,1,8,0:0:0:0:
94,69,87645,1,0,0:0:0:0:
94,69,87749,1,8,0:0:0:0:
94,69,87852,1,8,0:0:0:0:
94,69,87956,1,0,0:0:0:0:
94,69,88163,1,8,0:0:0:0:
94,69,88370,1,8,0:0:0:0:
94,69,88473,1,8,0:0:0:0:
94,69,88576,1,8,0:0:0:0:
94,69,88680,1,0,0:0:0:0:
94,69,88783,1,0,0:0:0:0:
94,69,88990,1,8,0:0:0:0:
94,69,89197,1,8,0:0:0:0:
94,69,89404,1,0,0:0:0:0:
94,69,89611,1,0,0:0:0:0:
94,69,89818,1,8,0:0:0:0:
94,69,90025,1,8,0:0:0:0:
94,69,90128,1,0,0:0:0:0:
94,69,90232,1,8,0:0:0:0:
94,69,90335,1,0,0:0:0:0:
94,69,90439,1,0,0:0:0:0:
94,69,90645,1,8,0:0:0:0:
94,69,90852,1,0,0:0:0:0:
94,69,91059,1,8,0:0:0:0:
94,69,91163,1,0,0:0:0:0:
94,69,91266,1,0,0:0:0:0:
94,69,91370,1,0,0:0:0:0:
94,69,91473,1,8,0:0:0:0:
94,69,91576,1,0,0:0:0:0:
94,69,91680,1,0,0:0:0:0:
94,69,91783,1,8,0:0:0:0:
94,69,91887,1,0,0:0:0:0:
94,69,91990,1,8,0:0:0:0:
94,69,92094,1,8,0:0:0:0:
94,69,92301,1,12,0:0:0:0:
256,160,92715,1,6,0:0:0:0:
256,160,92922,1,2,0:0:0:0:
256,160,93128,1,0,0:0:0:0:
256,160,93335,1,0,0:0:0:0:
256,160,93439,1,8,0:0:0:0:
256,160,93646,1,8,0:0:0:0:
256,160,93749,1,0,0:0:0:0:
256,160,93956,1,2,0:0:0:0:
256,160,94059,1,0,0:0:0:0:
256,160,94163,1,0,0:0:0:0:
256,160,94266,1,0,0:0:0:0:
256,160,94370,1,2,0:0:0:0:
256,160,94577,1,0,0:0:0:0:
256,160,94784,1,0,0:0:0:0:
256,160,94990,1,2,0:0:0:0:
256,160,95094,1,0,0:0:0:0:
256,160,95301,1,0,0:0:0:0:
256,160,95404,1,0,0:0:0:0:
256,160,95611,1,2,0:0:0:0:
256,160,95715,1,0,0:0:0:0:
256,160,95818,1,0,0:0:0:0:
256,160,96025,1,2,0:0:0:0:
256,160,96232,1,0,0:0:0:0:
256,160,96439,1,0,0:0:0:0:
256,160,96646,1,0,0:0:0:0:
256,160,96749,1,8,0:0:0:0:
256,160,96956,1,2,0:0:0:0:
256,160,97059,1,0,0:0:0:0:
256,160,97266,1,2,0:0:0:0:
256,160,97370,1,2,0:0:0:0:
256,160,97473,1,0,0:0:0:0:
256,160,97577,1,0,0:0:0:0:
256,160,97680,1,2,0:0:0:0:
256,160,97887,1,0,0:0:0:0:
256,160,98094,1,2,0:0:0:0:
256,160,98197,1,0,0:0:0:0:
256,160,98301,1,2,0:0:0:0:
256,160,98404,1,0,0:0:0:0:
256,160,98611,1,0,0:0:0:0:
256,160,98715,1,2,0:0:0:0:
256,160,98922,1,8,0:0:0:0:
256,160,99128,1,0,0:0:0:0:
256,160,99232,1,0,0:0:0:0:
256,160,99335,1,2,0:0:0:0:
256,160,99542,1,8,0:0:0:0:
256,160,99749,1,0,0:0:0:0:
256,160,99853,1,2,0:0:0:0:
256,160,99956,1,8,0:0:0:0:
256,160,100059,1,2,0:0:0:0:
256,160,100266,1,2,0:0:0:0:
256,160,100370,1,0,0:0:0:0:
256,160,100577,1,2,0:0:0:0:
256,160,100680,1,8,0:0:0:0:
256,160,100784,1,0,0:0:0:0:
256,160,100887,1,0,0:0:0:0:
256,160,100991,1,8,0:0:0:0:
256,160,101197,1,2,0:0:0:0:
256,160,101404,1,0,0:0:0:0:
256,160,101508,1,0,0:0:0:0:
256,160,101611,1,2,0:0:0:0:
256,160,101715,1,0,0:0:0:0:
256,160,101922,1,0,0:0:0:0:
256,160,102025,1,2,0:0:0:0:
256,160,102232,1,0,0:0:0:0:
256,160,102439,1,2,0:0:0:0:
256,160,102542,1,0,0:0:0:0:
256,160,102646,1,0,0:0:0:0:
256,160,102853,1,2,0:0:0:0:
256,160,103059,1,0,0:0:0:0:
256,160,103266,1,0,0:0:0:0:
256,160,103370,1,8,0:0:0:0:
256,160,103577,1,2,0:0:0:0:
256,160,103680,1,0,0:0:0:0:
256,160,103887,1,2,0:0:0:0:
256,160,103991,1,2,0:0:0:0:
256,160,104094,1,0,0:0:0:0:
256,160,104197,1,0,0:0:0:0:
256,160,104301,1,8,0:0:0:0:
256,160,104508,1,2,0:0:0:0:
256,160,104715,1,0,0:0:0:0:
256,160,104818,1,0,0:0:0:0:
256,160,104922,1,2,0:0:0:0:
256,160,105025,1,0,0:0:0:0:
256,160,105232,1,2,0:0:0:0:
256,160,105335,1,0,0:0:0:0:
256,160,105542,1,2,0:0:0:0:
256,160,105749,1,0,0:0:0:0:
256,160,105853,1,0,0:0:0:0:
256,160,105956,1,2,0:0:0:0:
256,160,106163,1,2,0:0:0:0:
256,160,106370,1,0,0:0:0:0:
256,160,106577,1,2,0:0:0:0:
256,160,106680,1,0,0:0:0:0:
256,160,106887,1,0,0:0:0:0:
256,160,106991,1,2,0:0:0:0:
256,160,107197,1,2,0:0:0:0:
256,160,107404,1,2,0:0:0:0:
256,160,107508,1,0,0:0:0:0:
256,160,107611,1,8,0:0:0:0:
256,160,107818,1,2,0:0:0:0:
256,160,108025,1,0,0:0:0:0:
256,160,108128,1,0,0:0:0:0:
256,160,108232,1,2,0:0:0:0:
256,160,108335,1,0,0:0:0:0:
256,160,108542,1,8,0:0:0:0:
256,160,108646,1,0,0:0:0:0:
256,160,108853,1,2,0:0:0:0:
256,160,109059,1,0,0:0:0:0:
256,160,109163,1,2,0:0:0:0:
256,160,109266,1,2,0:0:0:0:
256,160,109473,1,8,0:0:0:0:
256,160,109680,1,0,0:0:0:0:
256,160,109887,1,0,0:0:0:0:
256,160,109991,1,8,0:0:0:0:
256,160,110197,1,8,0:0:0:0:
256,160,110301,1,0,0:0:0:0:
256,160,110508,1,2,0:0:0:0:
256,160,110715,1,2,0:0:0:0:
256,160,110818,1,0,0:0:0:0:
256,160,110922,1,8,0:0:0:0:
256,160,111128,1,2,0:0:0:0:
256,160,111335,1,0,0:0:0:0:
256,160,111439,1,2,0:0:0:0:
256,160,111542,1,2,0:0:0:0:
256,160,111646,1,0,0:0:0:0:
256,160,111853,1,2,0:0:0:0:
256,160,111956,1,0,0:0:0:0:
256,160,112163,1,2,0:0:0:0:
256,160,112370,1,0,0:0:0:0:
256,160,112473,1,2,0:0:0:0:
256,160,112577,1,2,0:0:0:0:
256,160,112784,1,8,0:0:0:0:
256,160,112991,1,0,0:0:0:0:
256,160,113197,1,0,0:0:0:0:
256,160,113301,1,8,0:0:0:0:
256,160,113508,1,8,0:0:0:0:
256,160,113611,1,0,0:0:0:0:
256,160,113818,1,2,0:0:0:0:
256,160,114025,1,2,0:0:0:0:
256,160,114128,1,0,0:0:0:0:
256,160,114232,1,8,0:0:0:0:
256,160,114439,1,2,0:0:0:0:
256,160,114646,1,2,0:0:0:0:
256,160,114749,1,0,0:0:0:0:
256,160,114853,1,8,0:0:0:0:
256,160,114956,1,8,0:0:0:0:
256,160,115162,1,8,0:0:0:0:
256,160,115266,1,0,0:0:0:0:
256,160,115473,1,8,0:0:0:0:
256,160,115680,1,0,0:0:0:0:
256,160,115784,1,2,0:0:0:0:
256,160,115887,1,2,0:0:0:0:
256,160,116094,1,2,0:0:0:0:
256,160,116301,1,0,0:0:0:0:
256,160,116508,1,0,0:0:0:0:
256,160,116611,1,2,0:0:0:0:
256,160,116818,1,8,0:0:0:0:
256,160,116922,1,0,0:0:0:0:
256,160,117128,1,2,0:0:0:0:
256,160,117335,1,8,0:0:0:0:
256,160,117439,1,0,0:0:0:0:
256,160,117542,1,8,0:0:0:0:
256,160,117749,1,8,0:0:0:0:
256,160,117956,1,0,0:0:0:0:
256,160,118060,1,2,0:0:0:0:
256,160,118163,1,0,0:0:0:0:
256,160,118266,1,2,0:0:0:0:
256,160,118473,1,8,0:0:0:0:
256,160,118577,1,0,0:0:0:0:
256,160,118784,1,12,0:0:0:0:
109,75,119197,1,8,0:0:0:0:
109,75,119301,1,0,0:0:0:0:
109,75,119404,1,0,0:0:0:0:
109,75,119611,1,8,0:0:0:0:
109,75,119818,1,8,0:0:0:0:
109,75,119921,1,0,0:0:0:0:
109,75,120025,1,8,0:0:0:0:
109,75,120128,1,0,0:0:0:0:
109,75,120232,1,0,0:0:0:0:
109,75,120439,1,0,0:0:0:0:
109,75,120542,1,0,0:0:0:0:
109,75,120645,1,8,0:0:0:0:
109,75,120749,1,8,0:0:0:0:
109,75,120852,1,0,0:0:0:0:
109,75,121059,1,0,0:0:0:0:
109,75,121266,1,8,0:0:0:0:
109,75,121473,1,8,0:0:0:0:
109,75,121576,1,0,0:0:0:0:
109,75,121680,1,8,0:0:0:0:
109,75,121783,1,8,0:0:0:0:
109,75,121887,1,0,0:0:0:0:
109,75,122094,1,0,0:0:0:0:
109,75,122197,1,0,0:0:0:0:
109,75,122301,1,8,0:0:0:0:
109,75,122404,1,8,0:0:0:0:
109,75,122508,1,0,0:0:0:0:
109,75,122714,1,0,0:0:0:0:
109,75,122921,1,8,0:0:0:0:
109,75,123128,1,8,0:0:0:0:
109,75,123232,1,0,0:0:0:0:
109,75,123335,1,8,0:0:0:0:
109,75,123439,1,0,0:0:0:0:
109,75,123542,1,0,0:0:0:0:
109,75,123749,1,0,0:0:0:0:
109,75,123852,1,0,0:0:0:0:
109,75,123956,1,8,0:0:0:0:
109,75,124059,1,0,0:0:0:0:
109,75,124163,1,8,0:0:0:0:
109,75,124266,1,8,0:0:0:0:
109,75,124370,1,0,0:0:0:0:
109,75,124576,1,0,0:0:0:0:
109,75,124783,1,8,0:0:0:0:
109,75,124887,1,0,0:0:0:0:
109,75,124990,1,8,0:0:0:0:
109,75,125094,1,8,0:0:0:0:
109,75,125197,1,0,0:0:0:0:
109,75,125404,1,0,0:0:0:0:
109,75,125508,1,0,0:0:0:0:
109,75,125611,1,8,0:0:0:0:
109,75,125818,1,0,0:0:0:0:
109,75,126025,1,0,0:0:0:0:
109,75,126232,1,8,0:0:0:0:
109,75,126439,1,8,0:0:0:0:
109,75,126542,1,0,0:0:0:0:
109,75,126645,1,8,0:0:0:0:
109,75,126749,1,0,0:0:0:0:
109,75,126852,1,0,0:0:0:0:
109,75,127059,1,0,0:0:0:0:
109,75,127163,1,0,0:0:0:0:
109,75,127266,1,8,0:0:0:0:
109,75,127370,1,8,0:0:0:0:
109,75,127473,1,0,0:0:0:0:
109,75,127680,1,0,0:0:0:0:
109,75,127887,1,8,0:0:0:0:
109,75,128094,1,8,0:0:0:0:
109,75,128197,1,0,0:0:0:0:
109,75,128301,1,8,0:0:0:0:
109,75,128404,1,8,0:0:0:0:
109,75,128508,1,0,0:0:0:0:
109,75,128714,1,0,0:0:0:0:
109,75,128818,1,0,0:0:0:0:
109,75,128921,1,8,0:0:0:0:
109,75,129025,1,8,0:0:0:0:
109,75,129128,1,0,0:0:0:0:
109,75,129335,1,0,0:0:0:0:
109,75,129542,1,8,0:0:0:0:
109,75,129749,1,8,0:0:0:0:
109,75,129852,1,0,0:0:0:0:
109,75,129956,1,8,0:0:0:0:
109,75,130059,1,0,0:0:0:0:
109,75,130163,1,0,0:0:0:0:
109,75,130370,1,0,0:0:0:0:
109,75,130473,1,0,0:0:0:0:
109,75,130576,1,8,0:0:0:0:
109,75,130680,1,0,0:0:0:0:
109,75,130783,1,8,0:0:0:0:
109,75,130887,1,8,0:0:0:0:
109,75,130990,1,0,0:0:0:0:
109,75,131197,1,0,0:0:0:0:
109,75,131404,1,8,0:0:0:0:
109,75,131508,1,8,0:0:0:0:
109,75,131611,1,0,0:0:0:0:
109,75,132025,1,12,0:0:0:0:
