osu file format v14

[General]
AudioFilename: Terrible Things.mp3
AudioLeadIn: 3000
PreviewTime: 141027
Countdown: 0
SampleSet: None
StackLeniency: 0.7
Mode: 0
LetterboxInBreaks: 1
WidescreenStoryboard: 1

[Editor]
DistanceSpacing: 1
BeatDivisor: 4
GridSize: 32
TimelineZoom: 1

[Metadata]
Title:Terrible Things
TitleUnicode:Terrible Things
Artist:Mayday Parade
ArtistUnicode:Mayday Parade
Creator:Somfingwong
Version:Normal
Source:
Tags:
BeatmapID:688644
BeatmapSetID:307858

[Difficulty]
HPDrainRate:4
CircleSize:3
OverallDifficulty:4
ApproachRate:5
SliderMultiplier:1.1
SliderTickRate:1

[Events]
//Background and Video events
0,0,"bg.jpg",0,0
//Break Periods
2,65419,77954
2,160451,180147
//Storyboard Layer 0 (Background)
//Storyboard Layer 1 (Fail)
//Storyboard Layer 2 (Pass)
//Storyboard Layer 3 (Foreground)
//Storyboard Sound Samples

[TimingPoints]
-200,387.096774193548,4,1,0,100,1,0
180960,387.096774193548,4,1,0,100,1,1
235429,387.096774193548,4,1,0,100,1,0

[Colours]
Combo1 : 211,186,44
Combo2 : 80,165,146
Combo3 : 74,66,179
Combo4 : 115,171,73

[HitObjects]
320,64,187,6,0,L|448:64,2,110
192,64,1348,2,0,L|64:64,2,110
320,320,2509,6,0,L|448:320,2,110
192,320,3670,2,0,L|64:320,2,110
320,192,4832,6,0,L|448:192,2,110
192,192,5993,2,0,L|64:192,2,110
352,256,7154,6,0,L|352:384,2,110
352,128,8316,2,0,L|352:0,2,110
160,256,9477,6,0,L|160:384,2,110
160,128,10639,2,0,L|160:0,2,110
192,288,11799,6,0,L|64:288,2,110
320,288,12961,2,0,L|448:288,2,110
192,256,14122,5,0,0:0:0:0:
160,160,14509,1,0,0:0:0:0:
192,64,14896,1,0,0:0:0:0:
256,128,15283,1,0,0:0:0:0:
256,224,15670,1,0,0:0:0:0:
256,320,16057,1,0,0:0:0:0:
352,352,16444,1,0,0:0:0:0:
448,352,16832,1,0,0:0:0:0:
512,288,17219,1,0,0:0:0:0:
512,192,17606,1,0,0:0:0:0:
416,192,17993,1,0,0:0:0:0:
320,64,18380,6,0,P|320:192|256:192,1,220
192,160,19541,2,0,P|64:160|64:224,1,220
128,320,20703,1,0,0:0:0:0:
320,288,21090,1,0,0:0:0:0:
480,160,21477,2,0,B|392:288|288:24|176:288|224:288,1,330
256,128,23025,5,0,0:0:0:0:
256,224,23412,1,0,0:0:0:0:
256,320,23799,2,0,L|384:320,2,110
256,192,24961,1,0,0:0:0:0:
256,64,25348,2,0,B|320:32|448:96|480:64,1,220
480,192,26509,1,0,0:0:0:0:
352,192,26896,1,0,0:0:0:0:
192,192,27283,5,0,0:0:0:0:
256,192,27670,2,0,L|480:192,1,220
480,320,28832,2,0,L|256:320,1,220
160,256,29993,2,0,L|64:192,1,110
160,96,30767,1,0,0:0:0:0:
256,192,31154,1,0,0:0:0:0:
352,96,31541,1,0,0:0:0:0:
256,32,32122,6,0,L|256:112,1,55
256,128,32703,2,0,L|256:256,2,110
352,128,33864,2,0,L|424:128,2,55
448,192,34638,1,0,0:0:0:0:
448,64,35025,1,0,0:0:0:0:
320,64,35412,2,0,L|224:160,1,110
160,192,36187,1,0,0:0:0:0:
256,32,36961,5,0,0:0:0:0:
160,96,37348,1,0,0:0:0:0:
160,192,37735,2,0,L|288:192,2,110
256,320,38896,1,0,0:0:0:0:
416,288,39283,2,0,B|440:240|440:136|416:64,2,220
384,192,41219,2,0,L|160:192,1,220
256,64,42380,1,0,0:0:0:0:
256,200,42767,2,0,L|416:352,1,220
256,320,43929,1,0,0:0:0:0:
96,288,44316,2,0,B|72:240|72:136|96:64,2,220
256,64,46445,6,0,L|256:128,2,55
256,192,47219,1,0,0:0:0:0:
192,288,47799,2,0,L|320:288,1,110
256,320,48574,6,0,L|256:256,2,55
256,192,49348,1,0,0:0:0:0:
320,64,49735,2,0,L|192:64,1,110
256,288,50896,6,0,L|448:160,1,220
416,64,52058,2,0,L|288:64,1,110
192,64,52832,1,0,0:0:0:0:
96,128,53219,2,0,L|96:256,1,110
256,288,53993,1,0,0:0:0:0:
320,224,54380,1,0,0:0:0:0:
320,128,54767,1,0,0:0:0:0:
192,192,55541,5,0,0:0:0:0:
320,192,55929,1,0,0:0:0:0:
256,128,56703,1,0,0:0:0:0:
256,256,57090,1,0,0:0:0:0:
192,128,57864,1,0,0:0:0:0:
320,256,58251,1,0,0:0:0:0:
320,128,59025,1,0,0:0:0:0:
192,256,59412,1,0,0:0:0:0:
256,128,59799,6,0,L|256:256,2,110
256,352,60961,1,0,0:0:0:0:
256,256,61348,1,0,0:0:0:0:
192,192,62122,1,0,0:0:0:0:
320,192,62509,1,0,0:0:0:0:
256,128,62896,1,0,0:0:0:0:
256,256,63283,1,0,0:0:0:0:
256,192,63670,1,0,0:0:0:0:
96,192,64058,2,0,B|160:128|224:288|288:128|352:288|384:128|416:160,1,330
256,192,79154,12,0,82638,0:0:0:0:
160,128,83412,6,0,L|288:128,1,110
384,128,84187,1,0,0:0:0:0:
384,224,84574,2,0,L|384:304,2,55
416,64,85348,5,0,0:0:0:0:
288,64,85735,1,0,0:0:0:0:
288,160,86122,1,0,0:0:0:0:
416,160,86509,1,0,0:0:0:0:
352,128,86896,2,0,L|256:192,1,110
96,64,88058,6,0,L|160:160,1,110
224,224,88832,1,0,0:0:0:0:
224,64,89219,2,0,L|288:160,1,110
352,224,89993,1,0,0:0:0:0:
352,64,90380,2,0,L|416:160,1,110
480,224,91154,1,0,0:0:0:0:
416,288,91541,1,0,0:0:0:0:
352,352,91929,1,0,0:0:0:0:
192,224,93090,5,0,0:0:0:0:
192,320,93477,1,0,0:0:0:0:
288,224,93864,2,0,L|352:320,1,110
416,256,94638,1,0,0:0:0:0:
320,224,95025,5,0,0:0:0:0:
320,320,95412,1,0,0:0:0:0:
224,224,95799,2,0,L|160:320,1,110
96,256,96573,1,0,0:0:0:0:
128,96,97735,5,0,0:0:0:0:
224,96,98122,1,0,0:0:0:0:
320,96,98509,2,0,L|448:96,1,110
480,192,99283,1,0,0:0:0:0:
416,288,99670,1,0,0:0:0:0:
320,288,100058,2,0,L|192:288,1,110
256,160,100832,2,0,L|384:160,1,110
96,192,101799,6,0,L|96:120,1,55
96,64,102380,1,0,0:0:0:0:
224,64,102767,1,0,0:0:0:0:
224,192,103154,2,0,L|224:320,1,110
320,352,103929,1,0,0:0:0:0:
416,288,104316,2,0,L|416:160,1,110
416,96,105090,1,0,0:0:0:0:
320,64,105477,1,0,0:0:0:0:
256,128,105864,1,0,0:0:0:0:
128,64,107025,5,0,0:0:0:0:
224,64,107412,1,0,0:0:0:0:
224,160,107799,2,0,L|320:256,2,110
320,96,108961,1,0,0:0:0:0:
416,96,109348,1,0,0:0:0:0:
448,192,109735,1,0,0:0:0:0:
384,256,110122,1,0,0:0:0:0:
320,192,110509,1,0,0:0:0:0:
128,288,111670,6,0,B|192:224|288:352|352:288,1,220
320,192,112832,1,0,0:0:0:0:
256,128,113219,1,0,0:0:0:0:
320,64,113606,1,0,0:0:0:0:
384,128,113993,2,0,L|480:352,1,220
320,288,115154,2,0,L|192:288,1,110
256,64,116316,6,0,L|160:144,1,110
160,208,117090,1,0,0:0:0:0:
416,64,117477,2,0,L|320:144,1,110
320,208,118251,1,0,0:0:0:0:
256,288,118638,1,0,0:0:0:0:
160,352,119025,2,0,L|96:256,1,110
160,160,119799,1,0,0:0:0:0:
320,192,120574,5,0,0:0:0:0:
192,192,120962,1,0,0:0:0:0:
256,128,121736,1,0,0:0:0:0:
256,256,122123,1,0,0:0:0:0:
320,128,122897,1,0,0:0:0:0:
192,256,123284,1,0,0:0:0:0:
192,128,124058,1,0,0:0:0:0:
320,256,124445,1,0,0:0:0:0:
256,256,124832,6,0,L|256:128,2,110
256,32,125994,1,0,0:0:0:0:
256,128,126381,1,0,0:0:0:0:
192,192,127155,1,0,0:0:0:0:
320,192,127542,1,0,0:0:0:0:
256,256,127929,1,0,0:0:0:0:
256,128,128316,5,0,0:0:0:0:
256,192,128703,1,0,0:0:0:0:
256,256,129090,1,0,0:0:0:0:
64,64,129864,5,0,0:0:0:0:
128,192,130251,1,0,0:0:0:0:
192,96,131025,1,0,0:0:0:0:
256,224,131412,1,0,0:0:0:0:
320,96,132187,1,0,0:0:0:0:
256,224,132574,1,0,0:0:0:0:
192,96,132961,1,0,0:0:0:0:
128,192,133348,1,0,0:0:0:0:
64,64,133735,1,0,0:0:0:0:
256,40,134509,1,0,0:0:0:0:
256,192,134896,1,0,0:0:0:0:
32,320,136445,5,0,0:0:0:0:
128,288,136832,1,0,0:0:0:0:
224,256,137219,2,0,B|256:192|128:256|64:192|128:0|128:-32|160:-32|192:-32|224:0|256:512|288:0|320:-32|352:-32|384:-32|384:0|448:192|416:224|256:192|192:352,1,880
256,192,141090,6,0,L|128:192,1,110
64,192,141864,1,0,0:0:0:0:
128,128,142251,1,0,0:0:0:0:
224,96,142638,1,0,0:0:0:0:
320,96,143025,1,0,0:0:0:0:
384,160,143412,1,0,0:0:0:0:
320,224,143799,2,0,L|96:224,2,220
160,320,146509,5,0,0:0:0:0:
256,320,146896,1,0,0:0:0:0:
256,192,147283,2,0,L|32:192,1,220
32,96,148638,1,0,0:0:0:0:
128,32,149025,1,0,0:0:0:0:
224,64,149412,1,0,0:0:0:0:
256,160,149799,1,0,0:0:0:0:
160,320,151154,5,0,0:0:0:0:
256,256,151541,1,0,0:0:0:0:
352,224,151929,2,0,L|352:112,1,110
416,64,152703,1,0,0:0:0:0:
448,160,153090,1,0,0:0:0:0:
448,256,153477,1,0,0:0:0:0:
352,320,153864,1,0,0:0:0:0:
224,320,154251,2,0,L|0:224,1,220
256,256,155799,2,0,L|256:128,1,110
320,96,156574,2,0,L|400:96,4,55
256,192,158122,1,0,0:0:0:0:
192,96,158509,2,0,L|112:96,4,55
256,192,160058,6,0,L|256:128,1,55
64,64,181347,5,0,0:0:0:0:
64,192,181734,2,0,B|64:312|280:56|320:32,1,330
448,320,183669,1,0,0:0:0:0:
448,192,184056,2,0,B|448:72|232:328|192:352,1,330
32,192,185992,2,0,B|192:320|96:0|416:0|352:320|512:192,1,550
480,320,188314,1,0,0:0:0:0:
352,288,188702,1,0,0:0:0:0:
256,256,189089,5,0,0:0:0:0:
256,160,189476,1,0,0:0:0:0:
352,96,189863,1,0,0:0:0:0:
448,96,190250,1,0,0:0:0:0:
448,192,191024,2,0,L|288:352,1,220
192,288,192185,1,0,0:0:0:0:
96,224,192572,2,0,L|256:64,1,220
352,32,193734,1,0,0:0:0:0:
256,96,194508,1,0,0:0:0:0:
256,192,194895,1,0,0:0:0:0:
256,192,195669,12,0,198766,0:0:0:0:
160,96,199540,5,0,0:0:0:0:
256,96,199927,2,0,L|320:96,2,55
352,192,200701,1,0,0:0:0:0:
256,192,201088,2,0,L|192:192,2,55
160,288,201863,1,0,0:0:0:0:
256,288,202250,2,0,L|320:288,2,55
256,192,203024,1,0,0:0:0:0:
256,96,203411,1,0,0:0:0:0:
96,288,204185,5,0,0:0:0:0:
96,192,204572,2,0,L|96:128,2,55
256,96,205347,1,0,0:0:0:0:
256,192,205734,2,0,L|256:256,2,55
416,288,206508,1,0,0:0:0:0:
416,192,206895,2,0,L|416:128,2,55
256,192,207669,1,0,0:0:0:0:
160,192,208056,1,0,0:0:0:0:
192,64,208830,5,0,0:0:0:0:
320,64,209217,1,0,0:0:0:0:
256,128,209605,2,0,L|256:192,1,55
256,352,210379,1,0,0:0:0:0:
256,256,210766,2,0,L|256:192,1,55
160,128,211540,5,0,0:0:0:0:
320,64,211927,1,0,0:0:0:0:
320,192,212314,1,0,0:0:0:0:
160,256,212702,1,0,0:0:0:0:
160,384,213089,1,0,0:0:0:0:
384,64,213863,5,0,0:0:0:0:
384,160,214250,1,0,0:0:0:0:
384,256,214637,2,0,L|160:256,1,220
160,128,216185,1,0,0:0:0:0:
256,128,216572,1,0,0:0:0:0:
352,128,216959,2,0,L|352:192,1,55
192,192,218121,5,0,0:0:0:0:
320,192,218509,1,0,0:0:0:0:
256,128,219283,1,0,0:0:0:0:
256,256,219670,1,0,0:0:0:0:
192,128,220444,1,0,0:0:0:0:
320,256,220831,1,0,0:0:0:0:
320,128,221605,1,0,0:0:0:0:
192,256,221992,1,0,0:0:0:0:
256,128,222379,6,0,L|256:256,2,110
256,352,223541,1,0,0:0:0:0:
256,256,223928,1,0,0:0:0:0:
192,192,224702,1,0,0:0:0:0:
320,192,225089,1,0,0:0:0:0:
256,128,225476,1,0,0:0:0:0:
256,256,225863,1,0,0:0:0:0:
256,192,226250,1,0,0:0:0:0:
96,192,226638,2,0,B|160:128|224:288|288:128|352:288|384:128|416:160,1,330
