osu file format v9

[General]
AudioFilename: Anywhere But Here.mp3
AudioLeadIn: 1500
PreviewTime: 156292
Countdown: 0
SampleSet: Normal
StackLeniency: 0.7
Mode: 0
LetterboxInBreaks: 0

[Editor]
DistanceSpacing: 0.9
BeatDivisor: 4
GridSize: 8

[Metadata]
Title:Anywhere But Here
Artist:Mayday Parade
Creator:Magicphoenix
Version:Normal
Source:
Tags:Kuroneko-sHerald Kite

[Difficulty]
HPDrainRate:3
CircleSize:3
OverallDifficulty:4
ApproachRate:4
SliderMultiplier:1.1
SliderTickRate:1

[Events]
//Background and Video events
0,0,"maydayparadewallpaper21.jpg"
//Break Periods
2,67783,70244
2,87965,88990
2,122919,126971
//Storyboard Layer 0 (Background)
//Storyboard Layer 1 (Fail)
//Storyboard Layer 2 (Pass)
//Storyboard Layer 3 (Foreground)
//Storyboard Sound Samples
//Background Colour Transformations
3,100,163,162,255

[TimingPoints]
311,363.636363636364,4,2,0,49,1,0
10676,-100,4,1,0,81,0,0
11587,-100,4,1,0,69,0,0
23947,-100,4,1,0,59,0,0
51583,-100,4,1,0,50,0,0
52674,-100,4,1,0,80,0,1
67038,-133.333333333333,4,1,0,71,0,1
67583,-133.333333333333,4,1,0,71,0,0
71583,-100,4,1,0,71,0,1
78674,-100,4,1,0,71,0,0
79220,-100,4,1,0,60,0,0
106856,-100,4,1,0,50,0,0
107947,-100,4,1,0,80,0,1
122311,-133.333333333333,4,1,0,71,0,1
122853,-100,4,1,0,71,0,0
128307,-200,4,1,0,71,0,0
144671,-133.333333333333,4,2,0,71,0,0
156310,-100,4,1,0,60,0,0
157401,-100,4,1,0,80,0,1
174126,-100,4,1,0,71,0,0
176311,-100,4,1,0,71,0,1
180310,-100,4,1,0,71,0,0
181946,-100,4,1,0,62,0,0
182491,-100,4,1,0,49,0,0
183219,-100,4,1,0,41,0,0
183946,-100,4,1,0,31,0,0
184673,-100,4,1,0,21,0,0
185400,-100,4,1,0,11,0,0
185946,-100,4,2,0,5,0,0

[Colours]
Combo1 : 251,32,32
Combo2 : 82,83,77
Combo3 : 61,86,67

[HitObjects]
112,112,674,2,0,B|112:234,1,110,0|2
182,292,1401,1,0
182,292,1583,1,0
182,292,1765,1,0
281,292,2129,1,0
351,221,2492,2,0,B|350:90,2,110,2|0|0
267,167,3583,6,0,B|215:142|152:169,1,110,0|2
215,247,4311,2,0,B|163:272|100:245,1,110,0|2
77,201,4856,1,0
114,109,5220,2,0,B|156:72|220:70,1,110
310,43,5947,2,0,B|368:66|391:124|392:204|343:231|343:231,1,220,2|0
276,158,7038,5,0
276,158,7220,1,0
276,159,7401,2,0,B|330:99|436:106|488:172,3,220,2|0|2|0
176,110,10674,5,4
176,110,10856,1,0
176,210,11220,1,4
176,210,11401,1,0
176,210,11765,6,0,B|385:211,1,165,4|0
426,157,12674,2,0,B|448:210|427:274,2,110,8|0|8
355,86,13765,2,0,B|355:32,2,55,0|0|8
255,86,14492,2,0,B|184:88,2,55,0|4|0
255,185,15220,5,0
184,255,15583,2,0,B|225:304|303:280,2,110,8|0|8
255,185,16674,1,0
255,86,17038,2,0,B|182:89|147:155|170:224,2,165,8|4|0
255,184,18492,5,8
354,184,18856,2,0,B|352:71,2,110,0|8|0
453,184,19947,2,0,B|453:309,1,110,8|0
453,343,20492,1,4
304,343,21038,6,0,B|253:363|190:343,1,110,0|8
250,261,21765,2,0,B|249:150,2,110,0|8|0
349,261,22856,2,0,B|348:86,1,165,8|4
209,41,23947,6,0,B|209:95|162:162|84:165|33:155,1,220,0|8
51,256,25038,2,0,B|112:304,1,55
187,323,25583,2,0,B|288:328|336:240,1,165
362,218,26311,1,8
413,107,26856,6,0,B|359:122|359:122|299:104,1,110
360,23,27583,2,0,B|308:7|308:7|254:22,1,110,0|8
172,78,28311,1,0
136,113,28492,1,0
122,212,28856,2,0,B|243:211,2,110,0|8|0
319,212,30311,6,0,B|386:212,1,55
423,212,30674,2,0,B|423:45,2,165,8|0|8
461,303,32129,2,0,B|368:378|252:386|120:366|37:294,1,440,4|0
168,96,35038,5,4
168,96,35583,6,0,B|169:226,2,110,0|8|0
269,101,36674,1,0
269,101,36856,1,8
368,101,37220,2,0,B|378:174|350:226|274:237|215:209,1,220,0|4
351,301,38492,5,8
257,333,38856,1,0
164,297,39220,1,8
257,264,39583,2,0,B|258:145,3,110,0|8|0|8
257,104,40856,2,0,B|299:71|360:71|414:106,1,165,4|0
421,241,41947,5,0
421,241,42129,1,0
421,241,42311,2,0,B|351:294|232:275,1,165,8|0
219,257,43038,1,8
114,152,43583,1,0
114,152,43765,2,0,B|112:-3,2,110,8|0|0
152,104,47038,5,0
152,104,47220,1,8
152,202,47583,1,8
152,201,47765,1,0
152,300,48129,1,4
239,254,48492,2,0,B|351:253,2,110,0|8|0
292,170,49583,6,0,B|323:122|374:90|440:81,2,165,4|8|0
293,170,51038,1,4
194,62,51583,5,8
99,92,51947,1,0
168,161,52310,2,0,B|168:271,1,110,8|4
263,242,53038,5,8
263,143,53401,1,0
333,72,53765,2,0,B|451:72,1,110,8|4
443,171,54492,5,8
372,241,54856,1,0
281,202,55220,2,0,B|234:239|166:232,2,110,8|4|8
351,131,56310,5,0
280,60,56674,2,0,B|233:23|177:29,1,110,8|4
94,83,57401,5,8
94,182,57765,1,0
183,139,58129,2,0,B|249:97|345:96|413:139,1,220,8|8
486,163,59220,1,0
416,232,59583,2,0,B|375:267|306:276,1,110,8|4
222,226,60310,6,8,B|161:220|115:184,1,110,8|0
120,88,61038,2,0,B|177:23|177:23|337:22|337:22|398:101,1,330,12|0
317,158,62492,2,0,B|200:157,3,110,8|0|8|0
207,157,63947,1,4
67,296,64674,6,0,B|67:144,1,110,0|8
67,86,65401,1,0
155,128,65765,2,0,B|218:128,2,55,8|0|0
155,177,66310,2,0,B|115:266|157:345,1,165,8|0
191,332,67038,2,0,B|319:332,1,123.749996311963,4|0
253,69,71583,6,0,B|254:146,1,55,4|0
305,207,72129,2,0,B|136:207,1,165,8|0
90,207,72856,2,0,B|63:257|77:321|150:342,1,165,4|0
224,283,73765,1,8
319,310,74129,1,0
388,240,74492,6,0,B|462:240,2,55,8|0|0
388,140,75220,2,0,B|450:139,2,55,8|0|0
352,104,75765,1,4
478,26,76310,6,0,B|368:26,1,110,0|8
280,73,77038,1,0
181,73,77401,2,0,B|107:73,2,55,8|0|0
181,172,78129,2,0,B|181:289,1,110,8|0
181,331,78674,1,4
298,245,79220,6,0,B|426:245,1,110,0|8
475,174,79947,2,0,B|351:174,1,110,0|8
265,174,80674,1,0
194,103,81038,2,0,B|430:103,1,220,8|4
343,32,82129,5,0
244,32,82492,2,0,B|92:32,1,110,8|0
49,84,83220,2,0,B|41:186|124:262|245:221,1,275,8|0
186,136,84492,2,0,B|292:99|402:156,1,220,8|0
481,210,85583,5,0
481,210,85765,1,0
481,210,85947,2,0,B|431:290|352:288,2,110,8|0|8
388,178,87038,2,0,B|243:178,1,110,0|8
180,178,87765,1,8
240,48,90310,5,4
240,48,90856,6,0,B|214:108|225:168,1,110,0|8
316,122,91583,2,0,B|316:241,1,110,0|8
408,200,92310,2,0,B|411:265|381:317,1,110,0|8
281,201,93220,1,4
231,201,93401,1,0
157,268,93765,6,0,B|157:386,1,110,0|8
82,298,94492,2,0,B|82:195,1,55,0|8
82,143,95038,1,0
82,39,95401,1,8
152,109,95765,1,0
222,179,96129,2,0,B|312:261,1,110,12|0
303,55,97220,6,0,B|304:116,1,55
353,109,97583,2,0,B|400:219,2,110,8|0|8
423,38,98674,1,0
256,192,99038,8,0,100492
256,240,102310,5,4
256,240,102492,1,8
355,240,102856,1,4
355,240,103038,1,8
355,141,103401,1,4
355,141,103583,1,8
355,141,103765,6,0,B|354:30,2,110,0|8|0
355,240,104856,2,0,B|176:240,2,165,4|0|4
437,184,106310,1,0
308,109,106856,6,0,B|282:160|211:162,1,110,8|0
210,54,107583,2,0,B|142:60|110:101|107:145,1,110,8|4
118,205,108310,5,8
208,246,108674,2,0,B|261:227|319:249,1,110,0|8
259,327,109401,1,4
358,327,109765,6,0,B|473:327,1,110,8|0
468,227,110492,2,0,B|466:154|419:104|358:84|301:87,1,220,8|4
325,186,111583,5,8
325,285,111947,2,0,B|292:288|231:268|184:218|182:145,1,220,8|4
252,76,113038,5,0
350,76,113401,2,0,B|350:201,2,110,8|4|8
449,76,114492,5,0
449,175,114856,2,0,B|523:294|444:391,1,220,8|8
364,334,115947,5,0
318,246,116310,2,0,B|246:226|172:250,2,110,8|4|8
388,175,117401,1,0
430,85,117765,2,0,B|323:30|199:62,2,220,4|8|8
256,159,119947,5,8
158,177,120310,1,0
228,247,120674,1,8
133,277,121038,2,0,B|77:296,1,55,0|0
80,195,121583,2,0,B|78:29,1,165,8|0
127,30,122310,6,0,B|286:30,1,123.749996311963,4|0
270,80,128310,6,0,B|270:192,1,110,4|8
286,236,129401,1,0
312,278,129765,2,0,B|429:279,1,110,8|0
421,179,131220,6,0,B|301:178,1,110,8|0
290,133,132310,1,0
254,97,132674,2,0,B|225:153|245:214,1,110,8|0
337,176,134129,2,0,B|339:295,2,110,8|0|8
337,77,136310,1,4
337,77,136674,5,0
288,86,137038,2,0,B|301:153|269:192,1,110,8|0
220,190,138129,1,0
170,190,138492,2,0,B|170:245|170:245|228:246,1,110,8|0
312,277,139947,6,0,B|364:294|427:275,1,110,8|0
420,227,141038,1,0
402,180,141401,2,0,B|423:134|450:105|487:86,2,110,8|0|8
366,215,143220,2,0,B|237:115,1,165,0|8
168,80,144674,5,0
168,154,145038,1,0
168,228,145401,2,0,B|352:229,1,164.999995082617,2|0
371,165,146492,1,0
441,142,146856,2,0,B|465:218|448:309,1,164.999995082617,2|0
374,305,147947,5,0
307,272,148310,2,0,B|263:241|205:251,1,82.4999975413085,0|2
157,230,149038,2,0,B|181:149|100:83|28:156|61:245,1,247.499992623925,0|2
99,295,150492,6,0,B|151:323|216:307,1,82.4999975413085
249,291,151220,2,0,B|332:266|448:299,1,164.999995082617,0|0
412,215,152310,1,0
342,188,152674,2,0,B|341:-7,1,164.999995082617,2|0
266,23,153765,5,0
243,94,154129,2,0,B|239:149|215:186|170:208|137:216,1,164.999995082617,2|0
145,139,155220,1,0
82,98,155583,2,0,B|80:274,1,164.999995082617,2|0
177,280,156674,5,0
257,223,157038,2,0,B|382:224,1,110,8|4
401,130,157765,5,8
330,59,158129,2,0,B|274:39|210:64,1,110,0|8
151,129,158856,1,4
98,212,159220,5,8
142,300,159583,1,0
238,276,159947,1,8
238,177,160310,1,4
308,106,160674,6,0,B|404:181,1,110,8|0
433,265,161401,2,0,B|378:307|280:309|204:254,1,220,8|8
224,168,162492,5,0
276,83,162856,2,0,B|331:70|389:88,1,110,8|4
336,173,163583,5,8
284,257,163947,2,0,B|284:369,2,110,0|8|4
233,171,165038,6,0,B|182:194|124:168,1,110,8|0
172,81,165765,2,0,B|241:52|337:65|396:102,1,220,8|0
358,191,166856,1,8
427,260,167220,2,0,B|386:318|286:348|184:320|136:256,1,330,4|0
280,56,169038,1,4
280,56,169401,6,0,B|280:168,1,110,0|8
182,146,170129,1,0
112,215,170492,2,0,B|111:282,1,55,8|0
210,269,171038,2,0,B|287:296|374:265,1,165,8|0
256,192,171765,12,0,174129
200,80,176310,6,0,B|201:182,1,55,8|0
242,224,176856,2,0,B|283:186|356:186|423:241,1,165,8|0
256,192,177583,12,4,180674
256,116,181220,1,0
256,264,181765,1,4
256,192,181947,12,0,186492
