osu file format v9

[General]
AudioFilename: Anywhere But Here.mp3
AudioLeadIn: 1500
PreviewTime: 156292
Countdown: 0
SampleSet: Normal
StackLeniency: 0.7
Mode: 0
LetterboxInBreaks: 0

[Editor]
DistanceSpacing: 0.8
BeatDivisor: 2
GridSize: 8

[Metadata]
Title:Anywhere But Here
Artist:Mayday Parade
Creator:Magicphoenix
Version:Kuro Easy
Source:
Tags:Kuroneko-sHerald Kite

[Difficulty]
HPDrainRate:3
CircleSize:3
OverallDifficulty:3
ApproachRate:4
SliderMultiplier:1
SliderTickRate:1

[Events]
//Background and Video events
0,0,"maydayparadewallpaper21.jpg"
//Break Periods
2,11765,22627
2,44692,46627
2,68511,70124
2,74692,77761
2,88692,89536
2,100692,101761
2,124147,126851
2,145765,154851
//Storyboard Layer 0 (Background)
//Storyboard Layer 1 (Fail)
//Storyboard Layer 2 (Pass)
//Storyboard Layer 3 (Foreground)
//Storyboard Sound Samples
//Background Colour Transformations
3,100,163,162,255

[TimingPoints]
311,363.636363636364,4,2,0,70,1,0
10129,-100,4,2,0,40,0,0
11583,-100,4,1,0,70,0,0
50856,-100,4,1,1,70,0,0
51220,-100,4,2,1,70,0,0
52674,-100,4,2,1,70,0,1
68311,-100,4,2,1,70,0,0
71583,-100,4,2,1,70,0,1
74492,-100,4,1,1,70,0,0
78674,-100,4,2,1,70,0,0
98856,-100,4,2,1,50,0,0
107947,-100,4,2,1,70,0,1
122311,-100,4,1,1,50,0,1
123947,-100,4,1,1,50,0,0
128311,-100,4,2,1,70,0,0
142674,-100,4,2,0,5,0,0
144674,-100,4,2,0,70,0,0
156311,-100,4,2,0,70,0,0
157401,-100,4,2,1,70,0,1
174129,-100,4,2,0,70,0,0
176311,-100,4,2,1,70,0,1
179947,-100,4,2,0,70,0,0
181038,-100,4,2,0,60,0,0
181583,-100,4,2,0,50,0,0
181947,-100,4,2,0,50,0,0
182674,-100,4,2,0,40,0,0
183220,-100,4,2,0,30,0,0
183765,-100,4,2,0,20,0,0
184311,-100,4,2,0,10,0,0
184856,-100,4,2,0,5,0,0

[Colours]
Combo1 : 251,32,32
Combo2 : 82,83,77
Combo3 : 61,86,67

[HitObjects]
120,24,674,2,0,B|192:96|320:96|392:24,1,300
328,168,2492,1,0
184,168,3220,1,2
96,304,3947,6,0,B|176:384|336:384|416:304,1,350,0|0
336,272,5583,1,2
256,248,5947,1,0
176,272,6311,1,2
216,120,7038,6,0,B|216:56|168:40,2,100,0|0|2
296,120,8129,2,0,B|296:56|344:40,2,100,0|2|0
256,192,9220,1,2
256,192,10311,1,4
96,264,23947,5,8
168,296,24311,2,0,B|224:240|288:240|344:296,3,200
416,264,26856,5,8
368,200,27220,2,0,B|368:128|320:120,1,100,0|8
304,40,27947,2,0,B|256:16|208:40,1,100,0|8
189,120,28674,2,0,B|144:128|144:200,1,100,0|8
208,248,29401,2,0,B|256:272|304:248,1,100,0|8
416,280,30311,6,0,B|368:400|256:384|144:400|96:280,1,400
96,200,32129,2,0,B|152:184|208:240|152:296|200:312|256:296|312:312|360:296|304:240|360:184|416:200,1,400,0|0
80,112,35583,6,0,B|192:192|256:48|256:48|320:192|432:112,1,450,8|0
184,264,38492,6,0,B|208:344|304:344|328:264,1,200,8|8
296,192,39583,2,0,B|293:139|344:104,2,100,0|8|0
216,192,40674,2,0,B|218:139|168:104,2,100,8|0|8
120,272,41947,6,0,B|192:344|320:344|392:272,1,300
344,120,43765,2,0,B|288:64|224:64|168:120,1,200
184,120,47947,6,0,B|256:160|296:176|312:216|296:264|216:264|200:216|216:176|256:160|328:120,1,350
256,192,49583,12,4,51038
256,56,51583,5,2
216,128,51947,1,0
152,176,52311,1,2
256,56,53038,5,8
296,128,53401,1,0
360,176,53765,1,8
336,336,54492,6,0,B|408:304|392:248,2,100,8|0|8
176,336,55947,2,0,B|104:304|120:248,2,100,8|0|8
336,288,57401,6,0,B|280:200|416:200|336:104,1,200,8|8
173,107,58856,2,0,B|96:200|232:200|176:288,1,200,8|8
256,152,60311,5,8
336,288,61038,1,8
176,288,61765,1,8
160,128,62492,2,8,B|256:80|352:128,1,200
56,312,64674,5,8
200,248,65401,1,8
312,136,66129,1,8
456,72,66856,1,8
256,192,67038,12,8,68311
112,104,71583,6,0,B|256:24|400:104,1,300,0|8
384,144,72856,2,0,B|392:248|296:344|216:344|120:248|128:144,1,450,4|4
168,88,79220,6,8,B|224:144|288:144|344:88,3,200
368,248,82129,5,8
296,280,82492,2,0,B|304:336|360:352,2,100,0|8|0
216,280,83583,2,0,B|208:336|152:352,2,100,8|0|8
144,248,84674,1,0
160,48,85583,6,0,B|216:144|296:144|352:48,1,250,0|8
416,152,87038,2,0,B|352:288|160:288|96:152,1,400
152,224,90856,5,8
176,304,91220,2,0,B|224:376|288:376|336:304,1,200
360,224,92310,1,8
280,208,92674,2,0,B|200:208,2,50,0|0|8
256,48,93765,6,0,B|192:48|200:112,1,100,8|0
256,48,94492,2,0,B|320:48|312:112,1,100,8|0
344,184,95220,2,8,B|296:232|256:192|256:192|216:152|168:200,2,200
440,120,97220,6,0,B|352:32|160:32|72:120,1,400
256,192,99038,12,4,100492
152,232,103220,6,0,B|176:280|208:312|216:312|216:312|232:312|240:288|256:256|256:256|272:288|280:312|296:312|296:312|304:312|336:280|360:232,1,350,8|0
256,192,104856,12,4,106310
136,48,106856,5,2
96,120,107220,1,0
144,184,107583,2,0,B|160:248|216:232,1,100,2|4
296,232,108310,6,0,B|352:247|368:183,1,100,8|0
416,120,109038,1,8
376,48,109401,1,0
328,112,109765,6,8,B|256:40|256:40|184:112,3,200
192,272,112674,6,8,B|256:328|304:328|368:272,1,200
320,120,114129,2,8,B|256:64|208:64|144:120,1,200
232,256,115583,6,0,B|168:256|120:208,2,100,8|0|8
280,192,116674,2,0,B|344:192|392:240,2,100,0|8|0
320,120,117765,2,0,B|360:64|320:24|272:8|240:8|192:24|152:64|192:120,1,300,8|0
216,360,119947,5,8
296,360,120310,1,0
256,288,120674,1,8
256,208,121038,2,0,B|256:120,3,50,0|0|8|0
256,40,122129,1,8
256,192,122310,12,4,123947
168,112,128310,6,0,B|224:168|288:168|344:112,3,200,4|8|0|8
344,272,131220,2,0,B|288:216|224:216|168:272,3,200,0|8|0|8
88,136,134129,2,0,B|184:24|256:104|256:104|328:24|424:136,1,400,0|0
320,352,136674,5,8
296,272,137038,2,0,B|304:208|376:192,2,100,4|0|8
216,272,138129,2,0,B|208:208|136:192,2,100,0|0|0
192,352,139220,1,8
64,248,139947,2,0,B|40:120|200:48|256:32|312:48|472:112|448:248,1,600,0|8
256,192,142856,12,0,144310
168,88,156310,6,0,B|208:40|256:88|256:88|304:136|344:88,3,200,2|4|8|8
376,248,159220,5,8
328,312,159583,1,0
256,352,159947,1,8
136,248,160674,1,8
184,312,161038,1,0
256,352,161401,1,8
312,200,162129,6,0,B|376:176|368:128,1,100,8|0
336,56,162856,1,8
176,56,163583,1,8
144,128,163947,2,0,B|137:176|201:200,1,100,0|8
256,352,165038,6,0,B|256:248,2,100,8|0|8
296,200,166492,1,8
216,200,166856,1,0
152,152,167220,2,0,B|200:24|312:24|360:152,1,300,8|0
216,344,169401,6,0,B|160:328|152:272,2,100,8|0|8
296,344,170492,2,0,B|352:328|360:272,2,100,0|8|8
256,272,171583,1,8
256,192,171765,12,0,174129
200,80,176311,6,0,B|216:24|296:24|312:80,1,150
256,184,177401,2,0,B|256:264,1,50,8|0
256,192,177765,12,0,179947
256,96,180674,5,4
320,200,181220,1,4
192,200,181765,1,4
256,192,181947,12,0,186492
