osu file format v9

[General]
AudioFilename: an apple.mp3
AudioLeadIn: 2000
PreviewTime: 50307
Countdown: 0
SampleSet: Normal
StackLeniency: 0.5
Mode: 0
LetterboxInBreaks: 0

[Editor]
DistanceSpacing: 1
BeatDivisor: 4
GridSize: 4

[Metadata]
Title:Yi Ke Ping Guo
Artist:Mayday
Creator:Megurine Luka
Version:Two Apples
Source:
Tags:Ren Sheng Hai Hai Wu Yue Tian

[Difficulty]
HPDrainRate:4
CircleSize:3
OverallDifficulty:4
ApproachRate:5
SliderMultiplier:1.3
SliderTickRate:1

[Events]
//Background and Video events
0,0,"111.png"
//Break Periods
2,47978,49118
2,97856,110041
2,155287,156195
//Storyboard Layer 0 (Background)
//Storyboard Layer 1 (Fail)
//Storyboard Layer 2 (Pass)
//Storyboard Layer 3 (Foreground)
//Storyboard Sound Samples
//Background Colour Transformations
3,100,163,162,255

[TimingPoints]
0,461.538461538462,4,1,1,80,1,0
4836,459.770114942529,4,1,1,80,1,0
7395,461.538461538462,4,1,1,80,1,0
8202,-100,4,1,1,50,0,0
8664,-100,4,1,1,80,0,0
20779,-100,4,1,2,100,0,0
22048,-100,4,1,2,90,0,0
22279,-100,4,1,2,100,0,0
36818,-100,4,1,2,90,0,0
37048,-100,4,1,2,100,0,0
50317,-100,4,1,1,100,0,0
51702,-100,4,1,1,80,0,1
51818,-100,4,1,1,100,0,1
66471,-100,4,1,1,100,0,0
68202,-100,4,1,1,80,0,0
68433,-100,4,1,1,100,0,0
79856,-100,4,1,1,60,0,0
81702,-100,4,1,1,100,0,0
82971,-100,4,1,1,90,0,0
83202,-100,4,1,1,100,0,0
110779,-100,4,1,2,100,0,0
112510,-100,4,1,2,90,0,0
112741,-100,4,1,2,100,0,0
126010,-100,4,1,1,100,0,0
127394,-100,4,1,1,80,0,1
127510,-100,4,1,1,100,0,1
142164,-100,4,1,1,100,0,0
143895,-100,4,1,1,90,0,0
144125,-100,4,1,1,100,0,0
157395,-100,4,1,1,70,0,0

[Colours]
Combo1 : 213,0,0
Combo2 : 0,128,0
Combo3 : 198,198,0
SliderBorder : 255,255,255

[HitObjects]
128,64,0,1,0
128,192,461,1,0
320,192,1153,2,0,B|384:192,1,65
432,312,1846,5,0
304,312,2307,1,0
112,312,3000,1,0
112,184,3461,5,0
112,120,3692,1,0
240,120,4153,1,0
432,120,4836,6,0,B|432:200,1,65
432,312,5525,2,0,B|296:312,1,130
136,208,6675,5,0
224,112,7133,1,0
224,112,7395,2,0,B|224:264,1,130
348,200,8318,2,0,B|316:272,1,65
384,276,8779,2,0,B|312:340|248:340,1,130,0|0
140,340,9702,1,0
84,152,10395,5,0
204,100,10856,1,0
264,80,11087,2,0,B|320:200,1,130
140,280,12241,2,0,B|220:280,1,65,0|0
336,276,12933,6,0,B|416:276,1,65
468,276,13395,1,0
424,228,13625,1,0
324,144,14087,1,0
272,104,14318,1,8
156,160,14779,6,0,B|180:248,2,65,0|0|8
144,96,15471,1,0
272,96,15933,1,0
272,96,16164,1,8
384,160,16625,2,0,B|360:248,2,65,0|0|8
400,96,17318,1,0
272,72,17779,6,0,B|136:72,1,130
80,72,18471,2,0,B|24:136|84:200,1,130,0|8
140,188,19164,1,0
268,188,19625,2,0,B|348:188,1,65,0|8
464,188,20318,1,0
376,96,20779,5,0
272,176,21241,1,0
176,88,21702,1,8
72,168,22164,2,0,B|128:232,1,65,4|0
96,280,22625,2,0,B|116:216,1,65
180,220,23087,2,0,B|212:180|260:180|296:220,1,130,0|8
412,164,24010,6,0,B|324:164,1,65
280,164,24471,2,0,B|208:164,1,65
148,164,24933,2,0,B|100:188|100:252|152:276,1,130,0|8
272,268,25856,2,0,B|360:268,2,65
280,140,26779,5,0
160,88,27241,1,8
128,216,27702,1,0
232,296,28164,2,0,B|252:336|336:336|352:280,1,130
412,188,29087,1,8
320,96,29548,6,0,B|192:96,2,130
384,96,30702,1,8
448,96,30933,1,8
376,208,31395,2,0,B|504:208,2,130
312,208,32549,5,8
248,208,32780,1,8
184,208,33010,1,0
120,208,33241,2,0,B|52:256|96:344,2,130
172,172,34395,2,0,B|252:124,1,65,0|8
288,112,34856,1,0
472,48,35548,5,0
408,164,36010,1,0
348,280,36471,1,8
228,228,36933,2,0,B|140:252|148:348,2,130,4|0|0
292,216,38087,1,8
292,216,38318,1,8
224,104,38779,6,0,B|176:48|88:56,2,130
272,152,39933,1,8
272,152,40164,1,8
368,64,40625,6,0,B|456:64,1,65
432,128,41087,2,0,B|352:128,1,65
304,128,41548,1,0
240,128,41779,1,0
240,192,42010,1,8
176,192,42241,1,0
48,48,42933,5,0
160,120,43395,1,0
288,88,43856,1,8
400,144,44318,2,0,B|456:256|344:336,1,195
232,320,45471,2,0,B|144:320,1,65,0|8
72,232,46164,6,0,B|72:152,2,65,0|0|8
72,296,46856,1,0
200,296,47318,1,0
264,296,47548,2,0,B|328:296,1,65
400,64,50318,5,0
288,128,50779,1,0
400,200,51241,1,8
344,312,51702,2,0,B|272:368|160:264|80:320,2,260,6|0|2
424,208,54010,1,8
296,208,54471,2,0,B|224:208,2,65,0|0|8
232,88,55395,6,0,B|320:88,2,65,2|0|8
104,88,56318,1,0
104,152,56548,1,0
104,216,56779,1,8
208,296,57241,2,0,B|288:296|312:232,2,130,2|8|0
208,168,58625,1,8
312,88,59087,6,0,B|312:0,2,65,2|0|8
312,216,60010,2,0,B|312:288,2,65,0|0|8
408,128,60933,2,0,B|408:208,1,65,2|0
408,256,61395,2,0,B|408:336,1,65,8|0
344,320,61856,2,0,B|256:320,2,65,0|0|8
296,200,62779,5,2
296,200,63010,1,0
296,200,63241,2,0,B|155:200,1,130
167,200,63933,1,0
167,200,64164,1,8
88,96,64625,2,0,B|144:40|272:160|356:92,2,260,2|0|0
64,224,66933,5,8
168,304,67395,1,0
64,224,67856,1,8
168,152,68318,2,0,B|216:96|304:120,1,130,4|8
352,136,69010,2,0,B|424:144|456:224,1,130,0|8
472,272,69702,1,8
344,272,70164,6,0,B|296:328|208:304,1,130,0|8
164,296,70856,2,0,B|92:248|108:168,1,130,0|8
104,124,71548,1,8
228,88,72010,1,0
240,216,72471,5,8
228,88,72933,1,0
288,64,73164,2,0,B|368:40,2,65,0|8|0
228,88,73856,1,0
332,168,74318,5,8
412,268,74779,1,0
332,168,75241,1,8
228,244,75702,2,0,B|164:204|204:124,1,130,0|8
232,76,76395,1,0
424,88,77087,5,8
296,64,77548,2,0,B|216:32|160:72,1,130,0|8
104,80,78241,1,0
104,208,78702,2,0,B|104:296,2,65,0|8|0
104,144,79395,1,0
112,56,81702,5,8
224,120,82164,1,0
336,56,82625,1,8
464,48,83087,2,0,B|464:208,1,130,4|8
464,240,83779,1,0
464,304,84010,2,0,B|400:368|328:312,1,130,0|8
272,224,84933,6,0,B|144:224,1,130,0|8
80,224,85625,1,0
16,224,85856,2,0,B|8:144|64:104,1,130,0|8
180,56,86779,2,0,B|92:56,1,65
128,120,87241,6,0,B|194:120,1,65
260,120,87702,1,0
392,120,88164,1,8
456,120,88395,1,0
464,320,89087,5,8
464,192,89548,1,0
464,320,90010,1,8
336,320,90471,2,0,B|320:264|264:264|244:320,2,130,0|8|0
336,320,91625,1,8
336,320,91856,1,8
264,216,92318,6,0,B|248:160|188:160|168:220,2,130,0|8|0
264,216,93471,1,8
336,216,93702,2,0,B|392:160|352:72,1,130,8|0
232,88,94625,2,0,B|152:88,2,65,8|0|0
296,88,95318,2,0,B|376:88,1,65,0|8
432,88,95779,1,0
304,72,111241,6,0,B|144:72,1,130,8|0
40,72,112164,1,8
40,200,112625,2,0,B|40:280,2,65,4|0|8
168,200,113548,2,0,B|232:240|304:192,1,130,0|8
424,192,114471,2,0,B|424:120,2,65,0|0|8
392,320,115395,6,0,B|328:264|256:336,1,130,0|8
224,280,116087,2,0,B|192:368,1,65
80,288,116779,2,0,B|64:192|120:192|88:96,1,195,8|0
160,96,117702,1,8
272,168,118164,1,0
320,288,118625,6,0,B|368:368|436:344|496:312|456:208,1,260,8|8
340,164,120010,2,0,B|268:164,2,65,0|0|8
340,164,120702,1,0
240,80,121164,2,0,B|160:80,1,65,0|8
108,192,121856,6,0,B|44:248|76:336,1,130,0|8
68,308,122548,1,0
200,308,123010,2,0,B|280:308,2,65,0|8|0
256,192,123587,12,0,125548
112,72,126010,5,8
112,200,126471,1,0
216,280,126933,1,8
320,200,127395,6,0,B|384:168,2,65,6|0|8
264,80,128318,2,0,B|208:112,1,65,0|0
152,144,128779,1,8
120,272,129241,2,0,B|168:336|264:320,2,130,2|8|0
120,272,130625,1,8
200,168,131087,6,0,B|160:104|72:104,2,130,2|8|0
200,168,132471,1,8
320,88,132933,2,0,B|392:112,1,65,2|0
384,184,133395,2,0,B|304:224,1,65,8|0
328,280,133856,2,0,B|400:328,2,65,0|8|8
240,184,134779,6,0,B|176:248,1,65,2|0
144,184,135241,2,0,B|120:112,1,65,8|0
176,88,135702,2,0,B|240:88,2,65,0|0|8
48,88,136625,6,0,B|48:176,1,65,2|0
48,216,137087,2,0,B|48:296,1,65,8|0
112,280,137548,2,0,B|192:280,2,65,0|0|8
192,176,138471,2,0,B|200:112|200:112|272:112,1,130,2|8
264,112,139164,1,0
328,112,139395,2,0,B|408:112,2,65,0|0|8
328,240,140318,6,0,B|312:320|216:320,2,130,2|8|0
368,120,141702,1,8
104,64,142625,5,8
168,176,143087,1,0
104,288,143548,1,8
232,312,144010,2,0,B|320:328|280:160|424:160,2,260,4|0|0
232,184,146318,1,8
232,120,146548,2,0,B|192:56|120:80,1,130
72,120,147241,2,0,B|72:208,1,65,8|0
72,248,147702,6,0,B|48:320|128:304|120:368,2,130,0|8|0
204,248,149087,1,8
204,248,149318,1,0
380,88,150010,5,8
380,216,150471,2,0,B|380:304,2,65,0|0|8
260,168,151395,2,0,B|220:104|140:120,1,130,0|8
64,220,152318,1,0
88,348,152779,1,8
216,320,153241,6,0,B|208:224|312:248,1,130,0|8
360,244,153933,1,0
488,240,154395,2,0,B|488:160,2,65,0|8|0
488,240,155087,1,0
248,72,157395,6,0,B|104:72,1,130,8|0
120,200,158318,1,8
120,328,158779,2,0,B|200:344|232:272,2,130,4|8|0
120,200,160164,1,8
240,152,160625,2,0,B|344:152|400:320|472:288,1,260
456,160,162010,2,0,B|456:72,1,65,8|0
456,32,162471,1,4
256,192,162587,12,4,164318
