osu file format v9

[General]
AudioFilename: an apple.mp3
AudioLeadIn: 2000
PreviewTime: 50307
Countdown: 0
SampleSet: Normal
StackLeniency: 0.5
Mode: 0
LetterboxInBreaks: 0

[Editor]
DistanceSpacing: 1
BeatDivisor: 4
GridSize: 4

[Metadata]
Title:Yi Ke Ping Guo
Artist:Mayday
Creator:Megurine Luka
Version:One Apple
Source:
Tags:Ren Sheng Hai Hai Wu Yue Tian

[Difficulty]
HPDrainRate:2
CircleSize:3
OverallDifficulty:2
ApproachRate:3
SliderMultiplier:1
SliderTickRate:1

[Events]
//Background and Video events
0,0,"111.png"
//Break Periods
2,47978,48878
2,97856,109339
//Storyboard Layer 0 (Background)
//Storyboard Layer 1 (Fail)
//Storyboard Layer 2 (Pass)
//Storyboard Layer 3 (Foreground)
//Storyboard Sound Samples
//Background Colour Transformations
3,100,163,162,255

[TimingPoints]
0,461.538461538462,4,1,1,80,1,0
4836,459.770114942529,4,1,1,80,1,0
7395,461.538461538462,4,1,2,80,1,0
8202,-100,4,1,2,5,0,0
8433,-100,4,1,2,80,0,0
13741,-100,4,1,2,20,0,0
14433,-100,4,1,2,80,0,0
15587,-100,4,1,2,20,0,0
15818,-100,4,1,2,80,0,0
20779,-100,4,1,2,100,0,0
34510,-100,4,2,1,100,0,0
34740,-100,4,1,2,100,0,0
36818,-100,4,1,2,90,0,0
37048,-100,4,1,2,100,0,0
50317,-100,4,1,1,100,0,0
51702,-100,4,1,1,100,0,1
66471,-100,4,1,1,100,0,0
68202,-100,4,1,1,90,0,0
68433,-100,4,1,1,100,0,0
79510,-100,4,1,2,5,0,0
79856,-100,4,1,1,60,0,0
81702,-100,4,1,1,100,0,0
82971,-100,4,1,1,90,0,0
83202,-100,4,1,1,100,0,0
110779,-100,4,1,2,100,0,0
122192,-100,4,2,1,100,0,0
122423,-100,4,1,2,100,0,0
126010,-100,4,1,1,100,0,0
127394,-100,4,1,1,100,0,1
142164,-100,4,1,1,100,0,0
143895,-100,4,1,1,90,0,0
144125,-100,4,1,1,100,0,0
150356,-100,4,1,2,100,0,0
150587,-100,4,1,1,100,0,0
157395,-100,4,1,1,70,0,0

[Colours]
Combo1 : 213,0,0
Combo2 : 0,128,0
Combo3 : 198,198,0
SliderBorder : 255,255,255

[HitObjects]
136,56,0,1,0
136,152,461,1,0
136,304,1153,2,0,B|208:304,1,50
288,304,1846,5,0
288,208,2307,1,0
440,208,3000,1,0
440,112,3461,2,0,B|440:56,1,50
336,64,4153,1,0
184,64,4836,2,0,B|128:64,1,50
32,64,5525,5,0
32,164,5985,1,0
28,316,6675,1,0
128,316,7134,1,0
184,316,7395,1,0
288,316,7856,2,0,B|400:316,2,100
204,252,9241,2,0,B|116:192,1,100
104,48,10394,5,0
144,136,10856,2,0,B|88:136,1,45
96,240,11548,1,0
208,336,12241,6,0,B|208:286,1,50
296,248,12933,2,0,B|360:272|400:208,2,100
320,144,14318,1,0
224,168,14779,6,0,B|224:68,2,100
256,264,16164,1,0
192,344,16625,2,0,B|72:344,1,100
96,192,17779,2,0,B|96:120,3,50
416,160,20318,5,0
416,56,20779,2,0,B|304:56,1,100
216,56,21702,1,8
120,56,22164,6,0,B|64:72|56:200|128:232,1,200,0|0
200,176,23548,1,8
304,176,24010,2,0,B|408:176,1,100,0|0
472,248,24933,2,0,B|368:304,1,100,0|8
288,320,25856,6,0,B|224:320,2,50
272,224,26779,1,0
208,144,27241,1,8
304,128,27702,1,0
400,128,28164,6,0,B|400:248,1,100
400,328,29087,1,8
296,328,29548,2,0,B|184:328,1,100
96,328,30471,2,0,B|96:264,2,50,0|0|8
196,328,31395,6,0,B|164:272|212:176|284:176,1,200
384,176,32779,2,0,B|456:176,2,50,8|0|0
304,240,33702,1,0
208,240,34164,2,0,B|136:224|64:296|88:368,1,200
184,344,35548,5,0
280,312,36010,1,0
208,240,36471,1,0
147,160,36933,6,0,B|139:104|243:40|299:72,1,200,4|0
389,107,38318,1,8
396,204,38779,2,0,B|452:212|528:112|476:36,1,200
388,60,40164,1,8
288,76,40625,6,0,B|288:188,1,100
188,168,41548,2,0,B|188:280,1,100,0|8
88,268,42471,1,0
88,368,42933,5,0
88,268,43395,2,0,B|88:196,2,50,0|0|8
172,216,44318,6,0,B|196:160|324:160|348:216,1,200
432,260,45702,1,8
344,308,46164,2,0,B|320:364|192:364|172:308,1,200
88,260,47548,2,0,B|88:204,1,50
344,48,50318,5,0
344,152,50779,1,0
344,252,51241,1,8
256,304,51702,2,0,B|208:360|120:360|72:296,2,200,2|0|2
336,240,54010,5,8
264,176,54471,2,0,B|160:176,2,100,0|8|2
344,120,55856,1,8
344,216,56318,2,0,B|344:280,2,50,0|0|8
248,240,57241,2,0,B|240:312|144:352|80:312,1,200,2|0
16,256,58625,1,8
112,224,59087,6,0,B|112:112,1,100,2|8
204,84,60010,2,0,B|204:188,1,100,0|8
296,144,60933,2,0,B|296:40,1,100,2|8
392,16,61856,2,0,B|392:120,1,100,0|8
416,208,62779,6,0,B|480:216|480:360|416:368,1,200,2|0
344,296,64164,1,8
240,296,64625,2,0,B|128:296,2,100,2|8|0
228,200,66010,1,8
244,100,66471,1,0
336,64,66933,5,8
424,104,67395,1,0
344,168,67856,1,8
248,192,68318,6,0,B|184:224|184:320|240:360,1,200,4|0
304,280,69702,1,8
400,280,70164,2,0,B|456:240|456:144|392:112,1,200
344,200,71548,1,8
256,152,72010,6,0,B|144:152,1,100,0|8
88,224,72933,2,0,B|16:224,2,50,0|0|8
192,224,73856,1,0
288,224,74318,2,0,B|400:224,1,100,8|0
392,320,75241,1,8
292,316,75702,6,0,B|220:284|148:364|92:316,2,200
376,264,78010,2,0,B|376:216,1,50,8|0
304,144,78702,2,0,B|288:72|376:24|464:72|444:152,1,250,0|8
112,192,81702,6,8,B|216:192,1,100,8|0
312,192,82625,1,8
376,116,83087,2,0,B|432:76,2,50,4|0|8
376,224,84010,2,0,B|376:328,1,100,0|8
276,324,84933,6,0,B|236:363,2,50,0|0|8
272,224,85856,2,0,B|184:152,1,100,0|8
272,96,86779,2,0,B|368:48|488:104,2,200
176,128,89087,5,8
176,232,89548,1,0
280,232,90010,1,8
280,128,90471,2,0,B|400:128,1,100,0|8
456,192,91395,2,0,B|496:244|448:292,1,100,0|8
360,308,92318,6,0,B|288:308|280:244,1,100,0|8
196,208,93241,2,0,B|136:192|152:115,1,100,0|8
240,92,94164,2,0,B|344:52|344:52,1,100,0|8
424,100,95087,2,0,B|472:204,2,100,0|8|0
104,64,110779,5,0
200,64,111241,2,0,B|312:64,1,100,8|0
400,64,112164,1,8
360,160,112625,1,4
312,248,113087,2,0,B|256:352,2,100,8|0|8
232,184,114471,5,0
233,83,114933,2,0,B|345:83,2,100,8|0|8
132,82,116318,1,0
129,181,116779,2,0,B|129:245,2,50,8|0|0
224,232,117702,1,8
224,136,118164,1,0
324,136,118625,6,0,B|372:88|460:80|516:144,1,200,8|8
472,224,120010,2,0,B|368:224,1,100,0|8
272,224,120933,2,0,B|272:280,2,50,0|0|8
176,216,121856,2,0,B|152:160|232:64|296:80,1,200,0|0
256,192,123241,12,0,125087
148,72,126010,5,0
196,160,126471,1,0
284,204,126933,1,8
368,152,127394,2,0,B|440:152|472:256|424:304,2,200,2|0|2
272,120,129702,1,8
172,120,130164,2,0,B|172:56,2,50,0|0|8
240,192,131087,6,0,B|240:304,1,100,2|8
144,264,132010,2,0,B|144:368,1,100,0|8
240,352,132933,2,0,B|352:336|392:224,1,200,2|0
408,136,134318,1,8
324,80,134779,6,0,B|212:52,1,100,2|8
140,108,135702,2,0,B|108:220,1,100,0|8
184,272,136625,2,0,B|236:304|284:252,1,100,2|8
348,192,137548,2,0,B|396:144,2,50,0|0|8
256,152,138471,6,0,B|168:80,1,100,2|8
88,48,139394,2,0,B|88:152,1,100,0|8
156,220,140318,2,0,B|212:252|268:212,2,100,2|8|0
56,220,141702,1,8
240,128,142625,5,8
328,80,143087,1,0
416,136,143548,1,8
464,224,144010,2,0,B|392:312,1,100,4|8
300,304,144933,2,0,B|196:304,1,100,0|8
100,304,145856,6,0,B|100:240,2,50,0|0|8
176,240,146779,2,0,B|176:176,2,50,0|0|8
252,176,147702,2,0,B|284:112|380:112|420:176,1,200
464,264,149087,1,8
396,336,149548,1,0
312,284,150010,6,0,B|248:244|248:144|320:108,1,200,8|8
360,200,151394,2,0,B|512:152,1,150
364,108,152779,1,8
360,200,153241,2,0,B|456:192|480:296,1,150
256,192,154394,12,0,156471
112,96,157394,6,0,B|232:96,1,100,8|0
299,47,158318,1,8
376,109,158779,2,0,B|480:157|448:285,1,200,4|0
368,333,160164,1,8
282,280,160625,2,0,B|218:248|174:300,2,100,0|8|0
256,192,162010,12,4,164318
