osu file format v9

[General]
AudioFilename: an apple.mp3
AudioLeadIn: 2000
PreviewTime: 50307
Countdown: 0
SampleSet: Normal
StackLeniency: 0.5
Mode: 0
LetterboxInBreaks: 0

[Editor]
DistanceSpacing: 1.4
BeatDivisor: 4
GridSize: 4

[Metadata]
Title:Yi Ke Ping Guo
Artist:Mayday
Creator:Megurine Luka
Version:Lots of Apples
Source:
Tags:Ren Sheng Hai Hai Wu Yue Tian

[Difficulty]
HPDrainRate:6
CircleSize:4
OverallDifficulty:7
ApproachRate:8
SliderMultiplier:1.6
SliderTickRate:1

[Events]
//Background and Video events
0,0,"111.png"
//Break Periods
2,48210,49568
2,79595,80953
2,97856,110491
//Storyboard Layer 0 (Background)
//Storyboard Layer 1 (Fail)
//Storyboard Layer 2 (Pass)
//Storyboard Layer 3 (Foreground)
//Storyboard Sound Samples
//Background Colour Transformations
3,100,163,162,255

[TimingPoints]
0,461.538461538462,4,1,1,80,1,0
4836,459.770114942529,4,1,1,80,1,0
7395,461.538461538462,4,1,1,80,1,0
20779,-100,4,1,2,100,0,0
22048,-100,4,1,2,90,0,0
22279,-100,4,1,2,100,0,0
36818,-100,4,1,2,90,0,0
37048,-100,4,1,2,100,0,0
50317,-100,4,1,1,100,0,0
51702,-100,4,1,1,100,0,1
66471,-133.333333333333,4,1,1,100,0,0
68202,-133.333333333333,4,1,1,90,0,0
68433,-133.333333333333,4,1,1,100,0,0
71202,-133.333333333333,4,1,1,60,0,0
71433,-133.333333333333,4,1,1,100,0,0
79856,-100,4,1,1,60,0,0
81702,-100,4,1,1,100,0,0
82971,-100,4,1,1,90,0,0
83202,-100,4,1,1,100,0,0
110779,-100,4,1,2,100,0,0
112510,-100,4,1,2,90,0,0
112741,-100,4,1,2,100,0,0
120356,-100,4,2,1,100,0,0
120586,-100,4,1,2,100,0,0
126010,-100,4,1,1,100,0,0
127394,-100,4,1,1,100,0,1
142164,-100,4,1,1,100,0,0
143895,-100,4,1,1,90,0,0
144125,-100,4,1,1,100,0,0
157395,-100,4,1,1,60,0,0
158664,-100,4,1,1,45,0,0
158895,-100,4,1,1,60,0,0

[Colours]
Combo1 : 213,0,0
Combo2 : 0,128,0
Combo3 : 198,198,0
SliderBorder : 255,255,255

[HitObjects]
96,64,0,2,0,B|192:64,1,80
176,64,461,1,0
416,64,1153,2,0,B|416:144,1,80
256,168,1846,2,0,B|352:168,1,80
336,168,2307,1,0
96,168,3000,5,0
96,328,3461,1,0
176,328,3692,2,0,B|240:304|272:368|340:328,1,160,0|0
432,112,4836,6,0,B|344:112,1,80
188,112,5525,2,0,B|108:160|108:160|20:112,1,160
232,288,6675,1,0
376,216,7133,2,0,B|376:124,1,92
224,184,7857,6,0,B|112:184,1,80,8|0
64,184,8318,2,0,B|28:232|32:296|72:336,1,160,0|8
228,332,9241,1,0
332,208,9703,2,0,B|380:144,1,80,8|0
344,72,10164,2,0,B|440:56,1,80
436,220,10857,5,8
436,220,11087,2,0,B|476:276|428:356|348:324,1,160,0|8
296,332,11780,1,0
156,252,12241,2,0,B|84:188,1,80,0|8
216,92,12933,2,0,B|240:48|304:44,1,80
360,48,13395,2,0,B|408:48|440:84,1,80,8|0
472,160,13857,1,0
472,160,13972,1,0
472,160,14087,1,0
472,160,14318,1,8
404,204,14548,1,8
336,248,14780,6,0,B|272:296,1,80
192,312,15241,2,0,B|120:296|184:208|112:176,1,160,8|0
100,148,15818,1,0
72,120,15934,1,0
144,80,16164,2,0,B|224:48,1,80,8|0
296,32,16626,2,0,B|376:64|288:128|368:184,1,160,0|8
392,240,17318,1,0
336,296,17549,6,0,B|248:296,1,80
216,224,18011,2,0,B|320:224,1,80,8|0
296,224,18472,1,0
256,192,18587,12,0,20318
120,64,20780,6,0,B|80:168,1,80
168,152,21241,2,0,B|128:248,1,80,8|0
216,228,21703,2,0,B|184:316,1,80
268,316,22164,1,4
384,208,22626,5,0
392,288,22857,1,0
320,256,23087,1,0
312,176,23318,2,0,B|360:128|256:80|328:16,1,160
360,24,23895,1,0
404,24,24011,2,0,B|364:96|460:128|404:192,1,160,0|8
376,248,24703,5,0
304,288,24934,1,0
264,288,25049,1,0
224,288,25164,2,0,B|160:320|88:256|48:312,1,160
64,216,25857,1,0
160,88,26318,1,8
232,56,26549,1,0
276,124,26780,1,0
292,116,26895,1,0
312,108,27011,1,0
388,88,27241,1,0
420,160,27472,1,0
192,264,28164,6,0,B|88:264,1,80
88,336,28626,2,0,B|176:336,1,80
248,336,29087,1,8
384,256,29549,2,0,B|472:232|440:128,1,160
340,52,30241,1,0
340,92,30356,1,0
340,132,30472,1,0
340,212,30702,1,0
340,212,30934,1,8
128,256,31395,6,0,B|40:232|72:128,1,160
172,52,32087,1,0
172,92,32202,1,0
172,132,32318,1,0
172,212,32548,1,0
172,212,32780,1,8
312,176,33242,5,0
396,200,33472,1,0
432,216,33588,1,0
448,248,33703,2,0,B|416:344|304:320,1,160
248,304,34395,5,0
176,264,34626,1,8
120,200,34857,2,0,B|64:192,2,40
184,152,35318,2,0,B|200:96,2,40
240,208,35779,1,0
240,208,36010,2,0,B|304:208,2,40
296,144,36472,1,8
424,56,36934,6,0,B|464:136,1,80,4|0
456,208,37395,2,0,B|368:208,1,80
344,288,37857,1,0
312,312,37972,1,0
304,272,38087,1,8
248,216,38318,1,8
88,64,38780,5,0
120,136,39011,1,0
40,128,39241,1,0
72,200,39472,1,0
144,240,39703,1,0
184,232,39818,1,0
168,272,39934,1,8
216,336,40164,1,8
344,232,40626,6,0,B|400:160,1,80
360,96,41087,2,0,B|464:144,1,80
456,208,41549,2,0,B|480:296,2,80,0|0|8
456,208,42241,1,0
128,296,42934,2,0,B|72:280|96:216,1,80
128,168,43395,2,0,B|180:184|168:248,1,80
172,228,43857,1,8
364,48,44318,5,0
404,40,44434,1,0
444,52,44549,1,0
468,84,44664,1,0
472,124,44780,1,0
424,188,45011,1,0
376,252,45241,1,0
324,316,45472,2,0,B|268:380,1,80,0|8
72,176,46164,6,0,B|88:144|96:128,2,40
152,192,46626,2,0,B|208:200,2,40
187,120,47087,1,0
266,131,47318,1,0
280,210,47549,1,8
209,247,47779,1,0
152,192,48010,1,0
432,328,50318,6,0,B|320:328,1,80
304,264,50780,2,0,B|224:264,1,80
144,264,51241,1,8
88,112,51703,2,0,B|136:64|184:120|248:72,1,160,2|8
239,77,52395,1,0
320,56,52626,1,0
320,56,52857,2,0,B|344:152,1,80,0|8
348,172,53202,1,0
360,208,53318,1,0
264,240,53549,5,2
296,312,53780,1,0
184,272,54011,5,8
160,344,54241,1,0
104,248,54472,5,0
72,264,54587,1,0
32,280,54703,1,0
40,200,54934,1,8
104,136,55164,1,0
184,96,55395,5,2
232,176,55626,1,0
304,48,55857,5,8
372,176,56087,1,0
432,16,56318,5,0
448,56,56434,1,0
464,96,56549,1,0
480,136,56664,1,0
496,176,56779,1,8
444,280,57011,5,0
360,344,57241,2,0,B|288:392|192:336,2,160,2|8|0
360,344,58395,1,8
304,288,58626,2,0,B|248:232,1,80,8|0
200,168,59087,6,0,B|240:128|296:184,1,80,2|0
152,232,59549,2,0,B|112:272|56:216,1,80,8|0
36,108,60011,1,0
68,76,60126,1,0
96,108,60241,1,0
228,52,60472,1,8
228,188,60703,1,0
416,168,60934,6,0,B|376:208|320:152,1,80,2|0
224,108,61395,2,0,B|264:68|320:124,1,80,8|0
192,192,61857,1,0
160,216,61972,1,0
132,188,62087,1,0
32,128,62318,1,8
32,240,62549,1,0
136,328,62780,6,0,B|224:280,1,80,2|0
340,256,63241,2,0,B|252:312,1,80,8|0
192,216,63703,1,0
192,216,63818,1,0
192,216,63934,1,0
288,152,64164,1,8
384,96,64395,6,0,B|464:48,1,80,0|2
452,54,64857,1,0
452,168,65087,2,0,B|452:272,2,80,8|0|0
452,168,65780,1,8
340,168,66011,1,8
96,112,66934,5,8
96,336,67395,1,0
288,224,67857,1,8
448,64,68318,2,0,B|448:208,1,119.999996423721,4|8
448,244,69011,1,0
448,244,69241,1,0
448,304,69472,1,0
448,320,69587,1,0
448,336,69703,1,8
296,312,70164,6,0,B|172:312,1,119.999996423721,0|8
96,312,70857,1,0
24,240,71087,1,0
160,240,71318,2,0,B|84:240,1,59.9999982118607,8|8
24,240,71780,1,0
48,160,72011,2,0,B|60:84|140:96,2,119.999996423721,0|8|0
120,188,73164,1,0
188,232,73395,1,8
172,312,73626,1,0
392,64,74318,6,0,B|392:140,1,59.9999982118607,8|0
464,156,74780,2,0,B|424:220,1,59.9999982118607
488,264,75241,2,0,B|416:296,1,59.9999982118607,8|0
356,292,75703,2,0,B|268:344|176:264,1,179.999994635582
20,368,76857,1,0
88,332,77087,1,8
64,140,77549,6,0,B|72:40|192:36,1,179.999994635582
380,60,78703,1,0
384,88,78818,1,0
380,116,78933,1,8
368,144,79049,1,0
348,164,79164,1,0
268,228,79395,1,4
80,72,81703,6,0,B|128:32|184:96|240:64,1,160,8|0
392,72,82626,1,8
360,232,83087,2,0,B|240:200|280:200|176:256,1,160,4|8
144,280,83780,1,0
80,328,84011,1,0
72,248,84241,1,0
136,200,84472,2,0,B|200:152,1,80,8|0
368,56,84934,5,0
336,128,85164,1,0
256,112,85395,5,8
212,196,85626,1,0
140,168,85857,5,0
88,272,86087,1,0
24,232,86318,2,0,B|-24:328,1,80,8|0
56,344,86780,6,0,B|152:384|184:248|304:296,1,240
280,288,87703,1,0
344,240,87934,1,0
384,224,88049,1,0
424,232,88164,1,8
456,304,88395,1,0
112,200,89087,6,0,B|168:104,1,80,8|0
200,200,89549,2,0,B|152:288,1,80
120,352,90011,1,8
280,320,90472,6,0,B|384:288,2,80,0|0|8
224,256,91164,1,0
192,240,91280,1,0
160,224,91395,1,0
88,184,91626,1,8
88,184,91857,1,8
232,112,92318,6,0,B|328:56,1,80
360,128,92779,1,8
392,112,92895,1,0
424,96,93010,1,0
448,176,93241,1,0
448,256,93472,1,8
376,216,93703,1,8
320,272,93934,1,0
292,196,94164,6,0,B|244:172|244:108,2,80,0|0|8
292,196,94857,1,0
220,232,95087,2,0,B|80:292|48:180|128:120|200:176|168:308|28:232,1,320
344,80,111241,5,8
344,248,111703,1,0
204,172,112164,1,8
80,72,112626,2,0,B|40:96|40:96|64:136,1,80,4|0
120,176,113087,2,0,B|112:224|112:224|64:224,1,80,8|0
104,304,113549,2,0,B|16:304,2,80,0|0|8
104,304,114241,1,0
184,288,114472,6,0,B|232:208,1,80
304,232,114934,2,0,B|352:160,1,80,8|0
432,160,115395,2,0,B|432:96,2,40
432,240,115857,1,8
352,240,116087,2,0,B|352:336,1,80
136,128,116780,5,8
220,236,117011,1,0
84,244,117241,1,0
196,164,117472,1,0
316,96,117703,1,8
436,164,117934,2,0,B|476:244,1,80
320,304,118626,6,0,B|208:304,1,80,8|0
160,304,119087,2,0,B|128:248|96:312,1,80
24,304,119549,1,8
24,304,119780,1,0
64,240,120011,2,0,B|72:144|192:200|216:44,1,240
212,65,120818,1,0
212,65,120934,1,0
272,120,121164,5,0
208,168,121395,1,8
272,216,121626,1,0
344,180,121857,2,0,B|368:276,1,80
400,252,122203,1,0
440,244,122318,2,0,B|464:340,1,80,8|0
376,324,122780,1,0
296,324,123011,2,0,B|200:324,2,80,0|8|0
256,192,123587,12,0,125549
256,40,126011,5,8
80,328,126472,1,0
432,328,126934,1,8
312,240,127395,6,0,B|232:192,1,80,2|0
176,160,127857,2,0,B|136:264,1,80,8|0
120,312,128318,1,0
200,312,128549,2,0,B|272:312,2,40,0|0|8
160,240,129011,5,0
112,176,129241,1,2
160,112,129472,1,0
288,88,129703,5,8
288,168,129934,1,0
248,264,130164,5,0
280,288,130280,1,0
312,312,130395,1,0
392,360,130626,1,8
448,272,130857,1,0
432,120,131087,5,2
400,192,131318,1,0
324,160,131549,5,8
272,256,131780,1,0
224,192,132011,5,0
128,104,132241,1,0
96,80,132357,1,0
64,56,132472,1,8
48,176,132703,1,0
88,272,132934,6,0,B|128:320|200:320|240:256,2,160,2|8|0
88,272,134087,1,8
184,176,134318,1,8
288,88,134549,1,8
416,184,134779,6,0,B|352:272,1,80,2|0
232,240,135241,2,0,B|264:352,1,80,8|0
120,328,135703,2,0,B|64:328,4,40,0|0|0|0|8
64,208,136395,1,0
136,96,136626,6,0,B|224:152,1,80,2|0
232,152,136972,1,0
264,168,137087,2,0,B|336:216,1,80,8|0
352,232,137434,1,0
336,256,137549,2,0,B|312:296,4,40,0|0|0|0|8
200,272,138241,1,0
136,128,138472,6,0,B|72:200,1,80,2|0
112,344,138934,2,0,B|184:256,1,80,8|0
344,208,139395,2,0,B|280:296,1,80
272,304,139741,1,0
248,336,139857,1,8
176,192,140087,5,0
88,88,140318,1,2
176,192,140549,1,0
200,56,140780,1,8
176,192,141011,1,0
296,128,141241,1,0
292,264,141472,5,8
256,280,141587,1,8
264,320,141703,1,8
304,324,141818,1,8
324,292,141934,1,8
432,208,142164,1,12
96,56,142626,5,8
256,320,143087,1,0
416,56,143549,1,8
172,176,144010,6,0,B|60:184,1,80,4|0
16,208,144471,2,0,B|52:300,2,80
76,152,145165,1,0
136,100,145395,1,8
448,256,145857,6,0,B|384:144,1,120
352,168,146318,2,0,B|300:72,1,80,8|0
314,97,146780,1,0
264,160,147011,1,0
216,224,147241,2,0,B|128:224,1,80,8|0
88,160,147703,6,0,B|92:96|148:68|216:96,2,160,0|8|0
136,224,148857,1,0
216,240,149087,1,8
296,224,149318,1,0
432,72,150011,6,0,B|400:160,1,80,8|0
368,144,150357,1,0
328,144,150472,2,0,B|288:248,1,80,0|0
224,200,150934,1,8
224,200,151164,1,0
152,160,151395,2,0,B|100:168|96:240,2,80,0|0|8
224,200,152087,1,0
432,80,152780,5,8
432,160,153011,1,0
432,240,153241,2,0,B|352:240,1,80
196,300,153703,2,0,B|284:300,1,80,8|0
272,192,154395,1,0
200,152,154626,1,8
200,232,154857,1,0
168,304,155087,6,0,B|272:304,1,80
328,304,155549,2,0,B|216:304,1,80,8|0
256,224,156011,2,0,B|288:168|328:168,1,80
452,116,156472,2,0,B|420:172|380:172,1,80,8|0
335,229,156934,1,0
80,64,157395,5,8
96,224,157857,1,0
240,160,158318,1,8
376,72,158780,6,0,B|376:176,2,80,4|0|8
376,72,159472,1,0
312,120,159703,1,0
288,192,159934,1,0
312,264,160164,1,8
160,320,160626,6,0,B|56:320,1,80
80,320,161087,1,8
80,240,161318,1,0
192,128,161780,1,0
264,168,162011,2,0,B|336:200|384:144|352:64,1,160,8|4
256,192,162587,12,4,164318
