osu file format v5

[General]
AudioFilename: LOVE I-N-G.mp3
AudioLeadIn: 0
PreviewTime: -1
Countdown: 3
SampleSet: Normal
StackLeniency: 0.7
Mode: 0
LetterboxInBreaks: 1

[Metadata]
Title:LOVE I-N-G
Artist:Mayday
Creator:redfox19920501
Version:Normal
Source:
Tags:

[Difficulty]
HPDrainRate:5
CircleSize:5
OverallDifficulty:5
SliderMultiplier:1.1
SliderTickRate:2

[Events]
//Background and Video events
0,0,"5102345261576.jpg"
//Break Periods
2,99128,118438
//Storyboard Layer 0 (Background)
//Storyboard Layer 1 (Failing)
//Storyboard Layer 2 (Passing)
//Storyboard Layer 3 (Foreground)
//Storyboard Sound Samples
//Background Colour Transformations
3,100,163,162,255

[TimingPoints]
2693,304.645448615484,4,1,0,100,1

[HitObjects]
32,64,7567,2,0,B|480:64,1,440
480,320,10004,1,0
352,320,10613,1,0
224,320,11223,1,2
480,320,12441,6,0,B|0:320,1,440
64,64,14878,1,0
192,64,15488,1,0
320,64,16097,1,2
192,64,16706,5,0
128,96,17011,1,0
192,128,17315,1,0
320,128,17925,2,0,B|512:320,5,220
352,288,21581,5,0
416,256,21885,1,0
448,192,22190,2,2,B|0:192,2,440
480,64,25236,1,2
384,128,25846,1,2
288,64,26455,1,2
192,128,27064,1,2
0,128,28130,1,2
0,224,28587,5,0
48,272,28892,1,0
96,224,29197,1,0
144,272,29501,1,0
208,208,29958,1,0
320,96,30720,1,0
256,160,31177,1,0
368,192,31938,2,2,B|112:192,2,220
416,144,33462,5,0
464,96,33766,1,0
416,48,34071,1,0
368,96,34376,1,0
272,96,34833,1,0
272,256,35594,1,0
176,256,36051,1,0
112,96,36813,2,0,B|336:96,2,220
112,160,38336,5,0
112,224,38641,1,0
176,224,38945,1,0
176,160,39250,1,0
240,224,39707,1,0
400,160,40469,1,0
336,224,40926,1,0
256,80,41687,2,2,B|256:304,2,220
320,80,43210,5,0
384,80,43515,1,0
320,80,43820,1,0
384,80,44124,1,0
384,176,44581,1,0
224,176,45343,1,0
128,176,45800,1,0
80,336,46561,5,0
80,240,47018,1,0
176,240,47475,1,0
176,240,47780,1,0
176,144,48237,1,0
272,144,48694,1,0
272,144,48999,1,0
256,192,49456,12,4,52651
256,96,53873,5,0
256,224,54482,1,0
256,96,55092,1,0
256,192,55548,1,0
256,192,55853,1,0
256,288,56310,1,0
256,192,56767,1,0
256,192,57072,1,0
256,96,57529,1,2
352,192,58747,5,0
224,192,59357,1,0
352,192,59966,1,0
256,192,60423,1,0
256,192,60727,1,0
160,192,61184,1,0
256,192,61641,1,0
256,192,61946,1,0
352,192,62403,1,2
256,128,63622,5,0
368,192,64231,1,0
256,256,64840,1,0
176,192,65297,1,0
176,192,65602,1,0
80,192,66059,1,0
176,192,66516,1,0
176,192,66820,1,0
272,192,67277,1,2
272,128,68496,6,0,B|336:128|384:191|348:264|240:256,3,220
144,192,70933,1,2
256,272,71542,1,2
368,192,72152,1,2
256,112,72761,1,2
256,240,73370,1,2
256,240,74437,1,2
256,144,74893,5,0
256,80,75198,1,0
192,112,75503,1,0
192,176,75807,1,0
192,272,76264,1,0
352,272,77026,1,0
352,176,77483,1,0
192,112,78245,2,2,B|192:336,2,220,2|2|2
256,112,79768,5,0
256,176,80072,1,0
256,240,80377,1,0
256,304,80682,1,0
192,240,81139,1,0
320,144,81900,1,0
256,80,82357,1,0
112,160,83119,2,0,B|304:352,2,220
160,112,84642,5,0
208,64,84947,1,0
272,80,85251,1,0
320,32,85556,1,0
400,96,86013,1,0
240,128,86775,1,0
320,192,87232,1,0
272,352,87993,2,2,B|80:208,2,220
288,288,89516,5,0
288,224,89821,1,0
288,160,90126,1,0
224,160,90430,2,0,B|416:160,1,165
224,160,91649,2,0,B|32:160,1,165
160,32,92868,6,4,B|249:94|249:94|384:0,10,220
128,256,119676,5,0
128,128,120286,1,0
256,128,120895,1,0
256,256,121504,1,0
384,256,122114,1,0
384,128,122723,1,0
256,128,123332,1,0
64,192,124551,5,0
160,192,125008,1,0
160,192,125312,1,0
256,192,125769,1,0
352,192,126226,1,0
352,192,126531,1,0
448,64,127292,5,2
320,64,127902,1,2
192,64,128511,1,2
64,64,129120,1,2
64,192,129730,5,2
192,192,130339,1,2
320,192,130948,1,2
448,192,131558,1,2
448,320,132167,5,2
320,320,132776,1,2
192,320,133385,1,2
64,320,133995,1,2
64,256,134299,5,2
143,195,134756,1,2
103,141,135061,1,2
169,133,135366,1,2
176,32,135823,5,0
240,32,136127,1,0
304,32,136432,1,0
240,32,136736,2,0,B|432:32,1,165
400,192,137955,2,0,B|208:192,1,165
64,192,139174,2,2,B|-52:360|160:256,2,220
128,192,140697,5,0
128,128,141002,1,0
192,128,141306,1,0
192,192,141611,2,0,B|275:269|275:269|320:224,1,165
480,192,142829,2,0,B|397:269|397:269|352:224,1,165
336,64,144048,5,0
272,144,144505,1,0
272,144,144810,1,0
208,224,145267,1,0
272,224,145571,5,0
336,224,145876,1,0
336,160,146181,1,0
272,160,146485,2,0,B|275:304|176:320,1,165
288,160,147704,2,0,B|395:99|395:99|480:128,1,165
304,208,148922,2,2,B|384:144|289:81|384:-16,2,220
304,272,150446,5,0
256,304,150750,1,0
208,272,151055,1,0
176,224,151359,2,0,B|239:143|368:224,1,165
496,224,152578,2,0,B|425:143|304:224,1,165
176,192,153797,5,0
240,112,154254,2,0,B|240:304,1,165
304,240,155015,1,0
368,304,155472,2,0,B|368:112,1,165
432,176,156234,1,0
256,192,156691,12,0,158062
256,112,158671,5,2
256,112,159128,1,2
256,272,159890,1,2
256,272,160347,1,2
112,192,161108,5,2
208,192,161565,1,2
304,192,162022,1,2
304,192,162327,1,2
400,192,162784,1,2
304,192,163241,1,2
304,192,163545,1,2
256,192,164002,12,6,167200
