osu file format v5

[General]
AudioFilename: LOVE I-N-G.mp3
AudioLeadIn: 0
PreviewTime: -1
Countdown: 3
SampleSet: Normal
StackLeniency: 0.7
Mode: 0
LetterboxInBreaks: 1

[Metadata]
Title:LOVE I-N-G
Artist:Mayday
Creator:redfox19920501
Version:Insane
Source:
Tags:

[Difficulty]
HPDrainRate:7
CircleSize:6
OverallDifficulty:8
SliderMultiplier:1.5
SliderTickRate:2

[Events]
//Background and Video events
0,0,"5102345261576.jpg"
//Break Periods
2,99065,117752
//Storyboard Layer 0 (Background)
//Storyboard Layer 1 (Failing)
//Storyboard Layer 2 (Passing)
//Storyboard Layer 3 (Foreground)
//Storyboard Sound Samples
//Background Colour Transformations
3,100,163,162,255

[TimingPoints]
2693,304.653068372164,4,1,0,100,1

[HitObjects]
96,64,6958,1,0
96,128,7262,1,0
96,192,7567,2,0,B|320:160|320:32,2,300
96,288,9243,1,0
128,288,9395,1,0
160,288,9547,1,0
256,288,10004,2,0,B|448:192|192:96,2,300,4|0|4
256,352,11527,5,2
320,352,11832,5,0
384,352,12137,1,0
384,288,12441,2,0,B|288:448|224:160,2,300
384,192,14117,1,0
384,160,14269,1,0
384,128,14422,1,0
384,32,14879,2,0,B|416:288|224:32,2,300,4|0|4
320,32,16402,5,2
256,32,16707,5,8
192,32,17011,1,8
128,32,17316,1,8
0,32,17925,2,0,B|0:224|0:224|160:224,1,300
192,224,18991,1,0
224,224,19144,1,0
256,224,19296,1,0
352,224,19753,2,0,B|512:224|512:224|512:32,1,300
416,64,20972,1,0
352,64,21276,5,2
288,64,21581,5,0
224,64,21886,1,0
160,64,22190,1,0
96,128,22647,1,0
96,160,22800,1,0
96,192,22952,1,0
160,256,23409,1,0
224,320,23866,1,0
256,320,24018,1,0
288,320,24171,1,0
352,256,24628,5,2
352,192,24932,1,8
352,128,25237,1,2
288,128,25541,1,8
224,128,25846,1,2
160,128,26151,1,8
96,128,26455,1,2
96,192,26760,1,8
96,256,27065,5,2
192,256,27522,1,2
224,256,27674,1,2
256,256,27826,1,2
320,256,28131,1,2
416,256,28588,5,0
416,192,28893,1,0
416,128,29197,1,0
416,64,29502,2,0,B|320:64|320:256,1,225,0|0
256,288,30416,5,2
192,288,30721,6,0,B|168:168|128:144|88:312,1,225,0|0
0,288,31635,1,2
0,224,31939,2,2,B|224:0,2,300
64,224,33462,5,0
128,224,33767,1,0
192,224,34072,1,0
264,224,34376,2,0,B|424:224|424:224|352:224,1,225,0|4
352,128,35290,5,2
264,128,35595,6,0,B|96:128|96:128|168:128,1,225,0|4
64,56,36509,1,2
24,120,36814,5,0
96,192,37271,1,0
120,216,37423,1,0
144,240,37575,1,0
224,320,38032,1,0
288,320,38337,5,0
296,256,38642,1,0
328,200,38946,1,0
384,224,39251,2,0,B|512:320|512:320|416:352,1,225
352,352,40165,5,2
288,352,40469,6,0,B|251:154|192:352,1,225
96,352,41383,1,2
32,352,41688,2,2,B|32:288|32:288|160:288|160:192|0:192,2,300
96,352,43211,5,0
160,352,43516,1,0
224,352,43821,1,0
288,352,44125,2,0,B|382:352|382:352|288:256,1,225,0|2
288,160,45039,1,2
352,160,45344,2,0,B|446:160|446:160|352:64,1,225,0|4
464,48,46258,1,2
416,96,46563,5,0
352,160,47020,1,0
288,96,47477,1,0
248,136,47781,1,0
184,200,48238,1,0
160,96,48695,1,0
120,136,49000,1,0
256,192,49457,12,12,52652
248,200,52960,5,2
288,160,53265,5,8
328,120,53570,1,0
320,64,53874,2,8,B|64:288,1,300,8|8
0,352,55093,1,8
96,352,55550,1,0
128,320,55702,1,8
160,352,55854,1,0
256,352,56311,1,8
352,352,56768,1,0
384,320,56921,1,8
416,352,57073,1,0
512,352,57530,1,8
512,288,57835,5,2
512,224,58139,5,8
512,160,58444,1,0
512,96,58749,2,0,B|384:-32|320:288,1,300,8|8
320,352,59967,1,8
320,256,60424,1,0
352,224,60577,1,8
320,192,60729,1,0
320,96,61186,1,8
224,96,61643,1,0
192,64,61795,1,8
160,96,61948,1,0
64,96,62405,1,8
64,160,62709,5,2
128,160,63014,5,8
192,160,63318,1,0
256,160,63623,2,8,B|192:224|192:224|96:160|96:160|0:256,1,300
32,128,64842,1,8
32,32,65299,1,0
64,32,65451,1,8
64,64,65603,1,0
128,128,66060,1,8
192,192,66517,1,0
192,224,66670,1,8
224,224,66822,1,0
288,288,67279,1,8
352,288,67584,5,2
352,224,67888,5,8
416,192,68193,1,8
352,160,68498,1,8
448,128,68955,2,2,B|576:128,2,75
352,96,69716,1,8
256,64,70173,2,2,B|160:64,2,75
256,160,70935,5,2
296,208,71239,1,8
256,256,71544,1,2
216,304,71849,1,8
176,256,72153,1,2
136,208,72458,1,8
176,160,72763,1,2
216,112,73067,1,8
216,208,73372,5,2
104,176,73829,1,2
72,160,73981,1,2
56,120,74134,1,2
48,40,74438,1,2
160,32,74895,5,0
224,32,75200,1,0
288,32,75505,1,0
352,32,75809,2,0,B|444:142|352:224|307:220|256:224,1,225
224,224,76723,5,2
224,288,77028,5,0
320,288,77485,1,0
416,288,77942,1,2
352,288,78246,2,2,B|224:192|320:32|416:32,2,300
416,288,79770,5,0
416,224,80074,1,0
352,224,80379,1,0
288,224,80684,1,4
288,320,81141,1,4
192,320,81598,1,2
192,256,81902,1,4
96,256,82359,1,4
96,352,82816,1,2
160,352,83121,5,0
160,256,83578,1,0
160,224,83730,1,0
160,192,83883,1,0
160,96,84340,1,0
224,96,84644,5,0
224,160,84949,1,0
224,224,85253,1,0
224,288,85558,2,0,B|352:160|448:320,1,225
480,352,86472,5,2
480,288,86777,5,0
416,224,87234,1,0
352,160,87691,1,2
320,128,87995,2,2,B|416:0|416:0|512:160,2,300
256,160,89519,5,0
192,160,89823,1,0
128,160,90128,1,0
96,128,90433,2,4,B|320:64,1,225
384,64,91347,1,4
352,96,91651,2,4,B|128:160,1,225
64,160,92565,1,4
128,192,92870,6,2,B|384:192,1,225
448,192,93784,1,8
384,192,94088,2,2,B|128:192,1,225
64,192,95002,1,8
0,192,95307,1,2
96,192,95764,6,2,B|8:112|8:112|119:111|119:111|165:-4|165:-4|220:114|220:114|328:113|328:113|244:212|244:212|296:321|296:321|165:241|165:241|40:316|40:316|128:128,1,1275,2|6
160,192,98658,1,4
224,192,98963,1,4
256,32,119070,5,0
256,96,119375,1,0
256,160,119679,5,8
280,184,119832,1,0
304,208,119984,5,0
280,232,120136,1,0
256,256,120289,5,8
232,232,120441,1,0
208,208,120593,5,0
184,184,120746,1,0
160,160,120898,5,8
184,136,121050,1,0
208,112,121203,5,0
232,88,121355,1,0
256,64,121507,5,8
280,88,121660,1,0
304,112,121812,5,0
328,136,121964,1,0
352,160,122117,5,8
376,184,122269,1,0
352,208,122421,5,0
328,232,122573,1,0
304,256,122726,5,8
240,272,123030,5,8
176,272,123335,1,10
16,264,123944,5,8
48,208,124249,1,0
80,152,124554,1,8
192,136,125011,1,0
192,176,125163,1,8
192,216,125315,1,0
296,184,125772,1,8
280,72,126229,1,0
240,72,126382,1,8
200,72,126534,1,0
176,184,126991,5,8
176,264,127296,1,2
176,184,127600,1,8
96,184,127905,1,2
176,184,128210,1,8
176,104,128514,1,2
176,184,128819,1,8
256,184,129124,1,2
176,184,129428,5,8
176,264,129733,1,2
176,184,130037,1,8
96,184,130342,1,2
176,184,130647,1,8
176,104,130951,1,2
176,184,131256,1,8
256,184,131561,1,2
176,184,131865,5,8
176,264,132170,1,2
176,184,132475,1,8
96,184,132779,1,2
176,184,133084,1,8
176,104,133389,1,2
176,184,133693,1,8
256,184,133998,1,2
320,192,134303,5,10
384,160,134760,1,2
416,128,134912,1,10
384,96,135064,1,2
320,64,135369,1,14
224,64,135826,5,0
160,64,136131,1,8
96,64,136435,1,0
96,128,136740,2,8,B|288:64|288:160,1,225,8|0
384,160,137654,5,10
320,192,137958,6,0,B|128:256|128:160,1,225
192,96,138872,1,10
192,160,139177,2,2,B|32:384|320:256,2,300,10|10|10
184,88,140700,5,0
224,128,141005,1,8
264,168,141310,1,0
256,224,141614,2,0,B|320:352|320:352|384:256,1,225,8|0
416,224,142528,1,8
480,224,142833,2,0,B|416:352|416:352|352:256,1,225,8|0
320,224,143747,1,8
320,160,144052,5,8
288,96,144509,1,0
256,128,144661,1,8
224,160,144813,1,0
160,96,145270,1,8
96,128,145575,5,0
96,64,145879,1,8
160,64,146184,1,0
224,64,146489,2,8,B|160:224|32:224,1,225
64,288,147403,5,10
128,288,147707,6,8,B|160:320|192:256|224:192|352:256,1,225
320,320,148621,1,10
352,352,148926,2,8,B|416:288|416:288|320:192|320:192|256:256,2,300
288,352,150449,5,0
256,288,150754,1,8
288,224,151059,1,0
224,192,151363,2,0,B|96:256|224:384,1,225,8|0
128,352,152277,1,10
64,352,152582,2,0,B|192:288|64:160,1,225,8|0
160,192,153496,1,10
192,160,153800,5,8
256,96,154257,2,0,B|256:352,1,225
320,288,155019,1,8
384,320,155476,2,0,B|384:64,1,225
448,128,156238,1,8
256,192,156695,12,0,158066
128,192,158675,5,2
224,192,159132,1,10
320,192,159589,1,2
384,192,159893,1,2
288,192,160350,1,10
192,192,160807,1,2
128,192,161112,5,2
192,128,161569,1,2
256,192,162026,1,2
320,192,162331,1,2
256,256,162788,1,2
192,192,163245,1,2
256,192,163549,12,6,167203
