osu file format v12

[General]
AudioFilename: Maybeshewill - he films clouds pt2.mp3
AudioLeadIn: 0
PreviewTime: -1
Countdown: 0
SampleSet: Soft
StackLeniency: 0.7
Mode: 3
LetterboxInBreaks: 0
SpecialStyle: 0
WidescreenStoryboard: 0

[Editor]
Bookmarks: 194778
DistanceSpacing: 0.9
BeatDivisor: 1
GridSize: 16

[Metadata]
Title:He Films the Clouds, Part Two
TitleUnicode:He Films the Clouds, Part Two
Artist:Maybeshewill
ArtistUnicode:Maybeshewill
Creator:Ichibi No Kitsune
Version:Medium - 6 Keys
Source:
Tags:
BeatmapID:228941
BeatmapSetID:82725

[Difficulty]
HPDrainRate:6
CircleSize:6
OverallDifficulty:7
ApproachRate:5
SliderMultiplier:1.4
SliderTickRate:1

[Events]
//Background and Video events
0,0,"strong.png",0,0
//Break Periods
//Storyboard Layer 0 (Background)
//Storyboard Layer 1 (Fail)
//Storyboard Layer 2 (Pass)
//Storyboard Layer 3 (Foreground)
//Storyboard Sound Samples
//Background Colour Transformations
3,100,163,162,255

[TimingPoints]
22883,375,4,2,0,0,1,0

[HitObjects]
469,192,12008,1,0,0:0:0:0:
384,192,12383,1,0,0:0:0:0:
469,192,12758,1,0,0:0:0:0:
384,192,13133,1,0,0:0:0:0:
469,192,13508,1,0,0:0:0:0:
384,192,13883,1,0,0:0:0:0:
469,192,14258,1,0,0:0:0:0:
384,192,14633,1,0,0:0:0:0:
469,192,15008,1,0,0:0:0:0:
384,192,15383,1,0,0:0:0:0:
469,192,15758,1,0,0:0:0:0:
384,192,16133,1,0,0:0:0:0:
469,192,16508,1,0,0:0:0:0:
384,192,16883,1,0,0:0:0:0:
469,192,17258,1,0,0:0:0:0:
384,192,17633,1,0,0:0:0:0:
469,192,18008,1,0,0:0:0:0:
384,192,18383,1,0,0:0:0:0:
469,192,18758,1,0,0:0:0:0:
384,192,19133,1,0,0:0:0:0:
469,192,19508,1,0,0:0:0:0:
384,192,19883,1,0,0:0:0:0:
469,192,20258,1,0,0:0:0:0:
384,192,20633,1,0,0:0:0:0:
469,192,21008,1,0,0:0:0:0:
384,192,21383,1,0,0:0:0:0:
469,192,21758,1,0,0:0:0:0:
384,192,22133,1,0,0:0:0:0:
469,192,22508,1,0,0:0:0:0:
384,192,22883,1,0,0:0:0:0:
469,192,23258,1,0,0:0:0:0:
384,192,23633,1,0,0:0:0:0:
213,192,24008,128,0,25508:0:0:0:0:
128,192,24008,128,0,25508:0:0:0:0:
298,192,27008,128,0,28508:0:0:0:0:
384,192,27008,128,0,28508:0:0:0:0:
42,192,30008,128,0,31883:0:0:0:0:
298,192,30008,128,0,31883:0:0:0:0:
213,192,30008,128,0,31883:0:0:0:0:
42,192,36008,128,0,37508:0:0:0:0:
128,192,36008,128,0,37508:0:0:0:0:
384,192,39008,128,0,40508:0:0:0:0:
469,192,39008,128,0,40508:0:0:0:0:
128,192,42008,128,0,44258:0:0:0:0:
213,192,42008,128,0,44258:0:0:0:0:
384,192,42008,128,0,44258:0:0:0:0:
384,192,45008,1,0,0:0:0:0:
384,192,45383,1,0,0:0:0:0:
384,192,45758,1,0,0:0:0:0:
42,192,46508,1,0,0:0:0:0:
42,192,46883,1,0,0:0:0:0:
42,192,47258,1,0,0:0:0:0:
42,192,48008,1,0,0:0:0:0:
384,192,48383,1,0,0:0:0:0:
213,192,48758,1,0,0:0:0:0:
298,192,50258,1,0,0:0:0:0:
384,192,50258,1,0,0:0:0:0:
128,192,51008,1,0,0:0:0:0:
469,192,51383,1,0,0:0:0:0:
298,192,51758,1,0,0:0:0:0:
298,192,52508,1,0,0:0:0:0:
42,192,52883,1,0,0:0:0:0:
469,192,53258,1,0,0:0:0:0:
213,192,54008,1,0,0:0:0:0:
298,192,54008,1,0,0:0:0:0:
42,192,55508,1,0,0:0:0:0:
384,192,55883,1,0,0:0:0:0:
128,192,56258,1,0,0:0:0:0:
298,192,56633,1,0,0:0:0:0:
213,192,57008,1,0,0:0:0:0:
384,192,57383,1,0,0:0:0:0:
42,192,57758,1,0,0:0:0:0:
298,192,58133,1,0,0:0:0:0:
128,192,58508,1,0,0:0:0:0:
469,192,58883,1,0,0:0:0:0:
213,192,59258,1,0,0:0:0:0:
384,192,59633,1,0,0:0:0:0:
298,192,60008,1,0,0:0:0:0:
213,192,60008,1,0,0:0:0:0:
384,192,60758,1,0,0:0:0:0:
298,192,61508,1,0,0:0:0:0:
42,192,61883,1,0,0:0:0:0:
469,192,62258,1,0,0:0:0:0:
298,192,63008,1,0,0:0:0:0:
42,192,63758,1,0,0:0:0:0:
384,192,64508,1,0,0:0:0:0:
213,192,64883,1,0,0:0:0:0:
42,192,65258,1,0,0:0:0:0:
213,192,66008,1,0,0:0:0:0:
128,192,66008,1,0,0:0:0:0:
128,192,66383,1,0,0:0:0:0:
469,192,66758,1,0,0:0:0:0:
213,192,67133,1,0,0:0:0:0:
469,192,67508,1,0,0:0:0:0:
298,192,67883,1,0,0:0:0:0:
469,192,68258,1,0,0:0:0:0:
298,192,68633,1,0,0:0:0:0:
469,192,69008,1,0,0:0:0:0:
298,192,69383,1,0,0:0:0:0:
469,192,69758,1,0,0:0:0:0:
298,192,70133,1,0,0:0:0:0:
469,192,70508,1,0,0:0:0:0:
298,192,70883,1,0,0:0:0:0:
42,192,71258,1,0,0:0:0:0:
128,192,71258,1,0,0:0:0:0:
384,192,72008,128,0,74258:0:0:0:0:
298,192,72008,128,0,74258:0:0:0:0:
384,192,75008,128,0,77258:0:0:0:0:
469,192,75008,128,0,77258:0:0:0:0:
384,192,78008,128,0,80633:0:0:0:0:
469,192,78008,128,0,80633:0:0:0:0:
213,192,78008,128,0,80633:0:0:0:0:
42,192,81008,1,0,0:0:0:0:
42,192,81383,1,0,0:0:0:0:
42,192,81758,1,0,0:0:0:0:
384,192,82508,1,0,0:0:0:0:
128,192,82883,1,0,0:0:0:0:
298,192,83258,1,0,0:0:0:0:
384,192,83633,1,0,0:0:0:0:
213,192,84008,1,0,0:0:0:0:
128,192,84008,1,0,0:0:0:0:
42,192,84383,1,0,0:0:0:0:
298,192,84758,1,0,0:0:0:0:
469,192,85133,1,0,0:0:0:0:
128,192,85508,1,0,0:0:0:0:
469,192,85883,1,0,0:0:0:0:
298,192,86258,1,0,0:0:0:0:
128,192,86633,1,0,0:0:0:0:
298,192,87008,1,0,0:0:0:0:
42,192,87383,1,0,0:0:0:0:
213,192,87758,1,0,0:0:0:0:
384,192,88133,1,0,0:0:0:0:
128,192,88508,1,0,0:0:0:0:
298,192,88883,1,0,0:0:0:0:
42,192,89258,1,0,0:0:0:0:
213,192,90008,1,0,0:0:0:0:
469,192,90383,1,0,0:0:0:0:
384,192,90758,1,0,0:0:0:0:
469,192,91508,1,0,0:0:0:0:
298,192,91883,1,0,0:0:0:0:
42,192,92258,1,0,0:0:0:0:
213,192,93008,1,0,0:0:0:0:
128,192,93383,1,0,0:0:0:0:
384,192,93758,1,0,0:0:0:0:
213,192,94133,1,0,0:0:0:0:
469,192,94508,1,0,0:0:0:0:
42,192,94883,1,0,0:0:0:0:
298,192,95258,1,0,0:0:0:0:
469,192,95633,1,0,0:0:0:0:
42,192,96008,128,0,97508:0:0:0:0:
213,192,96008,1,0,0:0:0:0:
128,192,96008,128,0,97508:0:0:0:0:
298,192,97508,1,0,0:0:0:0:
42,192,97883,1,0,0:0:0:0:
213,192,98258,1,0,0:0:0:0:
128,192,98633,1,0,0:0:0:0:
213,192,99008,128,0,100508:0:0:0:0:
298,192,99008,1,0,0:0:0:0:
128,192,99008,128,0,100508:0:0:0:0:
298,192,100883,1,0,0:0:0:0:
469,192,101258,1,0,0:0:0:0:
42,192,101633,1,0,0:0:0:0:
128,192,102008,128,0,104258:0:0:0:0:
213,192,102008,128,0,104258:0:0:0:0:
384,192,102008,128,0,104258:0:0:0:0:
213,192,104633,1,0,0:0:0:0:
469,192,105008,1,0,0:0:0:0:
128,192,105383,1,0,0:0:0:0:
298,192,105758,1,0,0:0:0:0:
42,192,106133,1,0,0:0:0:0:
213,192,106508,1,0,0:0:0:0:
128,192,106883,1,0,0:0:0:0:
384,192,107258,1,0,0:0:0:0:
469,192,107633,1,0,0:0:0:0:
213,192,108008,1,0,0:0:0:0:
128,192,108008,128,0,109883:0:0:0:0:
42,192,108008,128,0,109883:0:0:0:0:
213,192,108383,1,0,0:0:0:0:
213,192,108758,1,0,0:0:0:0:
213,192,109133,1,0,0:0:0:0:
213,192,109508,1,0,0:0:0:0:
213,192,109883,1,0,0:0:0:0:
42,192,110258,1,0,0:0:0:0:
384,192,110633,1,0,0:0:0:0:
298,192,111008,1,0,0:0:0:0:
213,192,111008,128,0,112508:0:0:0:0:
128,192,111008,128,0,112508:0:0:0:0:
298,192,111383,1,0,0:0:0:0:
298,192,111758,1,0,0:0:0:0:
298,192,112133,1,0,0:0:0:0:
298,192,112508,1,0,0:0:0:0:
298,192,112883,1,0,0:0:0:0:
384,192,113258,1,0,0:0:0:0:
128,192,113633,1,0,0:0:0:0:
128,192,114008,128,0,116258:0:0:0:0:
298,192,114008,128,0,116258:0:0:0:0:
469,192,114008,1,0,0:0:0:0:
384,192,114008,128,0,116258:0:0:0:0:
42,192,114383,1,0,0:0:0:0:
469,192,114758,1,0,0:0:0:0:
42,192,115133,1,0,0:0:0:0:
469,192,115508,1,0,0:0:0:0:
42,192,115883,1,0,0:0:0:0:
469,192,116258,1,0,0:0:0:0:
128,192,116633,1,0,0:0:0:0:
213,192,117008,1,0,0:0:0:0:
384,192,117383,1,0,0:0:0:0:
298,192,117758,1,0,0:0:0:0:
384,192,118133,1,0,0:0:0:0:
213,192,118508,1,0,0:0:0:0:
298,192,118883,1,0,0:0:0:0:
128,192,119258,1,0,0:0:0:0:
384,192,119633,1,0,0:0:0:0:
42,192,120008,1,0,0:0:0:0:
213,192,120008,128,0,121508:0:0:0:0:
298,192,120008,128,0,121508:0:0:0:0:
42,192,120383,1,0,0:0:0:0:
42,192,120758,1,0,0:0:0:0:
42,192,121133,1,0,0:0:0:0:
42,192,121508,1,0,0:0:0:0:
298,192,121883,1,0,0:0:0:0:
42,192,122258,1,0,0:0:0:0:
469,192,122633,1,0,0:0:0:0:
213,192,123008,128,0,124508:0:0:0:0:
384,192,123008,1,0,0:0:0:0:
128,192,123008,128,0,124508:0:0:0:0:
384,192,123383,1,0,0:0:0:0:
384,192,123758,1,0,0:0:0:0:
384,192,124133,1,0,0:0:0:0:
384,192,124508,1,0,0:0:0:0:
128,192,124883,1,0,0:0:0:0:
298,192,125258,1,0,0:0:0:0:
469,192,125633,1,0,0:0:0:0:
384,192,126008,128,0,128258:0:0:0:0:
213,192,126008,128,0,128258:0:0:0:0:
42,192,126008,1,0,0:0:0:0:
128,192,126008,128,0,128258:0:0:0:0:
469,192,126383,1,0,0:0:0:0:
42,192,126758,1,0,0:0:0:0:
469,192,127133,1,0,0:0:0:0:
42,192,127508,1,0,0:0:0:0:
469,192,127883,1,0,0:0:0:0:
42,192,128258,1,0,0:0:0:0:
384,192,128633,128,0,129008:0:0:0:0:
469,192,129008,128,0,129383:0:0:0:0:
384,192,129383,128,0,129758:0:0:0:0:
469,192,129758,128,0,130133:0:0:0:0:
384,192,130133,128,0,130508:0:0:0:0:
469,192,130508,128,0,130883:0:0:0:0:
384,192,130883,128,0,131258:0:0:0:0:
469,192,131258,128,0,131633:0:0:0:0:
384,192,131633,128,0,132008:0:0:0:0:
298,192,132008,128,0,133508:0:0:0:0:
213,192,132008,128,0,133508:0:0:0:0:
42,192,133508,128,0,133883:0:0:0:0:
128,192,133883,128,0,134258:0:0:0:0:
469,192,134258,128,0,134633:0:0:0:0:
384,192,134633,128,0,135008:0:0:0:0:
213,192,135008,128,0,136508:0:0:0:0:
298,192,135008,128,0,136508:0:0:0:0:
469,192,136508,128,0,136883:0:0:0:0:
42,192,136508,128,0,136883:0:0:0:0:
213,192,136883,128,0,137258:0:0:0:0:
298,192,136883,128,0,137258:0:0:0:0:
128,192,138008,128,0,140633:0:0:0:0:
384,192,138008,128,0,140633:0:0:0:0:
469,192,138008,128,0,138383:0:0:0:0:
42,192,138008,128,0,138383:0:0:0:0:
42,192,141008,128,0,141383:0:0:0:0:
128,192,141383,128,0,141758:0:0:0:0:
213,192,141758,128,0,142133:0:0:0:0:
298,192,142133,128,0,142508:0:0:0:0:
384,192,142508,128,0,142883:0:0:0:0:
298,192,142883,128,0,143258:0:0:0:0:
213,192,143258,128,0,143633:0:0:0:0:
128,192,143633,128,0,144008:0:0:0:0:
298,192,144008,128,0,145883:0:0:0:0:
213,192,144008,128,0,144383:0:0:0:0:
42,192,144383,128,0,144758:0:0:0:0:
213,192,144758,128,0,145133:0:0:0:0:
42,192,145133,128,0,145508:0:0:0:0:
213,192,145508,128,0,145883:0:0:0:0:
384,192,145883,128,0,146258:0:0:0:0:
469,192,146258,128,0,146633:0:0:0:0:
298,192,146633,128,0,147008:0:0:0:0:
213,192,147008,128,0,148883:0:0:0:0:
469,192,147008,128,0,147383:0:0:0:0:
298,192,147383,128,0,147758:0:0:0:0:
469,192,147758,128,0,148133:0:0:0:0:
298,192,148133,128,0,148508:0:0:0:0:
469,192,148508,128,0,148883:0:0:0:0:
298,192,148883,128,0,149258:0:0:0:0:
213,192,150008,128,0,152258:0:0:0:0:
298,192,150008,128,0,152258:0:0:0:0:
128,192,152633,1,0,0:0:0:0:
469,192,153008,1,0,0:0:0:0:
298,192,153383,1,0,0:0:0:0:
384,192,153383,1,0,0:0:0:0:
213,192,153758,1,0,0:0:0:0:
42,192,154133,1,0,0:0:0:0:
128,192,154508,1,0,0:0:0:0:
213,192,154883,1,0,0:0:0:0:
298,192,154883,1,0,0:0:0:0:
469,192,155258,1,0,0:0:0:0:
128,192,155633,1,0,0:0:0:0:
128,192,156008,128,0,157508:0:0:0:0:
42,192,156008,128,0,157508:0:0:0:0:
298,192,157508,128,0,158633:0:0:0:0:
384,192,157508,128,0,158633:0:0:0:0:
298,192,159008,128,0,160508:0:0:0:0:
42,192,159008,128,0,160508:0:0:0:0:
384,192,160508,128,0,161633:0:0:0:0:
213,192,160508,128,0,161633:0:0:0:0:
128,192,162008,128,0,164258:0:0:0:0:
298,192,162008,128,0,164258:0:0:0:0:
384,192,164633,1,0,0:0:0:0:
213,192,165008,1,0,0:0:0:0:
42,192,165383,1,0,0:0:0:0:
128,192,165383,1,0,0:0:0:0:
298,192,165758,1,0,0:0:0:0:
128,192,166133,1,0,0:0:0:0:
384,192,166508,1,0,0:0:0:0:
384,192,166883,5,0,0:0:0:0:
469,192,166883,1,0,0:0:0:0:
298,192,167258,1,0,0:0:0:0:
213,192,167633,1,0,0:0:0:0:
469,192,168008,128,0,179258:0:0:0:0:
42,192,168008,128,0,179258:0:0:0:0:
128,192,168008,128,0,179258:0:0:0:0:
384,192,168008,128,0,179258:0:0:0:0:
384,192,180008,128,0,191258:0:0:0:0:
128,192,180008,128,0,191258:0:0:0:0:
213,192,180008,128,0,191258:0:0:0:0:
298,192,180008,128,0,191258:0:0:0:0:
298,192,192008,128,0,194633:0:0:0:0:
213,192,192008,128,0,194633:0:0:0:0:
469,192,195008,1,0,0:0:0:0:
384,192,195383,1,0,0:0:0:0:
298,192,195758,1,0,0:0:0:0:
213,192,196133,1,0,0:0:0:0:
128,192,196508,1,0,0:0:0:0:
42,192,196883,1,0,0:0:0:0:
128,192,197258,1,0,0:0:0:0:
213,192,197633,1,0,0:0:0:0:
298,192,198008,1,0,0:0:0:0:
384,192,198383,1,0,0:0:0:0:
469,192,198758,1,0,0:0:0:0:
384,192,199133,1,0,0:0:0:0:
298,192,199508,1,0,0:0:0:0:
384,192,199883,1,0,0:0:0:0:
469,192,200258,1,0,0:0:0:0:
298,192,200633,1,0,0:0:0:0:
128,192,201008,1,0,0:0:0:0:
384,192,201383,1,0,0:0:0:0:
42,192,201758,1,0,0:0:0:0:
213,192,202133,1,0,0:0:0:0:
128,192,202508,1,0,0:0:0:0:
298,192,202883,1,0,0:0:0:0:
213,192,203258,1,0,0:0:0:0:
384,192,203633,1,0,0:0:0:0:
128,192,204008,1,0,0:0:0:0:
298,192,204383,1,0,0:0:0:0:
213,192,204758,1,0,0:0:0:0:
128,192,205133,1,0,0:0:0:0:
42,192,205508,1,0,0:0:0:0:
128,192,205883,1,0,0:0:0:0:
213,192,206258,1,0,0:0:0:0:
298,192,206633,1,0,0:0:0:0:
384,192,207008,1,0,0:0:0:0:
128,192,207383,1,0,0:0:0:0:
384,192,207758,1,0,0:0:0:0:
128,192,208133,1,0,0:0:0:0:
298,192,208508,1,0,0:0:0:0:
42,192,208883,1,0,0:0:0:0:
213,192,209258,1,0,0:0:0:0:
128,192,209633,1,0,0:0:0:0:
384,192,210008,1,0,0:0:0:0:
298,192,210383,1,0,0:0:0:0:
42,192,210758,1,0,0:0:0:0:
213,192,211133,1,0,0:0:0:0:
384,192,211508,1,0,0:0:0:0:
298,192,211883,1,0,0:0:0:0:
469,192,212258,1,0,0:0:0:0:
128,192,212633,1,0,0:0:0:0:
213,192,213008,1,0,0:0:0:0:
298,192,213383,1,0,0:0:0:0:
384,192,213758,1,0,0:0:0:0:
469,192,214133,1,0,0:0:0:0:
384,192,214508,1,0,0:0:0:0:
298,192,214883,1,0,0:0:0:0:
213,192,215258,1,0,0:0:0:0:
128,192,215633,1,0,0:0:0:0:
213,192,216008,1,0,0:0:0:0:
298,192,216383,1,0,0:0:0:0:
384,192,216758,1,0,0:0:0:0:
469,192,217133,1,0,0:0:0:0:
384,192,217508,1,0,0:0:0:0:
298,192,217883,1,0,0:0:0:0:
213,192,218258,1,0,0:0:0:0:
128,192,218633,1,0,0:0:0:0:
42,192,219008,1,0,0:0:0:0:
