osu file format v12

[General]
AudioFilename: Maybeshewill - he films clouds pt2.mp3
AudioLeadIn: 0
PreviewTime: -1
Countdown: 0
SampleSet: Soft
StackLeniency: 0.7
Mode: 3
LetterboxInBreaks: 0
SpecialStyle: 0
WidescreenStoryboard: 0

[Editor]
Bookmarks: 180348
DistanceSpacing: 0.9
BeatDivisor: 2
GridSize: 16

[Metadata]
Title:He Films the Clouds, Part Two
TitleUnicode:He Films the Clouds, Part Two
Artist:Maybeshewill
ArtistUnicode:Maybeshewill
Creator:Ichibi No Kitsune
Version:Hard - 6 Keys
Source:
Tags:
BeatmapID:228942
BeatmapSetID:82725

[Difficulty]
HPDrainRate:7
CircleSize:6
OverallDifficulty:7
ApproachRate:5
SliderMultiplier:1.4
SliderTickRate:1

[Events]
//Background and Video events
0,0,"strong.png",0,0
//Break Periods
//Storyboard Layer 0 (Background)
//Storyboard Layer 1 (Fail)
//Storyboard Layer 2 (Pass)
//Storyboard Layer 3 (Foreground)
//Storyboard Sound Samples
//Background Colour Transformations
3,100,163,162,255

[TimingPoints]
22883,375,4,2,0,0,1,0

[HitObjects]
469,192,12008,1,0,0:0:0:0:
42,192,12008,128,0,13133:0:0:0:0:
384,192,12383,1,0,0:0:0:0:
469,192,12758,1,0,0:0:0:0:
384,192,13133,1,0,0:0:0:0:
469,192,13508,1,0,0:0:0:0:
384,192,13883,1,0,0:0:0:0:
469,192,14258,1,0,0:0:0:0:
384,192,14633,1,0,0:0:0:0:
469,192,15008,1,0,0:0:0:0:
128,192,15008,128,0,16133:0:0:0:0:
384,192,15383,1,0,0:0:0:0:
469,192,15758,1,0,0:0:0:0:
384,192,16133,1,0,0:0:0:0:
469,192,16508,1,0,0:0:0:0:
384,192,16883,1,0,0:0:0:0:
469,192,17258,1,0,0:0:0:0:
384,192,17633,1,0,0:0:0:0:
469,192,18008,1,0,0:0:0:0:
213,192,18008,128,0,19133:0:0:0:0:
384,192,18383,1,0,0:0:0:0:
469,192,18758,1,0,0:0:0:0:
384,192,19133,1,0,0:0:0:0:
469,192,19508,1,0,0:0:0:0:
384,192,19883,1,0,0:0:0:0:
469,192,20258,1,0,0:0:0:0:
384,192,20633,1,0,0:0:0:0:
469,192,21008,1,0,0:0:0:0:
42,192,21008,128,0,22133:0:0:0:0:
128,192,21008,128,0,22133:0:0:0:0:
384,192,21383,1,0,0:0:0:0:
469,192,21758,1,0,0:0:0:0:
384,192,22133,1,0,0:0:0:0:
469,192,22508,1,0,0:0:0:0:
384,192,22883,1,0,0:0:0:0:
469,192,23258,1,0,0:0:0:0:
384,192,23633,1,0,0:0:0:0:
42,192,24008,128,0,26633:0:0:0:0:
213,192,25508,128,0,26633:0:0:0:0:
298,192,27008,128,0,29633:0:0:0:0:
384,192,28508,128,0,29633:0:0:0:0:
469,192,30008,128,0,31883:0:0:0:0:
42,192,30008,128,0,31883:0:0:0:0:
42,192,36008,128,0,38633:0:0:0:0:
469,192,37508,128,0,38633:0:0:0:0:
298,192,39008,128,0,41633:0:0:0:0:
384,192,40508,128,0,41633:0:0:0:0:
384,192,42008,128,0,44258:0:0:0:0:
213,192,42008,128,0,44258:0:0:0:0:
42,192,45008,1,0,0:0:0:0:
213,192,45383,1,0,0:0:0:0:
128,192,45758,1,0,0:0:0:0:
384,192,46508,1,0,0:0:0:0:
213,192,46883,1,0,0:0:0:0:
298,192,47258,1,0,0:0:0:0:
298,192,48008,1,0,0:0:0:0:
213,192,48008,1,0,0:0:0:0:
469,192,48383,1,0,0:0:0:0:
42,192,48758,1,0,0:0:0:0:
42,192,50258,1,0,0:0:0:0:
298,192,51008,1,0,0:0:0:0:
213,192,51008,1,0,0:0:0:0:
469,192,51383,1,0,0:0:0:0:
298,192,51758,1,0,0:0:0:0:
128,192,52508,1,0,0:0:0:0:
298,192,52883,1,0,0:0:0:0:
384,192,53258,1,0,0:0:0:0:
213,192,54008,1,0,0:0:0:0:
128,192,54008,1,0,0:0:0:0:
384,192,55508,1,0,0:0:0:0:
128,192,55883,1,0,0:0:0:0:
469,192,56258,1,0,0:0:0:0:
42,192,56633,1,0,0:0:0:0:
298,192,57008,1,0,0:0:0:0:
128,192,57383,1,0,0:0:0:0:
384,192,57758,1,0,0:0:0:0:
213,192,58133,1,0,0:0:0:0:
384,192,58508,1,0,0:0:0:0:
128,192,58883,1,0,0:0:0:0:
298,192,59258,1,0,0:0:0:0:
469,192,59633,1,0,0:0:0:0:
42,192,60008,128,0,61133:0:0:0:0:
128,192,60008,128,0,61133:0:0:0:0:
384,192,60758,1,0,0:0:0:0:
42,192,61508,1,0,0:0:0:0:
128,192,61508,128,0,62633:0:0:0:0:
213,192,61883,1,0,0:0:0:0:
384,192,62258,1,0,0:0:0:0:
469,192,63008,1,0,0:0:0:0:
384,192,63008,1,0,0:0:0:0:
128,192,63008,128,0,64133:0:0:0:0:
42,192,63008,128,0,64133:0:0:0:0:
469,192,63758,1,0,0:0:0:0:
128,192,64508,1,0,0:0:0:0:
213,192,64508,128,0,65633:0:0:0:0:
298,192,64883,1,0,0:0:0:0:
469,192,65258,1,0,0:0:0:0:
298,192,66008,1,0,0:0:0:0:
128,192,66008,1,0,0:0:0:0:
469,192,66008,128,0,67508:0:0:0:0:
213,192,66383,1,0,0:0:0:0:
42,192,66758,1,0,0:0:0:0:
213,192,67133,1,0,0:0:0:0:
384,192,67508,1,0,0:0:0:0:
384,192,67883,1,0,0:0:0:0:
469,192,68258,1,0,0:0:0:0:
298,192,68633,1,0,0:0:0:0:
469,192,69008,1,0,0:0:0:0:
298,192,69383,1,0,0:0:0:0:
469,192,69758,1,0,0:0:0:0:
298,192,70133,1,0,0:0:0:0:
469,192,70508,1,0,0:0:0:0:
298,192,70883,1,0,0:0:0:0:
469,192,71258,1,0,0:0:0:0:
42,192,71258,1,0,0:0:0:0:
469,192,72008,128,0,74633:0:0:0:0:
42,192,72008,128,0,74633:0:0:0:0:
298,192,73508,128,0,74633:0:0:0:0:
213,192,73508,128,0,74633:0:0:0:0:
469,192,75008,128,0,77633:0:0:0:0:
42,192,75008,128,0,77633:0:0:0:0:
384,192,76508,128,0,77633:0:0:0:0:
128,192,76508,128,0,77633:0:0:0:0:
298,192,78008,128,0,80633:0:0:0:0:
213,192,78008,128,0,80633:0:0:0:0:
469,192,81008,1,0,0:0:0:0:
469,192,81383,1,0,0:0:0:0:
469,192,81758,1,0,0:0:0:0:
298,192,82508,1,0,0:0:0:0:
298,192,82883,1,0,0:0:0:0:
298,192,83258,1,0,0:0:0:0:
298,192,83633,1,0,0:0:0:0:
213,192,84008,1,0,0:0:0:0:
128,192,84008,1,0,0:0:0:0:
298,192,84383,1,0,0:0:0:0:
42,192,84758,1,0,0:0:0:0:
42,192,85133,1,0,0:0:0:0:
298,192,85508,1,0,0:0:0:0:
469,192,85883,1,0,0:0:0:0:
298,192,86258,1,0,0:0:0:0:
469,192,86633,1,0,0:0:0:0:
298,192,87008,1,0,0:0:0:0:
384,192,87008,1,0,0:0:0:0:
469,192,87383,1,0,0:0:0:0:
298,192,87758,1,0,0:0:0:0:
42,192,88133,1,0,0:0:0:0:
384,192,88508,1,0,0:0:0:0:
213,192,88883,1,0,0:0:0:0:
298,192,89258,1,0,0:0:0:0:
298,192,90008,1,0,0:0:0:0:
128,192,90008,1,0,0:0:0:0:
469,192,90383,1,0,0:0:0:0:
469,192,90758,1,0,0:0:0:0:
469,192,91508,1,0,0:0:0:0:
213,192,91883,1,0,0:0:0:0:
384,192,92258,1,0,0:0:0:0:
384,192,93008,1,0,0:0:0:0:
469,192,93383,1,0,0:0:0:0:
128,192,93758,1,0,0:0:0:0:
128,192,94133,1,0,0:0:0:0:
469,192,94508,1,0,0:0:0:0:
298,192,94883,1,0,0:0:0:0:
469,192,95258,1,0,0:0:0:0:
298,192,95633,1,0,0:0:0:0:
213,192,96008,128,0,98633:0:0:0:0:
298,192,96008,1,0,0:0:0:0:
128,192,96008,1,0,0:0:0:0:
128,192,97508,128,0,98633:0:0:0:0:
298,192,97508,1,0,0:0:0:0:
469,192,97883,1,0,0:0:0:0:
298,192,98258,1,0,0:0:0:0:
469,192,98633,1,0,0:0:0:0:
298,192,99008,1,0,0:0:0:0:
213,192,99008,128,0,101633:0:0:0:0:
128,192,99008,1,0,0:0:0:0:
128,192,100508,128,0,101633:0:0:0:0:
298,192,100883,1,0,0:0:0:0:
469,192,101258,1,0,0:0:0:0:
298,192,101633,1,0,0:0:0:0:
298,192,102008,128,0,104258:0:0:0:0:
213,192,102008,128,0,104258:0:0:0:0:
298,192,104633,1,0,0:0:0:0:
469,192,105008,1,0,0:0:0:0:
298,192,105383,1,0,0:0:0:0:
469,192,105758,1,0,0:0:0:0:
298,192,106133,1,0,0:0:0:0:
469,192,106508,1,0,0:0:0:0:
298,192,106883,1,0,0:0:0:0:
469,192,107258,1,0,0:0:0:0:
298,192,107633,1,0,0:0:0:0:
213,192,108008,1,0,0:0:0:0:
298,192,108008,128,0,110633:0:0:0:0:
213,192,108383,1,0,0:0:0:0:
213,192,108758,1,0,0:0:0:0:
213,192,109133,1,0,0:0:0:0:
213,192,109508,1,0,0:0:0:0:
128,192,109508,128,0,110633:0:0:0:0:
213,192,109883,1,0,0:0:0:0:
213,192,110258,1,0,0:0:0:0:
213,192,110633,1,0,0:0:0:0:
298,192,111008,1,0,0:0:0:0:
469,192,111008,128,0,113633:0:0:0:0:
298,192,111383,1,0,0:0:0:0:
298,192,111758,1,0,0:0:0:0:
298,192,112133,1,0,0:0:0:0:
128,192,112508,128,0,113633:0:0:0:0:
213,192,112508,128,0,113633:0:0:0:0:
298,192,112508,1,0,0:0:0:0:
42,192,112883,1,0,0:0:0:0:
42,192,113258,1,0,0:0:0:0:
42,192,113633,1,0,0:0:0:0:
469,192,114008,1,0,0:0:0:0:
213,192,114008,128,0,116258:0:0:0:0:
298,192,114008,128,0,116258:0:0:0:0:
42,192,114383,1,0,0:0:0:0:
469,192,114758,1,0,0:0:0:0:
42,192,115133,1,0,0:0:0:0:
469,192,115508,1,0,0:0:0:0:
42,192,115883,1,0,0:0:0:0:
469,192,116258,1,0,0:0:0:0:
128,192,116633,1,0,0:0:0:0:
384,192,117008,1,0,0:0:0:0:
213,192,117383,1,0,0:0:0:0:
42,192,117758,1,0,0:0:0:0:
298,192,118133,1,0,0:0:0:0:
128,192,118508,1,0,0:0:0:0:
384,192,118883,1,0,0:0:0:0:
469,192,119258,1,0,0:0:0:0:
213,192,119633,1,0,0:0:0:0:
298,192,120008,1,0,0:0:0:0:
469,192,120008,128,0,122633:0:0:0:0:
42,192,120383,1,0,0:0:0:0:
42,192,120758,1,0,0:0:0:0:
42,192,121133,1,0,0:0:0:0:
298,192,121508,128,0,122633:0:0:0:0:
128,192,121508,128,0,122633:0:0:0:0:
42,192,121508,1,0,0:0:0:0:
213,192,121883,1,0,0:0:0:0:
42,192,122258,1,0,0:0:0:0:
213,192,122633,1,0,0:0:0:0:
42,192,123008,1,0,0:0:0:0:
384,192,123008,128,0,125633:0:0:0:0:
42,192,123383,1,0,0:0:0:0:
42,192,123758,1,0,0:0:0:0:
42,192,124133,1,0,0:0:0:0:
128,192,124508,128,0,125633:0:0:0:0:
42,192,124508,1,0,0:0:0:0:
469,192,124883,1,0,0:0:0:0:
42,192,125258,1,0,0:0:0:0:
469,192,125633,1,0,0:0:0:0:
298,192,126008,128,0,128258:0:0:0:0:
213,192,126008,128,0,128258:0:0:0:0:
128,192,126008,1,0,0:0:0:0:
384,192,126383,1,0,0:0:0:0:
128,192,126758,1,0,0:0:0:0:
384,192,127133,1,0,0:0:0:0:
128,192,127508,1,0,0:0:0:0:
384,192,127883,1,0,0:0:0:0:
128,192,128258,1,0,0:0:0:0:
384,192,128633,128,0,129008:0:0:0:0:
469,192,129008,128,0,129383:0:0:0:0:
384,192,129383,128,0,129758:0:0:0:0:
469,192,129758,128,0,130133:0:0:0:0:
384,192,130133,128,0,130508:0:0:0:0:
469,192,130508,128,0,130883:0:0:0:0:
384,192,130883,128,0,131258:0:0:0:0:
469,192,131258,128,0,131633:0:0:0:0:
384,192,131633,128,0,132008:0:0:0:0:
469,192,132008,128,0,134633:0:0:0:0:
384,192,133508,128,0,134633:0:0:0:0:
42,192,133508,128,0,133883:0:0:0:0:
213,192,133883,128,0,134258:0:0:0:0:
42,192,134258,128,0,134633:0:0:0:0:
213,192,134633,128,0,135008:0:0:0:0:
469,192,135008,128,0,137258:0:0:0:0:
42,192,136508,128,0,137258:0:0:0:0:
384,192,136883,128,0,137258:0:0:0:0:
128,192,136883,128,0,137258:0:0:0:0:
42,192,137633,128,0,138008:0:0:0:0:
469,192,137633,128,0,138008:0:0:0:0:
213,192,138008,128,0,140633:0:0:0:0:
298,192,138008,128,0,140633:0:0:0:0:
384,192,140633,128,0,141008:0:0:0:0:
298,192,141008,128,0,141383:0:0:0:0:
384,192,141383,128,0,141758:0:0:0:0:
298,192,141758,128,0,142133:0:0:0:0:
384,192,142133,128,0,142508:0:0:0:0:
298,192,142508,128,0,142883:0:0:0:0:
213,192,142883,128,0,143258:0:0:0:0:
298,192,143633,128,0,144008:0:0:0:0:
469,192,144008,128,0,146258:0:0:0:0:
128,192,144008,128,0,144383:0:0:0:0:
384,192,144383,128,0,144758:0:0:0:0:
42,192,144758,128,0,145133:0:0:0:0:
298,192,145133,128,0,145508:0:0:0:0:
384,192,145508,128,0,146258:0:0:0:0:
128,192,145508,128,0,145883:0:0:0:0:
298,192,145883,128,0,146258:0:0:0:0:
42,192,146258,128,0,146633:0:0:0:0:
213,192,146633,128,0,147008:0:0:0:0:
42,192,147008,128,0,149633:0:0:0:0:
469,192,147008,128,0,147383:0:0:0:0:
128,192,147383,128,0,147758:0:0:0:0:
469,192,147758,128,0,148133:0:0:0:0:
213,192,148133,128,0,148508:0:0:0:0:
384,192,148508,128,0,148883:0:0:0:0:
128,192,148508,128,0,149633:0:0:0:0:
469,192,148883,128,0,149258:0:0:0:0:
213,192,149258,128,0,149633:0:0:0:0:
213,192,150008,128,0,152258:0:0:0:0:
298,192,150008,128,0,152258:0:0:0:0:
469,192,152633,128,0,153008:0:0:0:0:
213,192,152633,128,0,153008:0:0:0:0:
384,192,153008,128,0,153383:0:0:0:0:
128,192,153008,128,0,153383:0:0:0:0:
298,192,153383,128,0,153758:0:0:0:0:
42,192,153383,128,0,153758:0:0:0:0:
384,192,153758,128,0,154133:0:0:0:0:
128,192,153758,128,0,154133:0:0:0:0:
469,192,154133,128,0,154508:0:0:0:0:
213,192,154133,128,0,154508:0:0:0:0:
384,192,154508,128,0,154883:0:0:0:0:
128,192,154508,128,0,154883:0:0:0:0:
298,192,154883,128,0,155258:0:0:0:0:
42,192,154883,128,0,155258:0:0:0:0:
384,192,155258,128,0,155633:0:0:0:0:
128,192,155258,128,0,155633:0:0:0:0:
469,192,155633,128,0,156008:0:0:0:0:
213,192,155633,128,0,156008:0:0:0:0:
384,192,156008,128,0,156383:0:0:0:0:
42,192,156008,128,0,158633:0:0:0:0:
298,192,156383,128,0,156758:0:0:0:0:
384,192,156758,128,0,157133:0:0:0:0:
469,192,157133,128,0,157508:0:0:0:0:
128,192,157508,128,0,158633:0:0:0:0:
384,192,157508,128,0,157883:0:0:0:0:
298,192,157883,128,0,158258:0:0:0:0:
384,192,158258,128,0,158633:0:0:0:0:
469,192,158633,128,0,159008:0:0:0:0:
384,192,159008,128,0,161633:0:0:0:0:
42,192,159008,128,0,159383:0:0:0:0:
128,192,159383,128,0,159758:0:0:0:0:
213,192,159758,128,0,160133:0:0:0:0:
128,192,160133,128,0,160508:0:0:0:0:
469,192,160508,128,0,161633:0:0:0:0:
42,192,160508,128,0,160883:0:0:0:0:
128,192,160883,128,0,161258:0:0:0:0:
213,192,161258,128,0,161633:0:0:0:0:
128,192,161633,128,0,162008:0:0:0:0:
213,192,162008,128,0,164633:0:0:0:0:
298,192,162008,128,0,164633:0:0:0:0:
42,192,162008,128,0,162383:0:0:0:0:
469,192,162008,128,0,162383:0:0:0:0:
128,192,162383,128,0,162758:0:0:0:0:
384,192,162383,128,0,162758:0:0:0:0:
42,192,162758,128,0,163133:0:0:0:0:
469,192,162758,128,0,163133:0:0:0:0:
128,192,163133,128,0,163508:0:0:0:0:
384,192,163133,128,0,163508:0:0:0:0:
42,192,163508,128,0,163883:0:0:0:0:
469,192,163508,128,0,163883:0:0:0:0:
384,192,163883,128,0,164258:0:0:0:0:
128,192,163883,128,0,164258:0:0:0:0:
42,192,164258,128,0,164633:0:0:0:0:
469,192,164258,128,0,164633:0:0:0:0:
128,192,164633,128,0,165008:0:0:0:0:
384,192,164633,128,0,165008:0:0:0:0:
298,192,165008,128,0,165383:0:0:0:0:
469,192,165008,128,0,165383:0:0:0:0:
42,192,165008,128,0,165383:0:0:0:0:
213,192,165008,128,0,165383:0:0:0:0:
128,192,165383,128,0,165758:0:0:0:0:
384,192,165383,128,0,165758:0:0:0:0:
42,192,165758,128,0,166133:0:0:0:0:
213,192,165758,128,0,166133:0:0:0:0:
298,192,165758,128,0,166133:0:0:0:0:
469,192,165758,128,0,166133:0:0:0:0:
128,192,166133,128,0,166508:0:0:0:0:
384,192,166133,128,0,166508:0:0:0:0:
42,192,166508,128,0,166883:0:0:0:0:
213,192,166508,128,0,166883:0:0:0:0:
298,192,166508,128,0,166883:0:0:0:0:
469,192,166508,128,0,166883:0:0:0:0:
128,192,166883,128,0,167258:0:0:0:0:
384,192,166883,128,0,167258:0:0:0:0:
42,192,167258,128,0,167633:0:0:0:0:
213,192,167258,128,0,167633:0:0:0:0:
469,192,167258,128,0,167633:0:0:0:0:
298,192,167258,128,0,167633:0:0:0:0:
128,192,167633,128,0,168008:0:0:0:0:
384,192,167633,128,0,168008:0:0:0:0:
192,192,168008,128,0,179258:0:0:0:0:
320,192,168008,128,0,179258:0:0:0:0:
64,192,174008,128,0,179258:0:0:0:0:
448,192,174008,128,0,179258:0:0:0:0:
64,192,180008,128,0,191258:0:0:0:0:
448,192,180008,128,0,191258:0:0:0:0:
213,192,183008,128,0,191258:0:0:0:0:
298,192,183008,128,0,191258:0:0:0:0:
128,192,186008,128,0,191258:0:0:0:0:
384,192,186008,128,0,191258:0:0:0:0:
192,192,192008,128,0,194633:0:0:0:0:
320,192,192008,128,0,194633:0:0:0:0:
64,192,195008,1,0,0:0:0:0:
128,192,195195,1,0,0:0:0:0:
213,192,195383,1,0,0:0:0:0:
298,192,195570,1,0,0:0:0:0:
384,192,195758,1,0,0:0:0:0:
469,192,195945,1,0,0:0:0:0:
384,192,196133,1,0,0:0:0:0:
298,192,196320,1,0,0:0:0:0:
213,192,196508,1,0,0:0:0:0:
298,192,196508,1,0,0:0:0:0:
128,192,196695,1,0,0:0:0:0:
42,192,196883,1,0,0:0:0:0:
128,192,197070,1,0,0:0:0:0:
213,192,197258,1,0,0:0:0:0:
298,192,197445,1,0,0:0:0:0:
384,192,197633,1,0,0:0:0:0:
320,192,197820,1,0,0:0:0:0:
192,192,198008,1,0,0:0:0:0:
128,192,198008,1,0,0:0:0:0:
128,192,198195,1,0,0:0:0:0:
42,192,198383,1,0,0:0:0:0:
128,192,198570,1,0,0:0:0:0:
213,192,198758,1,0,0:0:0:0:
298,192,198945,1,0,0:0:0:0:
213,192,199133,1,0,0:0:0:0:
128,192,199320,1,0,0:0:0:0:
42,192,199508,1,0,0:0:0:0:
128,192,199508,1,0,0:0:0:0:
128,192,199695,1,0,0:0:0:0:
213,192,199883,1,0,0:0:0:0:
128,192,200070,1,0,0:0:0:0:
42,192,200258,1,0,0:0:0:0:
128,192,200445,1,0,0:0:0:0:
42,192,200633,1,0,0:0:0:0:
320,192,200820,1,0,0:0:0:0:
192,192,201008,1,0,0:0:0:0:
298,192,201008,1,0,0:0:0:0:
128,192,201195,1,0,0:0:0:0:
384,192,201383,1,0,0:0:0:0:
320,192,201570,1,0,0:0:0:0:
192,192,201758,1,0,0:0:0:0:
64,192,201945,1,0,0:0:0:0:
64,192,202133,1,0,0:0:0:0:
192,192,202320,1,0,0:0:0:0:
320,192,202508,1,0,0:0:0:0:
213,192,202508,1,0,0:0:0:0:
384,192,202695,1,0,0:0:0:0:
64,192,202883,1,0,0:0:0:0:
192,192,203070,1,0,0:0:0:0:
320,192,203258,1,0,0:0:0:0:
384,192,203445,1,0,0:0:0:0:
64,192,203633,1,0,0:0:0:0:
192,192,203820,1,0,0:0:0:0:
320,192,204008,1,0,0:0:0:0:
384,192,204008,1,0,0:0:0:0:
384,192,204195,1,0,0:0:0:0:
384,192,204383,1,0,0:0:0:0:
320,192,204570,1,0,0:0:0:0:
192,192,204758,1,0,0:0:0:0:
128,192,204945,1,0,0:0:0:0:
192,192,205133,1,0,0:0:0:0:
320,192,205320,1,0,0:0:0:0:
213,192,205320,1,0,0:0:0:0:
448,192,205508,1,0,0:0:0:0:
64,192,205508,1,0,0:0:0:0:
384,192,205695,1,0,0:0:0:0:
128,192,205695,1,0,0:0:0:0:
192,192,205883,1,0,0:0:0:0:
320,192,205883,1,0,0:0:0:0:
128,192,206070,1,0,0:0:0:0:
384,192,206070,1,0,0:0:0:0:
64,192,206258,1,0,0:0:0:0:
448,192,206258,1,0,0:0:0:0:
192,192,206445,1,0,0:0:0:0:
320,192,206445,1,0,0:0:0:0:
320,192,206633,1,0,0:0:0:0:
192,192,206633,1,0,0:0:0:0:
448,192,206820,1,0,0:0:0:0:
64,192,206820,1,0,0:0:0:0:
64,192,207008,1,0,0:0:0:0:
448,192,207008,1,0,0:0:0:0:
192,192,207195,1,0,0:0:0:0:
320,192,207383,1,0,0:0:0:0:
192,192,207570,1,0,0:0:0:0:
320,192,207758,1,0,0:0:0:0:
128,192,207945,1,0,0:0:0:0:
192,192,208133,1,0,0:0:0:0:
320,192,208320,1,0,0:0:0:0:
384,192,208508,1,0,0:0:0:0:
469,192,208508,1,0,0:0:0:0:
448,192,208695,1,0,0:0:0:0:
384,192,208883,1,0,0:0:0:0:
298,192,209070,1,0,0:0:0:0:
213,192,209258,1,0,0:0:0:0:
128,192,209445,1,0,0:0:0:0:
64,192,209633,1,0,0:0:0:0:
128,192,209820,1,0,0:0:0:0:
384,192,209820,1,0,0:0:0:0:
192,192,210008,1,0,0:0:0:0:
320,192,210008,1,0,0:0:0:0:
192,192,210195,1,0,0:0:0:0:
320,192,210195,1,0,0:0:0:0:
64,192,210383,1,0,0:0:0:0:
448,192,210383,1,0,0:0:0:0:
64,192,210570,1,0,0:0:0:0:
469,192,210570,1,0,0:0:0:0:
128,192,210758,1,0,0:0:0:0:
384,192,210758,1,0,0:0:0:0:
320,192,210945,1,0,0:0:0:0:
213,192,210945,1,0,0:0:0:0:
384,192,211133,1,0,0:0:0:0:
320,192,211320,1,0,0:0:0:0:
192,192,211508,1,0,0:0:0:0:
128,192,211508,1,0,0:0:0:0:
128,192,211695,1,0,0:0:0:0:
192,192,211883,1,0,0:0:0:0:
320,192,212070,1,0,0:0:0:0:
448,192,212258,1,0,0:0:0:0:
128,192,212258,1,0,0:0:0:0:
192,192,212445,1,0,0:0:0:0:
320,192,212633,1,0,0:0:0:0:
448,192,212820,1,0,0:0:0:0:
448,192,213008,1,0,0:0:0:0:
320,192,213195,1,0,0:0:0:0:
192,192,213383,1,0,0:0:0:0:
64,192,213570,1,0,0:0:0:0:
448,192,213570,1,0,0:0:0:0:
320,192,213758,1,0,0:0:0:0:
192,192,213945,1,0,0:0:0:0:
64,192,214133,1,0,0:0:0:0:
448,192,214133,1,0,0:0:0:0:
192,192,214320,1,0,0:0:0:0:
320,192,214320,1,0,0:0:0:0:
320,192,214508,1,0,0:0:0:0:
192,192,214508,1,0,0:0:0:0:
448,192,214695,1,0,0:0:0:0:
64,192,214695,1,0,0:0:0:0:
64,192,214883,1,0,0:0:0:0:
448,192,214883,1,0,0:0:0:0:
192,192,215070,1,0,0:0:0:0:
448,192,215070,1,0,0:0:0:0:
64,192,215258,1,0,0:0:0:0:
320,192,215258,1,0,0:0:0:0:
192,192,215445,1,0,0:0:0:0:
448,192,215445,1,0,0:0:0:0:
192,192,215633,1,0,0:0:0:0:
448,192,215633,1,0,0:0:0:0:
64,192,215820,1,0,0:0:0:0:
320,192,215820,1,0,0:0:0:0:
192,192,216008,1,0,0:0:0:0:
448,192,216008,1,0,0:0:0:0:
128,192,216008,1,0,0:0:0:0:
64,192,216195,1,0,0:0:0:0:
448,192,216195,1,0,0:0:0:0:
192,192,216383,1,0,0:0:0:0:
320,192,216383,1,0,0:0:0:0:
64,192,216570,1,0,0:0:0:0:
448,192,216570,1,0,0:0:0:0:
64,192,216758,1,0,0:0:0:0:
192,192,216945,1,0,0:0:0:0:
320,192,217133,1,0,0:0:0:0:
448,192,217320,1,0,0:0:0:0:
320,192,217508,1,0,0:0:0:0:
384,192,217508,1,0,0:0:0:0:
192,192,217695,1,0,0:0:0:0:
64,192,217883,1,0,0:0:0:0:
192,192,218070,1,0,0:0:0:0:
320,192,218070,1,0,0:0:0:0:
64,192,218445,1,0,0:0:0:0:
448,192,218445,1,0,0:0:0:0:
128,192,218633,1,0,0:0:0:0:
213,192,218820,1,0,0:0:0:0:
469,192,219008,128,0,219758:0:0:0:0:
384,192,219008,128,0,219758:0:0:0:0:
298,192,219008,1,0,0:0:0:0:
213,192,219195,1,0,0:0:0:0:
128,192,219383,1,0,0:0:0:0:
42,192,219570,1,0,0:0:0:0:
128,192,219758,1,0,0:0:0:0:
213,192,219945,1,0,0:0:0:0:
298,192,220133,1,0,0:0:0:0:
384,192,220320,1,0,0:0:0:0:
42,192,220508,128,0,221258:0:0:0:0:
213,192,220508,128,0,221258:0:0:0:0:
469,192,220508,1,0,0:0:0:0:
384,192,220508,1,0,0:0:0:0:
469,192,220695,1,0,0:0:0:0:
384,192,220883,1,0,0:0:0:0:
298,192,221070,1,0,0:0:0:0:
384,192,221258,1,0,0:0:0:0:
469,192,221445,1,0,0:0:0:0:
384,192,221633,1,0,0:0:0:0:
298,192,221820,1,0,0:0:0:0:
298,192,222008,128,0,222758:0:0:0:0:
384,192,222008,128,0,222758:0:0:0:0:
213,192,222008,1,0,0:0:0:0:
128,192,222008,1,0,0:0:0:0:
128,192,222195,1,0,0:0:0:0:
42,192,222383,1,0,0:0:0:0:
128,192,222570,1,0,0:0:0:0:
213,192,222758,1,0,0:0:0:0:
298,192,222945,1,0,0:0:0:0:
384,192,223133,1,0,0:0:0:0:
469,192,223320,1,0,0:0:0:0:
128,192,223508,128,0,224258:0:0:0:0:
298,192,223508,128,0,224258:0:0:0:0:
384,192,223508,1,0,0:0:0:0:
469,192,223508,1,0,0:0:0:0:
384,192,223695,1,0,0:0:0:0:
469,192,223883,1,0,0:0:0:0:
384,192,224070,1,0,0:0:0:0:
469,192,224258,1,0,0:0:0:0:
384,192,224445,1,0,0:0:0:0:
298,192,224633,1,0,0:0:0:0:
213,192,224820,1,0,0:0:0:0:
213,192,225008,128,0,225758:0:0:0:0:
298,192,225008,128,0,225758:0:0:0:0:
128,192,225008,1,0,0:0:0:0:
42,192,225008,1,0,0:0:0:0:
42,192,225195,1,0,0:0:0:0:
128,192,225383,1,0,0:0:0:0:
42,192,225570,1,0,0:0:0:0:
128,192,225758,1,0,0:0:0:0:
213,192,225945,1,0,0:0:0:0:
298,192,226133,1,0,0:0:0:0:
384,192,226320,1,0,0:0:0:0:
298,192,226508,128,0,227258:0:0:0:0:
469,192,226508,128,0,227258:0:0:0:0:
384,192,226508,1,0,0:0:0:0:
384,192,226695,1,0,0:0:0:0:
384,192,226883,1,0,0:0:0:0:
384,192,227070,1,0,0:0:0:0:
384,192,227258,1,0,0:0:0:0:
469,192,227445,1,0,0:0:0:0:
384,192,227633,1,0,0:0:0:0:
298,192,227820,1,0,0:0:0:0:
298,192,228008,128,0,229133:0:0:0:0:
213,192,228008,1,0,0:0:0:0:
128,192,228008,1,0,0:0:0:0:
213,192,228195,128,0,229133:0:0:0:0:
128,192,228195,1,0,0:0:0:0:
42,192,228383,1,0,0:0:0:0:
128,192,228570,1,0,0:0:0:0:
42,192,228758,1,0,0:0:0:0:
128,192,228945,1,0,0:0:0:0:
42,192,229133,1,0,0:0:0:0:
128,192,229320,1,0,0:0:0:0:
128,192,229508,128,0,230258:0:0:0:0:
384,192,229508,128,0,230258:0:0:0:0:
213,192,229508,1,0,0:0:0:0:
298,192,229508,1,0,0:0:0:0:
298,192,229695,1,0,0:0:0:0:
213,192,229883,1,0,0:0:0:0:
298,192,230070,1,0,0:0:0:0:
213,192,230258,1,0,0:0:0:0:
128,192,230445,1,0,0:0:0:0:
42,192,230633,1,0,0:0:0:0:
128,192,230820,1,0,0:0:0:0:
128,192,231008,128,0,231758:0:0:0:0:
213,192,231008,128,0,231758:0:0:0:0:
42,192,231008,1,0,0:0:0:0:
298,192,231008,1,0,0:0:0:0:
384,192,231195,1,0,0:0:0:0:
469,192,231383,1,0,0:0:0:0:
384,192,231570,1,0,0:0:0:0:
298,192,231758,1,0,0:0:0:0:
213,192,231945,1,0,0:0:0:0:
128,192,232133,1,0,0:0:0:0:
42,192,232320,1,0,0:0:0:0:
298,192,232508,128,0,233258:0:0:0:0:
128,192,232508,128,0,233258:0:0:0:0:
42,192,232508,1,0,0:0:0:0:
42,192,232695,1,0,0:0:0:0:
42,192,232883,1,0,0:0:0:0:
42,192,233070,1,0,0:0:0:0:
42,192,233258,1,0,0:0:0:0:
128,192,233445,1,0,0:0:0:0:
213,192,233633,1,0,0:0:0:0:
298,192,233820,1,0,0:0:0:0:
213,192,234008,128,0,234758:0:0:0:0:
298,192,234008,128,0,234758:0:0:0:0:
384,192,234008,1,0,0:0:0:0:
469,192,234008,1,0,0:0:0:0:
469,192,234195,1,0,0:0:0:0:
384,192,234383,1,0,0:0:0:0:
469,192,234570,1,0,0:0:0:0:
384,192,234758,1,0,0:0:0:0:
469,192,234945,1,0,0:0:0:0:
384,192,235133,1,0,0:0:0:0:
298,192,235320,1,0,0:0:0:0:
469,192,235508,128,0,236258:0:0:0:0:
213,192,235508,1,0,0:0:0:0:
384,192,235695,128,0,236258:0:0:0:0:
128,192,235695,1,0,0:0:0:0:
42,192,235883,1,0,0:0:0:0:
128,192,236070,1,0,0:0:0:0:
213,192,236258,1,0,0:0:0:0:
298,192,236258,1,0,0:0:0:0:
298,192,236445,1,0,0:0:0:0:
42,192,236633,128,0,238133:0:0:0:0:
384,192,236633,1,0,0:0:0:0:
128,192,236820,128,0,238133:0:0:0:0:
469,192,236820,1,0,0:0:0:0:
213,192,237008,128,0,238133:0:0:0:0:
384,192,237008,1,0,0:0:0:0:
298,192,237195,1,0,0:0:0:0:
384,192,237383,1,0,0:0:0:0:
469,192,237570,1,0,0:0:0:0:
384,192,237758,1,0,0:0:0:0:
298,192,237945,1,0,0:0:0:0:
384,192,238133,1,0,0:0:0:0:
298,192,238320,128,0,242258:0:0:0:0:
469,192,238320,1,0,0:0:0:0:
384,192,238508,1,0,0:0:0:0:
469,192,238508,1,0,0:0:0:0:
384,192,238695,1,0,0:0:0:0:
469,192,238883,1,0,0:0:0:0:
384,192,239070,1,0,0:0:0:0:
213,192,239258,1,0,0:0:0:0:
128,192,239445,1,0,0:0:0:0:
42,192,239633,1,0,0:0:0:0:
469,192,239820,128,0,242258:0:0:0:0:
128,192,239820,1,0,0:0:0:0:
213,192,240008,1,0,0:0:0:0:
384,192,240008,1,0,0:0:0:0:
42,192,240383,1,0,0:0:0:0:
213,192,240758,1,0,0:0:0:0:
42,192,241133,1,0,0:0:0:0:
128,192,241508,1,0,0:0:0:0:
213,192,241508,1,0,0:0:0:0:
42,192,242258,1,0,0:0:0:0:
128,192,242258,1,0,0:0:0:0:
64,192,243008,128,0,253883:0:0:0:0:
128,192,244508,128,0,245633:0:0:0:0:
213,192,244508,128,0,245633:0:0:0:0:
298,192,246008,128,0,246758:0:0:0:0:
384,192,246008,128,0,246758:0:0:0:0:
213,192,247508,128,0,248258:0:0:0:0:
298,192,247508,128,0,248258:0:0:0:0:
128,192,249008,128,0,253883:0:0:0:0:
384,192,249008,128,0,249758:0:0:0:0:
469,192,249008,128,0,249758:0:0:0:0:
213,192,250508,128,0,251258:0:0:0:0:
298,192,250508,128,0,251258:0:0:0:0:
384,192,252008,128,0,252758:0:0:0:0:
469,192,252008,128,0,252758:0:0:0:0:
298,192,253508,128,0,254258:0:0:0:0:
384,192,253508,128,0,254258:0:0:0:0:
448,192,255008,128,0,265883:0:0:0:0:
298,192,256508,128,0,257258:0:0:0:0:
384,192,256508,128,0,257258:0:0:0:0:
42,192,258008,128,0,258758:0:0:0:0:
128,192,258008,128,0,258758:0:0:0:0:
213,192,259508,128,0,260258:0:0:0:0:
298,192,259508,128,0,260258:0:0:0:0:
384,192,260633,128,0,265883:0:0:0:0:
128,192,260633,128,0,261383:0:0:0:0:
213,192,260633,128,0,261383:0:0:0:0:
213,192,262508,128,0,263258:0:0:0:0:
298,192,262508,128,0,263258:0:0:0:0:
42,192,264008,128,0,266258:0:0:0:0:
128,192,264008,128,0,266258:0:0:0:0:
64,192,267008,128,0,278258:0:0:0:0:
448,192,267008,128,0,278258:0:0:0:0:
384,192,267008,128,0,267758:0:0:0:0:
128,192,268508,128,0,271133:0:0:0:0:
213,192,268508,128,0,271133:0:0:0:0:
298,192,270008,128,0,271508:0:0:0:0:
384,192,270008,128,0,271508:0:0:0:0:
128,192,271508,128,0,272258:0:0:0:0:
213,192,271508,128,0,272258:0:0:0:0:
320,192,273008,128,0,278258:0:0:0:0:
192,192,273008,128,0,278258:0:0:0:0:
128,192,274508,128,0,275258:0:0:0:0:
384,192,274508,128,0,275258:0:0:0:0:
128,192,276008,1,0,0:0:0:0:
384,192,276008,1,0,0:0:0:0:
128,192,277508,1,0,0:0:0:0:
384,192,277508,1,0,0:0:0:0:
384,192,279008,128,0,289883:0:0:0:0:
128,192,279008,128,0,289883:0:0:0:0:
42,192,280508,128,0,281633:0:0:0:0:
469,192,282008,128,0,283133:0:0:0:0:
42,192,283508,128,0,285008:0:0:0:0:
469,192,283508,128,0,285008:0:0:0:0:
320,192,284633,128,0,289883:0:0:0:0:
192,192,284633,128,0,289883:0:0:0:0:
42,192,286508,128,0,287258:0:0:0:0:
469,192,286508,128,0,287258:0:0:0:0:
42,192,288008,128,0,289883:0:0:0:0:
469,192,288008,128,0,289883:0:0:0:0:
384,192,291008,1,0,0:0:0:0:
64,192,291008,128,0,291758:0:0:0:0:
298,192,291195,1,0,0:0:0:0:
384,192,291383,1,0,0:0:0:0:
320,192,291570,1,0,0:0:0:0:
384,192,291758,1,0,0:0:0:0:
320,192,291945,1,0,0:0:0:0:
384,192,292133,1,0,0:0:0:0:
320,192,292320,1,0,0:0:0:0:
384,192,292508,1,0,0:0:0:0:
192,192,292508,128,0,293258:0:0:0:0:
320,192,292695,1,0,0:0:0:0:
384,192,292883,1,0,0:0:0:0:
320,192,293070,1,0,0:0:0:0:
384,192,293258,1,0,0:0:0:0:
320,192,293445,1,0,0:0:0:0:
384,192,293633,1,0,0:0:0:0:
320,192,293820,1,0,0:0:0:0:
384,192,294008,1,0,0:0:0:0:
64,192,294008,128,0,294758:0:0:0:0:
320,192,294195,1,0,0:0:0:0:
384,192,294383,1,0,0:0:0:0:
320,192,294570,1,0,0:0:0:0:
384,192,294758,1,0,0:0:0:0:
320,192,294945,1,0,0:0:0:0:
384,192,295133,1,0,0:0:0:0:
320,192,295320,1,0,0:0:0:0:
384,192,295508,1,0,0:0:0:0:
128,192,295508,1,0,0:0:0:0:
320,192,295695,1,0,0:0:0:0:
384,192,295883,1,0,0:0:0:0:
320,192,296070,1,0,0:0:0:0:
384,192,296258,1,0,0:0:0:0:
128,192,296258,1,0,0:0:0:0:
320,192,296445,1,0,0:0:0:0:
384,192,296633,1,0,0:0:0:0:
320,192,296820,1,0,0:0:0:0:
384,192,297008,1,0,0:0:0:0:
192,192,297008,128,0,297758:0:0:0:0:
320,192,297195,1,0,0:0:0:0:
384,192,297383,1,0,0:0:0:0:
320,192,297570,1,0,0:0:0:0:
384,192,297758,1,0,0:0:0:0:
320,192,297945,1,0,0:0:0:0:
384,192,298133,1,0,0:0:0:0:
320,192,298320,1,0,0:0:0:0:
384,192,298508,1,0,0:0:0:0:
64,192,298508,128,0,299258:0:0:0:0:
320,192,298695,1,0,0:0:0:0:
384,192,298883,1,0,0:0:0:0:
320,192,299070,1,0,0:0:0:0:
384,192,299258,1,0,0:0:0:0:
320,192,299445,1,0,0:0:0:0:
384,192,299633,1,0,0:0:0:0:
320,192,299820,1,0,0:0:0:0:
384,192,300008,1,0,0:0:0:0:
192,192,300008,128,0,300758:0:0:0:0:
320,192,300195,1,0,0:0:0:0:
384,192,300383,1,0,0:0:0:0:
320,192,300570,1,0,0:0:0:0:
384,192,300758,1,0,0:0:0:0:
320,192,300945,1,0,0:0:0:0:
384,192,301133,1,0,0:0:0:0:
320,192,301320,1,0,0:0:0:0:
384,192,301508,1,0,0:0:0:0:
128,192,301508,1,0,0:0:0:0:
320,192,301695,1,0,0:0:0:0:
384,192,301883,1,0,0:0:0:0:
320,192,302070,1,0,0:0:0:0:
384,192,302258,1,0,0:0:0:0:
128,192,302258,1,0,0:0:0:0:
320,192,302445,1,0,0:0:0:0:
384,192,302633,1,0,0:0:0:0:
320,192,302820,1,0,0:0:0:0:
384,192,303008,1,0,0:0:0:0:
64,192,303008,128,0,303758:0:0:0:0:
320,192,303195,1,0,0:0:0:0:
384,192,303383,1,0,0:0:0:0:
320,192,303570,1,0,0:0:0:0:
384,192,303758,1,0,0:0:0:0:
320,192,303945,1,0,0:0:0:0:
384,192,304133,1,0,0:0:0:0:
320,192,304320,1,0,0:0:0:0:
384,192,304508,1,0,0:0:0:0:
192,192,304508,128,0,305258:0:0:0:0:
320,192,304695,1,0,0:0:0:0:
384,192,304883,1,0,0:0:0:0:
320,192,305070,1,0,0:0:0:0:
384,192,305258,1,0,0:0:0:0:
320,192,305445,1,0,0:0:0:0:
384,192,305633,1,0,0:0:0:0:
320,192,305820,1,0,0:0:0:0:
384,192,306008,1,0,0:0:0:0:
64,192,306008,128,0,306758:0:0:0:0:
320,192,306195,1,0,0:0:0:0:
384,192,306383,1,0,0:0:0:0:
320,192,306570,1,0,0:0:0:0:
384,192,306758,1,0,0:0:0:0:
320,192,306945,1,0,0:0:0:0:
384,192,307133,1,0,0:0:0:0:
320,192,307320,1,0,0:0:0:0:
384,192,307508,1,0,0:0:0:0:
128,192,307508,1,0,0:0:0:0:
320,192,307695,1,0,0:0:0:0:
384,192,307883,1,0,0:0:0:0:
320,192,308070,1,0,0:0:0:0:
384,192,308258,1,0,0:0:0:0:
128,192,308258,1,0,0:0:0:0:
320,192,308445,1,0,0:0:0:0:
384,192,308633,1,0,0:0:0:0:
320,192,308820,1,0,0:0:0:0:
384,192,309008,1,0,0:0:0:0:
192,192,309008,128,0,309758:0:0:0:0:
320,192,309195,1,0,0:0:0:0:
384,192,309383,1,0,0:0:0:0:
320,192,309570,1,0,0:0:0:0:
384,192,309758,1,0,0:0:0:0:
320,192,309945,1,0,0:0:0:0:
384,192,310133,1,0,0:0:0:0:
320,192,310320,1,0,0:0:0:0:
384,192,310508,1,0,0:0:0:0:
64,192,310508,128,0,311258:0:0:0:0:
320,192,310695,1,0,0:0:0:0:
384,192,310883,1,0,0:0:0:0:
320,192,311070,1,0,0:0:0:0:
384,192,311258,1,0,0:0:0:0:
320,192,311445,1,0,0:0:0:0:
384,192,311633,1,0,0:0:0:0:
320,192,311820,1,0,0:0:0:0:
384,192,312008,1,0,0:0:0:0:
192,192,312008,128,0,312758:0:0:0:0:
320,192,312195,1,0,0:0:0:0:
384,192,312383,1,0,0:0:0:0:
320,192,312570,1,0,0:0:0:0:
384,192,312758,1,0,0:0:0:0:
320,192,312945,1,0,0:0:0:0:
384,192,313133,1,0,0:0:0:0:
320,192,313320,1,0,0:0:0:0:
384,192,313508,1,0,0:0:0:0:
128,192,313508,1,0,0:0:0:0:
320,192,313695,1,0,0:0:0:0:
384,192,313883,1,0,0:0:0:0:
320,192,314070,1,0,0:0:0:0:
384,192,314258,1,0,0:0:0:0:
128,192,314258,1,0,0:0:0:0:
320,192,314445,1,0,0:0:0:0:
384,192,314633,1,0,0:0:0:0:
320,192,314820,1,0,0:0:0:0:
42,192,315008,128,0,315383:0:0:0:0:
213,192,315008,128,0,315383:0:0:0:0:
384,192,315758,1,0,0:0:0:0:
469,192,315758,1,0,0:0:0:0:
213,192,316508,1,0,0:0:0:0:
298,192,316508,1,0,0:0:0:0:
128,192,317258,1,0,0:0:0:0:
42,192,317258,1,0,0:0:0:0:
384,192,318008,128,0,318383:0:0:0:0:
469,192,318008,128,0,318383:0:0:0:0:
298,192,318758,1,0,0:0:0:0:
384,192,318758,1,0,0:0:0:0:
128,192,319508,1,0,0:0:0:0:
213,192,319508,1,0,0:0:0:0:
384,192,320258,1,0,0:0:0:0:
469,192,320258,1,0,0:0:0:0:
42,192,321008,128,0,321383:0:0:0:0:
213,192,321008,128,0,321383:0:0:0:0:
298,192,321758,1,0,0:0:0:0:
384,192,321758,1,0,0:0:0:0:
213,192,322508,1,0,0:0:0:0:
298,192,322508,1,0,0:0:0:0:
384,192,323258,1,0,0:0:0:0:
469,192,323258,1,0,0:0:0:0:
213,192,324008,128,0,324383:0:0:0:0:
384,192,324008,128,0,324383:0:0:0:0:
384,192,324758,1,0,0:0:0:0:
469,192,324758,1,0,0:0:0:0:
42,192,325508,1,0,0:0:0:0:
128,192,325508,1,0,0:0:0:0:
42,192,326258,128,0,327008:0:0:0:0:
128,192,326258,128,0,327008:0:0:0:0:
384,192,327008,128,0,327383:0:0:0:0:
469,192,327008,128,0,327383:0:0:0:0:
42,192,327758,1,0,0:0:0:0:
128,192,327758,1,0,0:0:0:0:
213,192,328508,1,0,0:0:0:0:
298,192,328508,1,0,0:0:0:0:
384,192,329258,1,0,0:0:0:0:
469,192,329258,1,0,0:0:0:0:
42,192,330008,128,0,330383:0:0:0:0:
469,192,330008,128,0,330383:0:0:0:0:
128,192,330758,1,0,0:0:0:0:
213,192,330758,1,0,0:0:0:0:
298,192,331508,1,0,0:0:0:0:
384,192,331508,1,0,0:0:0:0:
128,192,332258,1,0,0:0:0:0:
384,192,332258,1,0,0:0:0:0:
213,192,333008,128,0,333383:0:0:0:0:
298,192,333008,128,0,333383:0:0:0:0:
42,192,333758,1,0,0:0:0:0:
128,192,333758,1,0,0:0:0:0:
384,192,334508,1,0,0:0:0:0:
469,192,334508,1,0,0:0:0:0:
128,192,335258,1,0,0:0:0:0:
213,192,335258,1,0,0:0:0:0:
298,192,336008,128,0,336383:0:0:0:0:
384,192,336008,128,0,336383:0:0:0:0:
128,192,336758,1,0,0:0:0:0:
213,192,336758,1,0,0:0:0:0:
213,192,337508,1,0,0:0:0:0:
298,192,337508,1,0,0:0:0:0:
213,192,338258,128,0,338633:0:0:0:0:
384,192,338258,128,0,338633:0:0:0:0:
42,192,338258,128,0,338633:0:0:0:0:
448,192,339008,5,0,0:0:0:0:
128,192,339008,128,0,339383:0:0:0:0:
320,192,339195,1,0,0:0:0:0:
320,192,339383,1,0,0:0:0:0:
320,192,339570,1,0,0:0:0:0:
448,192,339758,1,0,0:0:0:0:
64,192,339758,128,0,340133:0:0:0:0:
320,192,339945,1,0,0:0:0:0:
320,192,340133,1,0,0:0:0:0:
320,192,340320,1,0,0:0:0:0:
448,192,340508,1,0,0:0:0:0:
128,192,340508,128,0,340883:0:0:0:0:
320,192,340695,1,0,0:0:0:0:
320,192,340883,1,0,0:0:0:0:
320,192,341070,1,0,0:0:0:0:
448,192,341258,1,0,0:0:0:0:
64,192,341258,128,0,341633:0:0:0:0:
320,192,341445,1,0,0:0:0:0:
320,192,341633,1,0,0:0:0:0:
320,192,341820,1,0,0:0:0:0:
448,192,342008,1,0,0:0:0:0:
128,192,342008,128,0,342383:0:0:0:0:
320,192,342195,1,0,0:0:0:0:
320,192,342383,1,0,0:0:0:0:
320,192,342570,1,0,0:0:0:0:
448,192,342758,1,0,0:0:0:0:
64,192,342758,128,0,343133:0:0:0:0:
320,192,342945,1,0,0:0:0:0:
320,192,343133,1,0,0:0:0:0:
320,192,343320,1,0,0:0:0:0:
448,192,343508,1,0,0:0:0:0:
128,192,343508,128,0,343883:0:0:0:0:
320,192,343695,1,0,0:0:0:0:
320,192,343883,1,0,0:0:0:0:
320,192,344070,1,0,0:0:0:0:
448,192,344258,1,0,0:0:0:0:
64,192,344258,128,0,344633:0:0:0:0:
320,192,344445,1,0,0:0:0:0:
320,192,344633,1,0,0:0:0:0:
320,192,344820,1,0,0:0:0:0:
448,192,345008,1,0,0:0:0:0:
128,192,345008,128,0,345383:0:0:0:0:
320,192,345195,1,0,0:0:0:0:
320,192,345383,1,0,0:0:0:0:
320,192,345570,1,0,0:0:0:0:
448,192,345758,1,0,0:0:0:0:
64,192,345758,128,0,346133:0:0:0:0:
320,192,345945,1,0,0:0:0:0:
320,192,346133,1,0,0:0:0:0:
320,192,346320,1,0,0:0:0:0:
448,192,346508,1,0,0:0:0:0:
128,192,346508,128,0,346883:0:0:0:0:
320,192,346695,1,0,0:0:0:0:
320,192,346883,1,0,0:0:0:0:
320,192,347070,1,0,0:0:0:0:
448,192,347258,1,0,0:0:0:0:
64,192,347258,128,0,347633:0:0:0:0:
320,192,347445,1,0,0:0:0:0:
320,192,347633,1,0,0:0:0:0:
320,192,347820,1,0,0:0:0:0:
448,192,348008,1,0,0:0:0:0:
128,192,348008,128,0,348383:0:0:0:0:
320,192,348195,1,0,0:0:0:0:
320,192,348383,1,0,0:0:0:0:
320,192,348570,1,0,0:0:0:0:
448,192,348758,1,0,0:0:0:0:
64,192,348758,128,0,349133:0:0:0:0:
320,192,348945,1,0,0:0:0:0:
320,192,349133,1,0,0:0:0:0:
320,192,349320,1,0,0:0:0:0:
448,192,349508,1,0,0:0:0:0:
128,192,349508,128,0,349883:0:0:0:0:
320,192,349695,1,0,0:0:0:0:
320,192,349883,1,0,0:0:0:0:
320,192,350070,1,0,0:0:0:0:
448,192,350258,1,0,0:0:0:0:
64,192,350258,128,0,350633:0:0:0:0:
320,192,350445,1,0,0:0:0:0:
320,192,350633,1,0,0:0:0:0:
320,192,350820,1,0,0:0:0:0:
448,192,351008,1,0,0:0:0:0:
64,192,351008,128,0,362633:0:0:0:0:
128,192,351758,128,0,352133:0:0:0:0:
320,192,352508,128,0,352883:0:0:0:0:
384,192,353258,128,0,353633:0:0:0:0:
213,192,354008,128,0,354383:0:0:0:0:
384,192,354758,128,0,355133:0:0:0:0:
469,192,355508,128,0,355883:0:0:0:0:
128,192,355508,128,0,362633:0:0:0:0:
298,192,356258,128,0,356633:0:0:0:0:
384,192,357008,128,0,357383:0:0:0:0:
213,192,357758,128,0,358133:0:0:0:0:
384,192,358508,128,0,358883:0:0:0:0:
298,192,359258,128,0,359633:0:0:0:0:
469,192,360008,128,0,360383:0:0:0:0:
213,192,360758,128,0,361133:0:0:0:0:
469,192,361508,128,0,361883:0:0:0:0:
298,192,362258,128,0,362633:0:0:0:0:
64,192,363008,128,0,374258:0:0:0:0:
128,192,363008,128,0,363383:0:0:0:0:
384,192,363758,128,0,364133:0:0:0:0:
320,192,364508,128,0,364883:0:0:0:0:
448,192,364508,128,0,364883:0:0:0:0:
128,192,365258,128,0,365633:0:0:0:0:
213,192,366008,128,0,366383:0:0:0:0:
128,192,366383,128,0,374258:0:0:0:0:
448,192,366758,128,0,367133:0:0:0:0:
320,192,366758,128,0,367133:0:0:0:0:
320,192,367508,1,0,0:0:0:0:
448,192,368258,1,0,0:0:0:0:
320,192,369008,128,0,369383:0:0:0:0:
213,192,369758,128,0,370133:0:0:0:0:
384,192,370508,128,0,370883:0:0:0:0:
448,192,371258,128,0,371633:0:0:0:0:
320,192,371258,128,0,371633:0:0:0:0:
320,192,372008,128,0,372383:0:0:0:0:
448,192,372758,128,0,373133:0:0:0:0:
320,192,373508,1,0,0:0:0:0:
448,192,374258,1,0,0:0:0:0:
448,192,375008,128,0,386633:0:0:0:0:
64,192,375008,128,0,386633:0:0:0:0:
192,192,387008,128,0,389633:0:0:0:0:
320,192,387008,128,0,389633:0:0:0:0:
448,192,390008,1,0,0:0:0:0:
64,192,390383,1,0,0:0:0:0:
64,192,390758,128,0,391133:0:0:0:0:
192,192,390758,128,0,391133:0:0:0:0:
448,192,390758,128,0,391133:0:0:0:0:
320,192,390758,128,0,391133:0:0:0:0:
448,192,391508,1,0,0:0:0:0:
320,192,392258,1,0,0:0:0:0:
298,192,393008,128,0,393383:0:0:0:0:
213,192,393008,128,0,393383:0:0:0:0:
64,192,393758,1,0,0:0:0:0:
320,192,394508,1,0,0:0:0:0:
448,192,395258,1,0,0:0:0:0:
298,192,396008,128,0,396383:0:0:0:0:
384,192,396008,128,0,396383:0:0:0:0:
64,192,396758,1,0,0:0:0:0:
448,192,396758,1,0,0:0:0:0:
192,192,397508,1,0,0:0:0:0:
320,192,397508,1,0,0:0:0:0:
448,192,398258,128,0,399008:0:0:0:0:
64,192,398258,128,0,399008:0:0:0:0:
