osu file format v13

[General]
AudioFilename: LIAR MASK.mp3
AudioLeadIn: 1500
PreviewTime: 54936
Countdown: 0
SampleSet: Soft
StackLeniency: 0.7
Mode: 0
LetterboxInBreaks: 0
WidescreenStoryboard: 0

[Editor]
DistanceSpacing: 0.8
BeatDivisor: 4
GridSize: 4
TimelineZoom: 1.9

[Metadata]
Title:Liar Mask anime size
TitleUnicode:Liar Mask anime size
Artist:Mayama Rika
ArtistUnicode:真山りか
Creator:Setsurei
Version:Normal
Source:アカメが斬る!
Tags:Akame ga Kill! kiru 2nd Opening second WHITE FOX Square Enix TV
BeatmapID:520661
BeatmapSetID:222671

[Difficulty]
HPDrainRate:4
CircleSize:3
OverallDifficulty:4
ApproachRate:5
SliderMultiplier:1.4
SliderTickRate:1

[Events]
//Background and Video events
0,0,"BG.jpg",0,0
Video,0,"OP2.avi"
//Break Periods
//Storyboard Layer 0 (Background)
//Storyboard Layer 1 (Fail)
//Storyboard Layer 2 (Pass)
//Storyboard Layer 3 (Foreground)
//Storyboard Sound Samples
//Background Colour Transformations
3,100,163,162,255

[TimingPoints]
1462,400,4,2,2,30,1,0
1462,-100,4,2,2,30,0,0
7862,-100,4,2,1,50,0,0
13862,-100,4,2,2,20,0,0
14938,333.333333333333,4,2,2,30,1,0
14938,-100,4,2,2,30,0,0
20271,-100,4,2,1,50,0,0
25604,-100,4,2,2,30,0,0
30937,-100,4,2,1,50,0,0
36271,333.333333333333,3,2,2,30,1,0
36271,-100,3,2,2,30,0,0
52270,333.333333333333,4,2,1,30,1,0
52270,-100,4,2,1,50,0,0
54936,-100,4,2,1,70,0,1
78936,-100,4,2,1,70,0,0
89603,-100,4,2,2,20,0,0

[Colours]
Combo1 : 191,85,85
Combo2 : 99,84,84
Combo3 : 216,142,118
Combo4 : 148,136,129

[HitObjects]
112,143,1462,6,0,P|164:99|232:87,1,140,8|0,0:0|0:0,0:0:0:0:
344,92,2262,1,8,0:0:0:0:
428,164,2662,1,0,0:0:0:0:
348,244,3062,6,0,B|367:268|410:277|410:277|404:345,1,140,8|0,0:0|0:0,0:0:0:0:
292,340,3862,2,0,P|232:364|184:312,1,140,8|0,0:0|0:0,0:0:0:0:
88,255,4662,6,0,P|139:210|207:203,1,140,8|0,0:0|0:0,0:0:0:0:
304,144,5462,2,0,P|252:98|184:91,1,140,8|0,0:0|0:0,0:0:0:0:
84,144,6262,1,8,0:0:0:0:
256,288,7062,2,0,P|322:293|355:235,1,140,8|0,0:0|0:0,0:0:0:0:
459,260,7862,6,0,P|453:191|406:141,1,140,12|0,0:0|0:0,0:0:0:0:
299,108,8662,2,0,B|271:112|271:112|198:196,1,140,8|0,0:0|0:0,0:0:0:0:
87,224,9462,2,0,B|86:195|86:195|159:112,1,140,12|0,0:0|0:0,0:0:0:0:
242,36,10262,2,0,P|309:19|368:52,1,140,8|0,0:0|0:0,0:0:0:0:
366,165,11062,5,12,0:0:0:0:
420,263,11462,1,0,0:0:0:0:
347,346,11862,1,8,0:0:0:0:
245,300,12262,1,0,0:0:0:0:
256,192,12662,12,0,13862,0:0:0:0:
448,88,14938,6,0,P|461:155|436:220,1,140,8|0,0:0|0:0,0:0:0:0:
340,280,15604,2,0,P|326:212|351:147,1,140,8|0,0:0|0:0,0:0:0:0:
276,64,16271,2,0,P|215:31|148:43,2,140,8|0|8,0:0|0:0|0:0,0:0:0:0:
156,252,17604,6,0,B|205:185|205:185|196:164|201:129,1,140,8|0,0:0|0:0,0:0:0:0:
311,147,18271,2,0,P|362:193|360:261,1,140,8|0,0:0|0:0,0:0:0:0:
312,364,18937,2,0,B|272:340|262:311|262:311|216:300|184:336|184:336|120:348|80:293,1,280,8|8,0:0|0:0,0:0:0:0:
84,68,20271,5,12,0:0:0:0:
196,84,20604,1,0,0:0:0:0:
304,48,20937,1,8,0:0:0:0:
407,91,21271,2,0,P|421:158|394:223,1,140,0|8,0:0|0:0,0:0:0:0:
308,148,21937,1,0,0:0:0:0:
308,148,22271,2,0,L|172:181,1,140,12|0,0:0|0:0,0:0:0:0:
67,219,22937,6,0,P|110:273|175:293,1,140,8|0,0:0|0:0,0:0:0:0:
280,340,23604,1,8,0:0:0:0:
384,296,23937,1,0,0:0:0:0:
398,182,24271,2,0,P|375:117|318:80,2,140,8|8|12,0:0|0:0|0:0,0:0:0:0:
204,71,25604,6,0,P|152:119|118:180,1,140,8|0,0:0|0:0,0:0:0:0:
232,188,26271,2,0,P|283:140|317:79,1,140,8|0,0:0|0:0,0:0:0:0:
420,36,26937,1,8,0:0:0:0:
492,124,27271,1,0,0:0:0:0:
495,235,27604,2,0,P|475:301|420:342,1,140,8|0,0:0|0:0,0:0:0:0:
311,319,28271,6,0,P|259:274|193:252,1,140,8|0,0:0|0:0,0:0:0:0:
124,340,28937,2,0,P|58:317|5:272,1,140,8|0,0:0|0:0,0:0:0:0:
3,159,29604,2,0,P|48:38|177:54,1,280,8|12,0:0|0:0,0:0:0:0:
400,24,30937,6,0,B|420:72|464:84|464:84|476:131,1,140,12|0,0:0|0:0,0:0:0:0:
496,244,31604,1,8,0:0:0:0:
452,348,31937,2,0,P|399:302|383:235,1,140,0|8,0:0|0:0,0:0:0:0:
372,124,32604,1,0,0:0:0:0:
372,124,32937,2,0,P|316:81|247:75,1,140,8|0,0:0|0:0,0:0:0:0:
276,188,33604,6,0,B|252:196|252:196|138:177,1,140,8|0,0:0|0:0,0:0:0:0:
127,64,34271,2,0,P|64:92|27:150,1,140,8|0,0:0|0:0,0:0:0:0:
32,264,34937,2,0,B|48:292|48:292|151:321,1,140,8|8,0:0|0:0,0:0:0:0:
256,280,35604,1,8,0:0:0:0:
471,344,36271,6,0,P|481:274|468:206,1,140,8|0,0:0|0:0,0:0:0:0:
424,104,36937,1,8,0:0:0:0:
335,36,37271,2,0,P|205:84|67:69,1,280,0|0,0:0|0:0,0:0:0:0:
4,164,38271,6,0,B|-4:192|-4:192|36:244|29:295,1,140,8|0,0:0|0:0,0:0:0:0:
68,336,38771,2,0,P|101:347|135:351,1,70,0|8,0:0|0:0,0:0:0:0:
248,360,39271,2,0,B|279:318|344:310|344:310|358:284,1,140,0|8,0:0|0:0,0:0:0:0:
404,184,39937,1,0,0:0:0:0:
476,96,40270,6,0,P|413:68|346:84,1,140,8|0,0:0|0:0,0:0:0:0:
303,120,40770,2,0,P|281:146|250:161,1,70,0|8,0:0|0:0,0:0:0:0:
141,199,41270,2,0,P|140:131|177:73,2,140,8|8|0,0:0|0:0|0:0,0:0:0:0:
200,300,42270,6,0,P|268:290|329:321,1,140,8|0,0:0|0:0,0:0:0:0:
385,317,42770,2,0,P|416:301|441:277,1,70,0|8,0:0|0:0,0:0:0:0:
455,163,43270,2,0,P|427:101|366:68,1,140,0|8,0:0|0:0,0:0:0:0:
256,52,43937,1,0,0:0:0:0:
144,72,44270,6,0,P|76:84|28:134,1,140,12|0,0:0|0:0,0:0:0:0:
128,184,44937,2,0,P|133:252|180:302,1,140,8|8,0:0|0:0,0:0:0:0:
288,268,45604,1,8,0:0:0:0:
396,303,45937,1,0,0:0:0:0:
464,212,46270,6,0,P|485:146|462:82,1,140,8|0,0:0|0:0,0:0:0:0:
424,40,46770,2,0,P|390:30|355:31,1,70,0|8,0:0|0:0,0:0:0:0:
311,135,47270,2,0,P|281:266|153:306,1,280,8|0,0:0|0:0,0:0:0:0:
44,288,48270,6,0,P|30:219|38:150,1,140,8|0,0:0|0:0,0:0:0:0:
92,52,48937,1,8,0:0:0:0:
204,44,49270,2,0,P|266:14|334:26,1,140,0|8,0:0|0:0,0:0:0:0:
440,60,49937,1,0,0:0:0:0:
433,172,50270,2,0,B|144:276|168:4|428:28|352:328|352:328|288:272|222:291,1,700,8|0,0:0|0:0,0:0:0:0:
110,281,52270,6,0,P|52:243|26:179,1,140,12|0,0:0|0:0,0:0:0:0:
138,171,52936,2,0,P|124:103|150:39,1,140,8|0,0:0|0:0,0:0:0:0:
234,114,53603,1,12,0:0:0:0:
344,128,53936,1,0,0:0:0:0:
408,36,54270,1,12,0:0:0:0:
428,260,54936,5,12,0:0:0:0:
344,332,55270,1,0,0:0:0:0:
232,332,55603,2,0,P|166:311|115:264,1,140,8|0,0:0|0:0,0:0:0:0:
84,216,56103,2,0,P|70:149|84:81,1,140,0|0,0:0|0:0,0:0:0:0:
113,32,56603,1,0,0:0:0:0:
209,91,56936,2,0,B|253:119|281:147|281:147|329:137,1,140,8|0,0:0|0:0,0:0:0:0:
360,28,57603,6,0,B|404:40|404:40|437:129,1,140,8|0,0:0|0:0,0:0:0:0:
448,241,58269,2,0,P|427:268|404:294,1,70,8|0,0:0|0:0,0:0:0:0:
293,289,58769,2,0,P|220:216|118:221,1,210,0|0,0:0|0:0,0:0:0:0:
60,124,59603,1,8,0:0:0:0:
152,60,59936,1,0,0:0:0:0:
257,101,60269,6,0,P|337:204|460:160,1,280,8|8,0:0|0:0,0:0:0:0:
368,96,61269,2,0,P|301:217|176:276,1,280,0|0,0:0|0:0,0:0:0:0:
64,288,62269,1,8,0:0:0:0:
4,192,62603,1,0,0:0:0:0:
64,96,62936,6,0,P|133:98|180:147,1,140,8|0,0:0|0:0,0:0:0:0:
208,196,63436,2,0,P|279:273|378:304,1,210,4|0,0:0|0:0,0:0:0:0:
432,290,64103,2,0,P|465:193|426:98,1,210,4|0,0:0|0:0,0:0:0:0:
324,52,64936,5,8,0:0:0:0:
212,68,65269,1,0,0:0:0:0:
132,148,65603,2,0,P|69:176|28:232,1,140,8|0,0:0|0:0,0:0:0:0:
136,264,66269,1,8,0:0:0:0:
224,332,66603,5,0,0:0:0:0:
268,296,66769,2,0,B|284:268|320:252|320:252|328:183,1,140,0|0,0:0|0:0,0:0:0:0:
332,128,67269,1,0,0:0:0:0:
268,37,67603,2,0,P|231:95|230:164,1,140,8|0,0:0|0:0,0:0:0:0:
188,268,68269,6,0,B|166:255|166:255|128:206|69:202,1,140,8|0,0:0|0:0,0:0:0:0:
22,233,68769,1,8,0:0:0:0:
56,340,69103,1,0,0:0:0:0:
56,340,69269,2,0,B|116:328|194:356|194:356|240:324|330:340,1,280,0|0,0:0|0:0,0:0:0:0:
437,308,70269,2,0,P|460:288|480:232,1,70,8|0,0:0|0:0,0:0:0:0:
488,140,70769,6,0,B|452:116|448:40|448:40|332:8|212:40,1,350,4|8,0:0|0:0,0:0:0:0:
172,148,71936,1,0,0:0:0:0:
232,244,72269,1,8,0:0:0:0:
156,324,72603,1,0,0:0:0:0:
52,280,72936,6,0,P|44:211|63:145,1,140,8|0,0:0|0:0,0:0:0:0:
96,100,73436,1,0,0:0:0:0:
140,64,73603,2,0,B|224:52|254:123|254:123|310:135|375:192,1,280,8|8,0:0|0:0,0:0:0:0:
480,236,74603,2,0,P|431:285|364:301,1,140,0|8,0:0|0:0,0:0:0:0:
256,268,75269,1,0,0:0:0:0:
197,365,75603,2,0,P|170:342|152:312,1,70,8|0,0:0|0:0,0:0:0:0:
126,206,76103,6,0,P|48:140|51:39,1,210,4|0,0:0|0:0,0:0:0:0:
152,92,76936,1,8,0:0:0:0:
256,52,77269,1,0,0:0:0:0:
360,92,77603,1,8,0:0:0:0:
438,174,77936,2,0,P|445:242|408:300,1,140,0|8,0:0|0:0,0:0:0:0:
300,332,78603,1,0,0:0:0:0:
256,192,78936,12,8,81603,0:0:0:0:
396,184,83103,6,0,P|268:157|201:269,1,280,8|8,0:0|0:0,0:0:0:0:
98,224,84103,1,0,0:0:0:0:
139,118,84436,2,0,P|250:39|387:52,1,280,8|8,0:0|0:0,0:0:0:0:
485,193,85603,6,0,P|414:360|269:249,1,420,8|0,0:0|0:0,0:0:0:0:
244,136,86936,2,0,P|99:25|28:192,1,420,8|0,0:0|0:0,0:0:0:0:
137,154,88269,2,0,B|160:224|236:292|352:228|348:128|348:128|500:158|434:308,1,560,8|0,0:0|0:0,0:0:0:0:
