osu file format v13

[General]
AudioFilename: LIAR MASK.mp3
AudioLeadIn: 1500
PreviewTime: 54936
Countdown: 0
SampleSet: Soft
StackLeniency: 0.7
Mode: 0
LetterboxInBreaks: 0
WidescreenStoryboard: 0

[Editor]
DistanceSpacing: 1
BeatDivisor: 4
GridSize: 4
TimelineZoom: 2.3

[Metadata]
Title:Liar Mask anime size
TitleUnicode:Liar Mask anime size
Artist:Mayama Rika
ArtistUnicode:真山りか
Creator:Setsurei
Version:Hard
Source:アカメが斬る!
Tags:Akame ga Kill! kiru 2nd Opening second WHITE FOX Square Enix TV
BeatmapID:520660
BeatmapSetID:222671

[Difficulty]
HPDrainRate:6
CircleSize:3.5
OverallDifficulty:6
ApproachRate:7.5
SliderMultiplier:1.7
SliderTickRate:1

[Events]
//Background and Video events
0,0,"BG.jpg",0,0
Video,0,"OP2.avi"
//Break Periods
//Storyboard Layer 0 (Background)
//Storyboard Layer 1 (Fail)
//Storyboard Layer 2 (Pass)
//Storyboard Layer 3 (Foreground)
//Storyboard Sound Samples
//Background Colour Transformations
3,100,163,162,255

[TimingPoints]
1462,400,4,2,2,30,1,0
1462,-200,4,2,2,30,0,0
7862,-133.333333333333,4,2,1,50,0,0
13862,-133.333333333333,4,2,2,50,0,0
14938,333.333333333333,4,2,2,30,1,0
14938,-200,4,2,2,30,0,0
20271,-133.333333333333,4,2,1,50,0,0
25604,-200,4,2,2,30,0,0
30937,-133.333333333333,4,2,1,50,0,0
36271,333.333333333333,3,2,2,30,1,0
36271,-200,3,2,2,30,0,0
52270,333.333333333333,4,2,1,30,1,0
52270,-133.333333333333,4,2,1,50,0,0
54936,-100,4,2,1,70,0,1
78936,-100,4,2,1,70,0,0
89603,-100,4,2,2,20,0,0

[Colours]
Combo1 : 191,85,85
Combo2 : 99,84,84
Combo3 : 216,142,118
Combo4 : 148,136,129

[HitObjects]
296,84,1462,6,0,P|336:96|360:129,1,85,8|0,0:0|0:0,0:0:0:0:
376,212,2262,2,0,P|361:293|291:335,1,170,8|8,0:0|0:0,0:0:0:0:
208,332,3462,1,0,0:0:0:0:
128,308,3862,2,0,P|92:284|68:250,1,85,8|0,0:0|0:0,0:0:0:0:
148,224,4662,6,0,P|150:181|138:141,1,85,8|0,0:0|0:0,0:0:0:0:
216,104,5462,2,0,P|187:72|150:52,1,85,8|0,0:0|0:0,0:0:0:0:
68,68,6262,2,0,B|32:96|32:96|64:140|45:215,1,170,8|8,0:0|0:0,0:0:0:0:
20,296,7462,1,0,0:0:0:0:
127,347,7862,6,0,P|190:355|247:328,1,127.500004863739,12|0,0:0|0:0,0:0:0:0:
352,256,8662,2,0,P|401:216|422:157,1,127.500004863739,8|0,0:0|0:0,0:0:0:0:
296,140,9462,2,0,B|268:128|268:128|220:152|173:139,1,127.500004863739,12|0,0:0|0:0,0:0:0:0:
139,263,10262,2,0,B|167:275|167:275|215:251|262:264,1,127.500004863739,8|0,0:0|0:0,0:0:0:0:
296,140,11062,5,12,0:0:0:0:
417,179,11462,1,0,0:0:0:0:
417,306,11862,1,8,0:0:0:0:
295,346,12262,1,0,0:0:0:0:
220,240,12662,1,12,0:0:0:0:
256,192,12862,12,0,14462,0:0:0:0:
148,96,14938,6,0,P|113:119|98:158,1,85,8|0,0:0|0:0,0:0:0:0:
101,243,15493,1,0,0:0:0:0:
101,243,15604,2,0,P|123:279|161:297,1,85,8|0,0:0|0:0,0:0:0:0:
288,302,16271,2,0,P|330:303|369:321,2,85,8|0|8,0:0|0:0|0:0,0:0:0:0:
448,224,17604,6,0,B|444:200|444:200|410:149,1,85,8|0,0:0|0:0,0:0:0:0:
336,192,18271,2,0,B|302:141|302:141|298:117,1,85,8|0,0:0|0:0,0:0:0:0:
268,36,18937,2,0,B|240:12|240:12|204:52|176:128,1,170,8|8,0:0|0:0,0:0:0:0:
64,192,20271,5,12,0:0:0:0:
112,308,20604,1,0,0:0:0:0:
240,316,20937,1,8,0:0:0:0:
316,212,21271,1,0,0:0:0:0:
348,132,21493,1,0,0:0:0:0:
348,132,21604,2,0,P|393:177|397:239,2,127.500004863739,8|0|12,0:0|0:0|0:0,0:0:0:0:
104,56,22937,6,0,P|73:112|64:175,1,127.500004863739,8|0,0:0|0:0,0:0:0:0:
96,264,23437,1,0,0:0:0:0:
172,324,23604,2,0,P|228:355|291:355,1,127.500004863739,8|0,0:0|0:0,0:0:0:0:
382,266,24160,1,0,0:0:0:0:
382,266,24271,2,0,B|398:230|394:194|394:194|432:155,2,127.500004863739,8|0|12,0:0|0:0|0:0,0:0:0:0:
253,148,25604,6,0,P|293:76|374:73,1,170,8|8,0:0|0:0,0:0:0:0:
339,152,26604,2,0,B|356:176|356:176|406:199,1,85,0|8,0:0|0:0,0:0:0:0:
484,236,27271,1,0,0:0:0:0:
444,312,27604,2,0,P|402:320|361:309,1,85,8|0,0:0|0:0,0:0:0:0:
284,280,28271,6,0,B|224:276|224:276|200:284,1,85,8|0,0:0|0:0,0:0:0:0:
136,228,28937,2,0,B|112:236|112:236|52:232,1,85,8|0,0:0|0:0,0:0:0:0:
4,160,29604,2,0,P|8:118|34:85,1,85,8|0,0:0|0:0,0:0:0:0:
112,48,30104,1,0,0:0:0:0:
112,48,30271,6,0,L|197:48,1,85,8|0,0:0|0:0,0:0:0:0:
324,52,30937,6,0,P|388:104|400:186,1,170.000006484986,12|0,0:0|0:0,0:0:0:0:
380,272,31604,1,8,0:0:0:0:
268,328,31937,2,0,P|230:278|169:261,1,127.500004863739,0|8,0:0|0:0,0:0:0:0:
44,234,32604,1,0,0:0:0:0:
44,234,32937,2,0,P|51:171|92:124,1,127.500004863739,8|0,0:0|0:0,0:0:0:0:
171,225,33604,6,0,P|224:260|287:267,1,127.500004863739,8|0,0:0|0:0,0:0:0:0:
379,179,34271,1,8,0:0:0:0:
423,59,34604,2,0,P|461:75|486:109,1,85.0000032424928,0|0,0:0|0:0,0:0:0:0:
504,148,34937,6,8,L|509:190,1,42.5000016212464,8|0,0:0|0:0,0:0:0:0:
486,226,35160,2,8,L|491:268,1,42.5000016212464,8|8,0:0|0:0,0:0:0:0:
468,303,35382,2,0,P|435:330|419:369,1,85.0000032424928,8|8,0:0|0:0,0:0:0:0:
256,316,36271,6,0,B|232:288|232:288|98:288,1,170,8|8,0:0|0:0,0:0:0:0:
24,248,37271,2,0,B|4:216|4:216|35:87,1,170,0|0,0:0|0:0,0:0:0:0:
120,92,38271,2,0,P|198:115|266:67,1,170,8|8,0:0|0:0,0:0:0:0:
344,40,39271,2,0,P|408:91|409:173,1,170,0|0,0:0|0:0,0:0:0:0:
380,252,40270,6,0,P|344:229|325:191,1,85,8|0,0:0|0:0,0:0:0:0:
299,138,40770,1,0,0:0:0:0:
245,111,40937,1,8,0:0:0:0:
192,138,41104,2,0,L|167:172,1,42.5,0|8,0:0|0:0,0:0:0:0:
128,284,41604,5,8,0:0:0:0:
44,264,41937,1,0,0:0:0:0:
36,180,42270,1,8,0:0:0:0:
48,96,42604,6,0,P|51:53|71:17,1,85,0|8,0:0|0:0,0:0:0:0:
192,136,43270,1,0,0:0:0:0:
192,136,43604,2,0,L|198:178,1,42.5,8|0,0:0|0:0,0:0:0:0:
276,136,43937,2,0,L|269:93,1,42.5,8|0,0:0|0:0,0:0:0:0:
316,23,44270,6,0,P|397:33|443:102,1,170,8|8,0:0|0:0,0:0:0:0:
444,188,45270,2,0,L|496:255,2,85,8|8|0,0:0|0:0|0:0,0:0:0:0:
380,244,46270,2,0,B|349:251|317:247|317:247|296:296|237:314,1,170,8|8,0:0|0:0,0:0:0:0:
160,348,47270,2,0,P|156:305|169:266,1,85,8|8,0:0|0:0,0:0:0:0:
216,192,47937,1,0,0:0:0:0:
143,148,48270,6,0,P|174:118|214:106,2,85,8|0|8,0:0|0:0|0:0,0:0:0:0:
88,212,49270,2,0,B|48:240|48:240|32:172|46:119,1,170,0|0,0:0|0:0,0:0:0:0:
92,48,50270,2,0,P|130:29|172:23,2,85,8|0|8,0:0|0:0|0:0,0:0:0:0:
148,112,51270,2,0,P|189:106|228:87,2,85,0|8|0,0:0|0:0|0:0,0:0:0:0:
256,192,52270,1,0,0:0:0:0:
256,192,52436,12,12,54270,0:0:0:0:
105,278,54936,5,12,0:0:0:0:
168,120,55270,1,0,0:0:0:0:
320,196,55603,1,8,0:0:0:0:
329,280,55770,2,0,P|313:319|279:343,1,85,0|0,0:0|0:0,0:0:0:0:
220,284,56103,2,0,B|224:232|196:200|196:200|236:184|248:142,1,170,0|0,0:0|0:0,0:0:0:0:
256,60,56603,1,0,0:0:0:0:
116,192,56936,1,8,0:0:0:0:
256,324,57269,1,0,0:0:0:0:
387,191,57603,6,0,P|432:123|390:55,1,170,8|0,0:0|0:0,0:0:0:0:
204,47,58269,2,0,P|172:75|152:111,1,85,8|0,0:0|0:0,0:0:0:0:
234,258,58769,1,0,0:0:0:0:
388,191,59103,2,0,P|368:153|341:120,1,85,0|0,0:0|0:0,0:0:0:0:
108,16,59603,2,0,P|83:49|74:90,1,85,8|8,0:0|0:0,0:0:0:0:
200,104,59936,1,0,0:0:0:0:
100,240,60269,6,0,P|223:348|384:317,1,340,8|8,0:0|0:0,0:0:0:0:
508,200,61269,1,0,0:0:0:0:
476,120,61436,2,0,P|415:63|333:70,1,170,0|0,0:0|0:0,0:0:0:0:
256,108,61936,5,0,0:0:0:0:
256,276,62269,1,8,0:0:0:0:
256,108,62603,2,0,L|256:193,1,85,0|0,0:0|0:0,0:0:0:0:
256,276,62936,1,8,0:0:0:0:
104,188,63269,1,0,0:0:0:0:
172,138,63436,1,0,0:0:0:0:
333,187,63769,6,0,L|360:219,2,42.5,0|0|0,0:0|0:0|0:0,0:0:0:0:
325,102,64103,1,0,0:0:0:0:
244,88,64269,6,0,L|204:12,1,85,8|0,0:0|0:0,0:0:0:0:
133,63,64603,2,0,L|173:139,1,85,0|0,0:0|0:0,0:0:0:0:
104,188,64936,6,0,L|181:223,1,85,8|0,0:0|0:0,0:0:0:0:
256,152,65269,2,0,L|333:187,1,85,0|0,0:0|0:0,0:0:0:0:
423,138,65603,1,8,0:0:0:0:
290,269,65936,6,0,P|248:276|208:262,1,85,0|0,0:0|0:0,0:0:0:0:
256,152,66269,2,0,L|324:101,1,85,8|0,0:0|0:0,0:0:0:0:
383,40,66603,1,0,0:0:0:0:
460,80,66769,2,0,P|496:195|408:278,1,255,0|0,0:0|0:0,0:0:0:0:
291,71,67603,6,0,P|212:52|152:107,1,170,8|0,0:0|0:0,0:0:0:0:
296,208,68269,1,8,0:0:0:0:
460,252,68603,2,0,L|505:180,1,85,0|8,0:0|0:0,0:0:0:0:
376,72,69103,1,0,0:0:0:0:
292,72,69269,2,0,P|232:127|153:107,1,170,0|8,0:0|0:0,0:0:0:0:
213,48,69769,6,0,P|177:26|135:25,1,85,0|0,0:0|0:0,0:0:0:0:
53,52,70103,1,0,0:0:0:0:
31,132,70269,2,0,P|23:173|31:215,1,85,8|0,0:0|0:0,0:0:0:0:
172,308,70769,2,0,P|293:275|359:170,1,255,4|0,0:0|0:0,0:0:0:0:
188,164,71603,6,0,L|255:110,1,85,8|0,0:0|0:0,0:0:0:0:
224,32,71936,2,0,L|158:85,1,85,0|0,0:0|0:0,0:0:0:0:
96,144,72269,1,8,0:0:0:0:
124,292,72603,1,0,0:0:0:0:
268,216,72936,2,0,P|310:209|351:222,1,85,8|0,0:0|0:0,0:0:0:0:
432,198,73269,6,0,P|409:162|373:140,1,85,0|0,0:0|0:0,0:0:0:0:
288,128,73603,2,0,P|208:152|149:211,1,170,8|0,0:0|0:0,0:0:0:0:
256,344,74269,1,8,0:0:0:0:
326,274,74436,1,0,0:0:0:0:
256,203,74603,1,0,0:0:0:0:
186,274,74769,1,0,0:0:0:0:
186,274,74936,6,0,P|108:280|83:205,1,170,8|0,0:0|0:0,0:0:0:0:
256,204,75603,1,8,0:0:0:0:
256,344,75769,1,0,0:0:0:0:
256,344,76103,2,0,B|303:315|303:315|387:323|416:298,1,170,4|0,0:0|0:0,0:0:0:0:
356,236,76603,6,0,P|387:207|425:187,1,85,0|0,0:0|0:0,0:0:0:0:
381,91,76936,2,0,P|349:120|313:142,1,85,8|0,0:0|0:0,0:0:0:0:
236,108,77269,1,0,0:0:0:0:
164,156,77436,1,0,0:0:0:0:
82,176,77603,2,0,P|53:208|38:247,1,85,8|0,0:0|0:0,0:0:0:0:
60,332,77935,5,0,0:0:0:0:
60,332,78103,1,0,0:0:0:0:
142,328,78269,2,0,P|184:327|217:300,1,85,8|0,0:0|0:0,0:0:0:0:
292,276,78603,2,0,P|340:344|421:364,1,170,0|8,0:0|0:0,0:0:0:0:
412,236,79103,5,0,0:0:0:0:
360,120,79269,1,0,0:0:0:0:
256,192,79436,1,0,0:0:0:0:
87,215,79769,2,0,P|108:276|143:329,1,127.5,0|0,0:0|0:0,0:0:0:0:
292,275,80269,6,0,P|292:318|271:354,1,85,8|0,0:0|0:0,0:0:0:0:
144,329,80603,1,0,0:0:0:0:
87,215,80769,1,0,0:0:0:0:
280,180,81103,2,0,P|341:163|382:117,1,127.5,0|0,0:0|0:0,0:0:0:0:
252,20,81603,5,8,0:0:0:0:
320,68,81769,2,0,P|289:95|248:104,1,85,0|0,0:0|0:0,0:0:0:0:
164,92,82103,1,0,0:0:0:0:
96,144,82269,1,8,0:0:0:0:
144,212,82436,1,0,0:0:0:0:
96,284,82603,1,0,0:0:0:0:
164,331,82769,2,0,P|199:356|239:370,2,85,0|8|0,0:0|0:0|0:0,0:0:0:0:
332,188,83436,6,0,P|297:211|256:220,1,85,0|8,0:0|0:0,0:0:0:0:
176,144,83769,2,0,P|212:120|253:111,1,85,0|0,0:0|0:0,0:0:0:0:
259,35,84103,1,0,0:0:0:0:
98,125,84269,1,8,0:0:0:0:
256,220,84436,1,0,0:0:0:0:
168,332,84769,6,0,P|146:296|128:257,1,85,0|8,0:0|0:0,0:0:0:0:
256,220,85103,1,0,0:0:0:0:
380,192,85269,1,0,0:0:0:0:
344,316,85436,1,0,0:0:0:0:
468,288,85603,6,0,L|499:318,4,42.5,8|0|0|0|0,0:0|0:0|0:0|0:0|0:0,0:0:0:0:
380,191,86103,2,0,P|405:111|462:49,1,170,0|0,0:0|0:0,0:0:0:0:
288,128,86686,1,0,0:0:0:0:
236,312,86936,6,0,L|236:354,4,42.5,8|0|0|0|0,0:0|0:0|0:0|0:0|0:0,0:0:0:0:
230,180,87436,2,0,P|156:140|72:134,1,170,0|0,0:0|0:0,0:0:0:0:
248,60,88019,1,0,0:0:0:0:
440,48,88269,6,0,L|471:17,4,42.5,8|0|0|0|0,0:0|0:0|0:0|0:0|0:0,0:0:0:0:
410,172,88769,2,0,P|411:255|360:320,1,170,0|0,0:0|0:0,0:0:0:0:
230,180,89353,2,0,L|129:258,1,127.5,0|0,0:0|0:0,0:0:0:0:
