osu file format v13

[General]
AudioFilename: LIAR MASK.mp3
AudioLeadIn: 1500
PreviewTime: 54936
Countdown: 0
SampleSet: Soft
StackLeniency: 0.7
Mode: 0
LetterboxInBreaks: 0
WidescreenStoryboard: 0

[Editor]
DistanceSpacing: 0.8
BeatDivisor: 4
GridSize: 4
TimelineZoom: 1.9

[Metadata]
Title:Liar Mask anime size
TitleUnicode:Liar Mask anime size
Artist:Mayama Rika
ArtistUnicode:真山りか
Creator:Setsurei
Version:Easy
Source:アカメが斬る!
Tags:Akame ga Kill! kiru 2nd Opening second WHITE FOX Square Enix TV
BeatmapID:525538
BeatmapSetID:222671

[Difficulty]
HPDrainRate:2
CircleSize:2.5
OverallDifficulty:1
ApproachRate:3
SliderMultiplier:1.1
SliderTickRate:1

[Events]
//Background and Video events
0,0,"BG.jpg",0,0
Video,0,"OP2.avi"
//Break Periods
//Storyboard Layer 0 (Background)
//Storyboard Layer 1 (Fail)
//Storyboard Layer 2 (Pass)
//Storyboard Layer 3 (Foreground)
//Storyboard Sound Samples
//Background Colour Transformations
3,100,163,162,255

[TimingPoints]
1462,400,4,2,2,30,1,0
1462,-100,4,2,2,30,0,0
7862,-100,4,2,1,50,0,0
13862,-100,4,2,2,50,0,0
14938,333.333333333333,4,2,2,30,1,0
14938,-100,4,2,2,30,0,0
20271,-100,4,2,1,50,0,0
25604,-100,4,2,2,30,0,0
30937,-100,4,2,1,50,0,0
36271,333.333333333333,3,2,2,30,1,0
36271,-100,3,2,2,30,0,0
52270,333.333333333333,4,2,1,30,1,0
52270,-100,4,2,1,50,0,0
54936,-100,4,2,1,70,0,1
78936,-100,4,2,1,70,0,0
89603,-100,4,2,2,20,0,0

[Colours]
Combo1 : 191,85,85
Combo2 : 99,84,84
Combo3 : 216,142,118
Combo4 : 148,136,129

[HitObjects]
176,307,1462,6,0,P|74:297|58:196,1,220,8|8,0:0|0:0,0:0:0:0:
132,148,2662,1,0,0:0:0:0:
220,148,3062,2,0,B|272:120|256:40|256:40|304:24|347:56,1,220,8|8,0:0|0:0,0:0:0:0:
408,120,4262,1,0,0:0:0:0:
432,204,4662,6,0,P|427:311|341:374,1,220,8|8,0:0|0:0,0:0:0:0:
256,352,5862,1,0,0:0:0:0:
170,373,6262,2,0,P|84:310|80:204,1,220,8|8,0:0|0:0,0:0:0:0:
112,122,7462,1,0,0:0:0:0:
173,56,7862,6,0,B|223:64|223:64|232:114|273:131|273:131|323:73|323:73|363:153|409:126,1,330,12|0,0:0|0:0,0:0:0:0:
476,72,9462,1,12,0:0:0:0:
492,158,9862,2,0,P|457:200|405:216,1,110,0|8,0:0|0:0,0:0:0:0:
317,219,10662,1,0,0:0:0:0:
252,279,11062,6,0,P|148:297|68:225,1,220,12|8,0:0|0:0,0:0:0:0:
88,140,12262,1,0,0:0:0:0:
141,69,12662,2,0,B|176:49|176:49|208:97|252:85|252:85|299:148|299:148|335:140|427:148|415:284|348:291,1,440,12|8,0:0|0:0,0:0:0:0:
175,312,14938,6,0,P|77:269|43:168,1,220,8|8,0:0|0:0,0:0:0:0:
116,119,15937,1,0,0:0:0:0:
194,158,16271,2,0,P|233:196|243:250,1,110,8|0,0:0|0:0,0:0:0:0:
259,336,16937,2,0,P|308:311|329:262,1,110,8|0,0:0|0:0,0:0:0:0:
360,179,17604,6,0,B|384:132|384:132|470:130|489:58|480:23,1,220,8|8,0:0|0:0,0:0:0:0:
393,42,18604,1,0,0:0:0:0:
312,79,18937,2,0,P|211:111|118:59,1,220,8|8,0:0|0:0,0:0:0:0:
60,224,20271,6,0,B|128:260|136:296|136:296|172:332|216:312|240:268|240:268|284:296|332:268,1,330,12|0,0:0|0:0,0:0:0:0:
288,192,21604,2,0,P|341:181|390:204,2,110,8|0|12,0:0|0:0|0:0,0:0:0:0:
110,195,22937,6,0,B|56:184|56:184|44:128|0:112|0:112|52:16|148:48,1,330,8|0,0:0|0:0,0:0:0:0:
238,60,24271,2,0,P|215:109|168:136,2,110,8|8|12,0:0|0:0|0:0,0:0:0:0:
415,48,25604,6,0,B|444:24|496:16|496:16|528:104|472:116|472:116|504:224|336:172|373:296,1,440,8|8,0:0|0:0,0:0:0:0:
328,372,27271,2,0,P|291:331|285:278,1,110,0|8,0:0|0:0,0:0:0:0:
107,275,28271,6,0,P|60:180|100:82,1,220,8|8,0:0|0:0,0:0:0:0:
184,48,29271,1,0,0:0:0:0:
264,84,29604,2,0,P|277:135|262:188,1,110,8|0,0:0|0:0,0:0:0:0:
192,240,30271,2,0,P|224:283|276:301,1,110,12|0,0:0|0:0,0:0:0:0:
362,288,30937,6,0,P|422:200|383:102,1,220,12|8,0:0|0:0,0:0:0:0:
309,55,31937,1,0,0:0:0:0:
220,43,32271,2,0,P|166:56|122:87,1,110,8|0,0:0|0:0,0:0:0:0:
35,86,32937,2,0,P|50:138|94:170,1,110,8|0,0:0|0:0,0:0:0:0:
184,180,33604,6,0,B|217:181|245:141|245:141|281:225|358:206,1,220,8|8,0:0|0:0,0:0:0:0:
334,121,34604,1,0,0:0:0:0:
419,143,34937,2,0,P|436:245|345:293,1,220,8|8,0:0|0:0,0:0:0:0:
172,296,36271,6,0,P|80:239|45:136,1,220,8|8,0:0|0:0,0:0:0:0:
116,84,37271,2,0,P|208:141|243:244,1,220,0|0,0:0|0:0,0:0:0:0:
244,332,38271,2,0,B|324:320|332:240|332:240|368:248|409:225,1,220,8|8,0:0|0:0,0:0:0:0:
460,152,39271,2,0,L|476:43,2,110,0|8|0,0:0|0:0|0:0,0:0:0:0:
370,147,40270,6,0,B|312:148|280:91|252:36|187:40,1,220,8|8,0:0|0:0,0:0:0:0:
138,114,41270,2,0,P|141:168|180:206,2,110,8|8|0,0:0|0:0|0:0,0:0:0:0:
52,136,42270,2,0,P|87:237|179:294,1,220,8|8,0:0|0:0,0:0:0:0:
268,304,43270,2,0,P|322:308|369:282,2,110,0|8|0,0:0|0:0|0:0,0:0:0:0:
303,224,44270,6,0,P|352:129|299:38,1,220,12|8,0:0|0:0,0:0:0:0:
212,38,45270,2,0,P|159:129|208:224,1,220,8|0,0:0|0:0,0:0:0:0:
160,300,46270,2,0,P|90:216|73:108,1,220,8|8,0:0|0:0,0:0:0:0:
135,46,47270,2,0,P|187:33|238:52,1,110,8|8,0:0|0:0,0:0:0:0:
326,63,47937,1,0,0:0:0:0:
412,52,48270,6,0,B|456:40|456:40|522:116|487:202,1,220,8|8,0:0|0:0,0:0:0:0:
400,200,49270,2,0,B|340:236|360:344|360:344|299:346,1,220,0|0,0:0|0:0,0:0:0:0:
213,351,50270,2,0,B|156:352|116:332|36:196|120:120|120:120|152:192|208:204|208:204|223:128|261:106,1,550,8|0,0:0|0:0,0:0:0:0:
324,168,52270,6,0,P|298:215|318:264,2,110,12|0|8,0:0|0:0|0:0,0:0:0:0:
344,83,53270,1,0,0:0:0:0:
257,62,53603,2,0,L|147:50,2,110,12|0|12,0:0|0:0|0:0,0:0:0:0:
424,120,54936,6,0,B|432:200|384:248|384:248|308:220|308:220|304:280|243:301,1,330,12|0,0:0|0:0,0:0:0:0:
180,364,56269,2,0,B|171:331|128:320|128:320|224:244|71:231|166:180|166:180|135:143|142:104,1,330,8|0,0:0|0:0,0:0:0:0:
230,118,57603,2,0,B|264:198|340:154|340:154|346:223|396:254|396:254|439:229|466:243,1,330,8|0,0:0|0:0,0:0:0:0:
445,328,58936,2,0,P|337:341|243:288,1,220,8|8,0:0|0:0,0:0:0:0:
200,212,59936,1,0,0:0:0:0:
280,173,60269,6,0,P|189:125|111:192,1,220,8|8,0:0|0:0,0:0:0:0:
35,158,61269,2,0,P|101:71|205:42,1,220,0|0,0:0|0:0,0:0:0:0:
291,65,62269,2,0,P|333:98|361:146,1,110,8|0,0:0|0:0,0:0:0:0:
376,232,62936,6,0,B|364:272|364:272|207:356,1,220,8|8,0:0|0:0,0:0:0:0:
120,372,63936,1,0,0:0:0:0:
80,292,64269,2,0,L|178:241,1,110,8|0,0:0|0:0,0:0:0:0:
132,164,64936,6,0,L|35:216,2,110,8|0|8,0:0|0:0|0:0,0:0:0:0:
209,121,65936,1,0,0:0:0:0:
243,42,66269,2,0,P|294:131|224:207,1,220,8|8,0:0|0:0,0:0:0:0:
151,254,67269,2,0,B|107:295|107:295|140:355|251:350,1,220,0|0,0:0|0:0,0:0:0:0:
332,316,68269,6,0,B|364:281|368:241|368:241|383:234|383:234|425:233|465:202|471:165,1,220,8|8,0:0|0:0,0:0:0:0:
384,140,69269,2,0,B|369:155|333:139|285:203|285:203|293:255|243:287,1,220,0|0,0:0|0:0,0:0:0:0:
198,211,70269,2,0,P|159:249|152:303,1,110,8|0,0:0|0:0,0:0:0:0:
212,368,70936,6,0,B|264:372|264:372|344:316|424:333,1,220,8|8,0:0|0:0,0:0:0:0:
476,264,71936,2,0,B|480:216|480:216|409:151|409:65,1,220,0|0,0:0|0:0,0:0:0:0:
328,32,72936,2,0,P|229:73|129:34,1,220,8|8,0:0|0:0,0:0:0:0:
56,80,73936,6,0,B|36:124|36:124|82:211|52:291,1,220,0|0,0:0|0:0,0:0:0:0:
120,348,74936,2,0,P|151:244|137:136,1,220,8|8,0:0|0:0,0:0:0:0:
242,53,76103,6,0,B|332:56|356:36|356:36|388:100|463:149,1,275,8|8,0:0|0:0,0:0:0:0:
492,232,77269,2,0,B|432:244|432:244|364:208|312:142,1,220,0|0,0:0|0:0,0:0:0:0:
225,135,78269,2,0,B|228:156|228:156|236:192|276:229,1,110,8|0,0:0|0:0,0:0:0:0:
256,192,78936,12,8,81603,0:0:0:0:
233,260,83103,6,0,B|215:270|158:297|110:273|63:217|58:182,1,220,8|8,0:0|0:0,0:0:0:0:
133,23,84436,2,0,B|150:14|207:-13|255:11|302:67|307:102,1,220,8|8,0:0|0:0,0:0:0:0:
441,111,85603,6,0,B|452:256|376:332|376:332|352:240|320:220|320:220|304:300|240:336|240:336|188:264|84:144|168:84|196:92|196:92|226:105|284:136|232:304|228:366|128:260|25:102|-8:288|-18:359|75:394|107:347,1,1320,8|0,0:0|0:0,0:0:0:0:
