osu file format v13

[General]
AudioFilename: LIAR MASK.mp3
AudioLeadIn: 1500
PreviewTime: 54936
Countdown: 0
SampleSet: Normal
StackLeniency: 0.7
Mode: 0
LetterboxInBreaks: 0
WidescreenStoryboard: 0

[Editor]
DistanceSpacing: 0.7
BeatDivisor: 4
GridSize: 4
TimelineZoom: 3.499999

[Metadata]
Title:Liar Mask anime size
TitleUnicode:Liar Mask anime size
Artist:Mayama Rika
ArtistUnicode:真山りか
Creator:Aerous
Version:captin's Insane
Source:アカメが斬る!
Tags:agk Akame ga Kill! Second Opening TV Sellenite IamKwan captin1 -Yuzuriha-inori-
BeatmapID:524096
BeatmapSetID:224203

[Difficulty]
HPDrainRate:7
CircleSize:4.2
OverallDifficulty:8
ApproachRate:9.2
SliderMultiplier:1.8
SliderTickRate:1

[Events]
//Background and Video events
Video,0,"Second Opening.avi"
0,0,"ThanksGaia.jpg",0,0
//Break Periods
//Storyboard Layer 0 (Background)
//Storyboard Layer 1 (Fail)
//Storyboard Layer 2 (Pass)
//Storyboard Layer 3 (Foreground)
//Storyboard Sound Samples

[TimingPoints]
-118,400,4,2,3,20,1,0
1482,-200,4,2,3,20,0,0
7862,400,4,2,3,50,1,0
7862,-133.333333333333,4,2,3,50,0,0
14938,333.333333333333,4,2,3,30,1,0
14938,-200,4,2,3,30,0,0
20271,-133.333333333333,4,2,3,50,0,0
25604,-200,4,2,3,30,0,0
30271,-400,4,2,3,30,0,0
30937,-133.333333333333,4,2,3,50,0,0
36271,333.333333333333,3,2,3,30,1,0
36271,-200,3,2,3,30,0,0
52270,333.333333333333,4,2,3,30,1,0
52270,-83.3333333333333,4,1,3,50,0,0
54936,-100,4,1,3,70,0,1
64936,-83.3333333333333,4,1,3,70,0,1
65603,-100,4,1,3,70,0,1
78936,-100,4,1,3,70,0,0
84269,-76.9230769230769,4,1,3,70,0,0
85603,-76.9230769230769,4,1,3,80,0,0
89519,-76.9230769230769,4,1,3,5,0,0

[Colours]
Combo1 : 6,140,185
Combo2 : 181,174,175
Combo3 : 231,0,20
Combo4 : 87,89,88
Combo5 : 244,123,132

[HitObjects]
52,273,1482,6,0,P|108:281|156:281,1,90,2|0,0:0|0:0,0:0:0:0:
258,268,2282,2,0,P|302:269|347:276,1,90,2|0,0:0|0:0,0:0:0:0:
460,111,2982,1,0,0:0:0:0:
460,111,3082,2,0,P|404:103|356:103,1,90,2|0,0:0|0:0,0:0:0:0:
254,116,3882,2,0,P|209:114|164:107,1,90,2|0,0:0|0:0,0:0:0:0:
53,197,4682,6,0,P|55:233|55:301,2,90,2|0|0,0:0|0:0|0:0,0:0:0:0:
182,298,5882,1,2,0:0:0:0:
322,218,6182,1,0,0:0:0:0:
322,218,6282,2,0,P|356:213|427:213,1,90,2|0,0:0|0:0,0:0:0:0:
490,230,6882,1,0,0:0:0:0:
499,149,7082,2,0,P|468:131|395:115,1,90
338,133,7615,2,0,P|301:138|282:138,1,30
403,182,7862,6,0,P|417:142|369:58,1,135.000005149842,4|0,0:2|0:0,0:1:0:0:
109,202,8662,2,0,P|95:242|143:326,1,135.000005149842
436,73,9462,6,0,P|401:73|334:53,1,101.250003862381,4|0,0:0|0:0,0:0:0:0:
308,39,9862,2,0,L|224:44,1,67.5000025749208
123,130,10262,1,8,1:0:0:0:
397,149,10662,1,8,0:3:0:0:
273,228,10862,1,0,0:0:0:0:
498,226,11062,6,0,P|446:221|371:233,1,101.250003862381,4|0,0:1|0:0,0:0:0:0:
371,249,11462,2,0,L|376:326,1,67.5000025749208,8|0,0:0|0:0,0:0:0:0:
479,149,11862,1,8,0:3:0:0:
327,99,12062,1,0,0:0:0:0:
239,231,12262,2,0,P|279:222|318:211,1,67.5000025749208,8|0,0:3|0:0,0:0:0:0:
136,350,12662,5,4,1:0:0:0:
256,192,12762,12,2,14938,0:0:0:0:
194,154,15493,5,0,0:0:0:0:
203,182,15604,2,0,P|204:248|201:274,1,90,2|0,0:0|0:0,0:0:0:0:
367,349,16160,1,0,0:0:0:0:
396,345,16271,1,2,0:0:0:0:
168,352,16604,2,0,P|123:346|92:338,1,60,2|0,0:0|0:0,0:0:0:0:
37,343,16937,2,0,P|47:306|50:291,1,45,2|0,0:0|0:0,0:0:0:0:
112,216,17271,2,0,L|106:194|100:172,1,45
40,55,17604,6,0,P|90:56|139:48,1,90,2|0,0:0|0:0,0:0:0:0:
436,45,18271,2,0,P|436:74|445:115,1,60
491,159,18604,2,0,P|491:188|482:229,1,60,2|0,0:0|0:0,0:0:0:0:
444,278,18937,1,2,0:0:0:0:
92,221,19437,1,0,0:0:0:0:
92,221,19521,1,0,0:0:0:0:
92,221,19604,2,0,L|79:114,1,90,2|0,0:0|0:0,0:0:0:0:
17,32,20104,1,0,0:0:0:0:
224,54,20271,5,4,1:0:0:0:
186,231,20437,1,0,0:0:0:0:
151,25,20604,1,0,0:0:0:0:
461,156,20937,2,0,P|405:156|350:166,1,90.0000034332277,8|0,1:0|0:0,0:0:0:0:
295,220,21271,2,0,L|302:321,1,90.0000034332277
241,366,21604,1,0,0:0:0:0:
57,175,21937,2,0,P|64:129|68:82,1,90.0000034332277,0|0,1:0|0:0,0:0:0:0:
131,212,22271,2,0,P|129:258|122:352,1,135.000005149842,8|0,1:0|0:0,0:0:0:0:
462,96,22937,6,0,P|412:102|298:99,1,135.000005149842,0|0,1:0|0:0,0:0:0:0:
204,32,23437,1,0,1:0:0:0:
204,32,23521,1,0,0:0:0:0:
204,32,23604,2,0,P|210:74|211:115,1,67.5000025749208,8|0,1:0|0:0,0:0:0:0:
155,228,23937,2,0,P|195:225|248:229,1,90.0000034332277
318,268,24271,1,0,0:0:0:0:
378,59,24604,2,0,P|383:94|434:116,1,90.0000034332277,0|0,1:0|0:0,0:0:0:0:
309,115,24937,2,0,P|246:114|155:113,1,135.000005149842,12|0,1:0|0:0,0:0:0:0:
421,322,25604,6,0,P|420:298|420:233,1,90,2|0,0:0|0:0,0:0:0:0:
465,56,26271,2,0,P|466:80|466:120,1,60,2|0,0:0|0:0,0:0:0:0:
330,146,26604,2,0,P|364:142|391:141,1,60
389,227,26937,1,0,0:0:0:0:
115,194,27271,2,0,P|143:193|177:193,1,60,2|0,0:0|0:0,0:0:0:0:
262,212,27604,2,0,P|258:176|258:164,1,45,2|0,0:0|0:0,0:0:0:0:
315,320,27937,2,0,P|319:356|319:368,1,45
389,227,28271,6,0,P|382:192|381:136,1,90,2|0,0:0|0:0,0:0:0:0:
181,304,28937,2,0,P|159:305|110:301,1,60,2|0,0:0|0:0,0:0:0:0:
80,173,29271,2,0,P|102:172|151:176,1,60
250,251,29604,2,0,P|286:257|339:259,1,90,2|0,0:0|0:0,0:0:0:0:
461,175,30104,1,0,0:0:0:0:
461,175,30187,1,0,0:0:0:0:
461,175,30271,6,0,P|451:142|484:136,1,67.5,2|0,0:0|0:0,0:0:0:0:
381,182,30937,6,0,P|298:182|274:184,1,90.0000034332277,0|0,1:0|0:0,0:0:0:0:
185,304,31382,1,0,1:0:0:0:
338,106,31604,2,0,P|344:70|350:8,1,90.0000034332277,8|0,1:0|0:0,0:0:0:0:
316,266,32049,1,0,1:0:0:0:
131,171,32271,6,0,P|72:168|17:174,1,90.0000034332277,0|0,1:0|0:0,0:0:0:0:
257,333,32715,1,0,1:0:0:0:
176,93,32937,2,0,P|136:95|104:92,1,67.5000025749208,8|0,1:0|0:0,0:0:0:0:
248,233,33271,2,0,P|214:230|180:232,1,67.5000025749208,0|0,0:0|0:0,0:0:0:0:
258,85,33604,6,0,P|303:76|351:76,1,90.0000034332277,0|0,1:0|0:0,0:0:0:0:
387,274,34049,1,0,1:0:0:0:
78,218,34271,1,8,1:0:0:0:
127,76,34493,1,0,0:0:0:0:
135,322,34715,2,0,L|135:354|135:370,1,45.0000017166138,0|0,1:0|0:0,0:0:0:0:
3,290,34937,5,0,1:0:0:0:
207,156,35160,1,8,1:0:0:0:
212,231,35271,1,0,1:0:0:0:
145,196,35382,1,0,1:0:0:0:
336,130,35604,2,0,P|377:126|399:119,1,45.0000017166138,8|0,1:0|0:0,0:0:0:0:
289,232,35826,2,0,P|325:212|342:197,1,45.0000017166138,8|0,0:3|0:0,0:0:0:0:
276,342,36049,2,0,P|302:310|312:289,1,45.0000017166138,8|0,0:3|0:0,0:0:0:0:
166,314,36271,6,0,P|126:324|77:322,2,90,6|0|0,0:0|0:0|0:0,0:0:0:0:
223,38,37271,2,0,P|226:75|224:139,1,90,2|0,0:0|0:0,0:0:0:0:
131,231,37771,1,0,0:0:0:0:
307,193,37937,2,0,P|346:186|395:184,1,67.5
452,199,38271,6,0,P|464:160|466:95,1,90,2|0,0:0|0:0,0:0:0:0:
336,47,38771,1,0,0:0:0:0:
217,128,38937,1,0,0:0:0:0:
472,284,39271,2,0,P|438:281|405:274,1,67.5,2|0,0:0|0:0,0:0:0:0:
335,320,39604,2,0,P|308:319|285:320,1,45
265,209,39937,2,0,P|238:210|215:209,1,45
101,320,40270,6,0,P|120:280|128:233,1,90,6|0,0:0|0:0,0:0:0:0:
63,114,40770,1,0,0:0:0:0:
164,24,40937,2,0,P|194:20|218:20,1,45,0|0,0:0|0:0,0:0:0:0:
309,70,41270,2,0,P|309:119|313:164,2,90,2|0|0,0:0|0:0|0:0,0:0:0:0:
283,338,42270,6,0,P|337:326|392:329,1,90,2|0,0:0|0:0,0:0:0:0:
447,347,42770,1,0,0:0:0:0:
295,259,42937,1,0,0:0:0:0:
148,357,43104,1,0,0:0:0:0:
45,215,43270,2,0,P|37:180|38:160,1,45,2|0,0:0|0:0,0:0:0:0:
218,183,43604,2,0,P|226:148|225:128,1,45,2|0,0:0|0:0,0:0:0:0:
360,257,43937,2,0,P|352:222|353:202,1,45,2|0,0:0|0:0,0:0:0:0:
108,117,44270,5,6,0:0:0:0:
57,318,44604,1,0,0:0:0:0:
256,262,44937,1,0,0:0:0:0:
404,117,45270,1,2,0:0:0:0:
455,318,45604,1,0,0:0:0:0:
256,262,45937,1,0,0:0:0:0:
141,84,46187,5,0,0:0:0:0:
141,84,46270,2,0,P|192:88|218:87,1,67.5,2|0,0:0|0:0,0:0:0:0:
320,65,46604,2,0,P|291:107|278:130,1,67.5
253,230,46937,2,0,P|230:183|217:161,1,67.5
148,163,47270,1,2,0:0:0:0:
433,164,47604,1,0,0:0:0:0:
243,130,47937,1,0,0:0:0:0:
337,347,48270,6,0,P|329:316|322:249,1,90,6|0,0:0|0:0,0:0:0:0:
364,117,48937,1,0,0:0:0:0:
164,262,49270,2,0,P|132:264|114:262,1,45,2|0,0:0|0:0,0:0:0:0:
358,199,49604,2,0,P|390:197|408:199,1,45
63,308,49937,2,0,P|49:279|46:254,1,45
78,39,50270,6,0,P|92:68|95:93,1,45,2|0,0:0|0:0,0:0:0:0:
260,345,50604,2,0,P|252:319|251:291,1,45,2|0,0:0|0:0,0:0:0:0:
434,39,50937,2,0,P|420:68|417:93,1,45,2|0,0:0|0:0,0:0:0:0:
78,345,51270,6,0,P|92:316|95:291,1,45,2|0,0:0|0:0,0:0:0:0:
260,39,51604,2,0,P|252:65|251:93,1,45,2|0,0:0|0:0,0:0:0:0:
434,345,51937,2,0,P|420:316|417:291,1,45,2|0,0:0|0:0,0:0:0:0:
125,91,52270,5,4,0:0:0:0:
144,296,52436,1,0,0:0:0:0:
209,104,52603,1,8,0:0:0:0:
77,227,52769,5,0,0:0:0:0:
63,255,52853,1,0,0:0:0:0:
55,285,52936,1,0,0:0:0:0:
57,316,53020,1,0,0:0:0:0:
65,346,53103,2,0,L|119:355,1,53.9999983520508
241,300,53270,1,8,0:0:0:0:
272,301,53353,1,0,0:0:0:0:
303,302,53436,1,0,0:0:0:0:
334,303,53520,1,0,0:0:0:0:
365,304,53603,6,0,P|372:263|374:234,1,53.9999983520508,8|0,0:3|0:0,0:0:0:0:
159,230,53770,2,0,P|152:189|150:160,1,53.9999983520508,8|0,0:3|0:0,0:0:0:0:
289,14,53936,2,0,P|296:55|298:84,1,53.9999983520508,8|0,0:3|0:0,0:0:0:0:
74,141,54103,2,0,P|77:114|83:88,1,53.9999983520508,0|0,0:0|0:0,0:0:0:0:
382,42,54270,6,2,B|407:95|407:95|389:123|392:149|392:149|418:190|409:251,1,215.999993408203,2|0,0:0|2:0,0:0:0:0:
29,255,54936,6,0,P|94:253|143:254,1,90,4|0,0:0|0:0,0:0:0:0:
301,337,55270,2,0,P|287:288|285:189,1,135,8|0,0:0|0:0,0:0:0:0:
304,127,55603,1,0,0:0:0:0:
120,328,55770,2,0,P|164:327|209:329,1,90,0|8,0:0|0:0,0:0:0:0:
490,256,56103,6,0,P|405:257|363:183,1,180,4|0,0:0|0:0,0:0:0:0:
476,46,56603,2,0,B|476:101|476:101|452:177,1,135,8|0,0:0|0:0,0:0:0:0:
380,320,56936,1,0,0:0:0:0:
382,105,57103,1,0,0:0:0:0:
496,261,57269,2,0,P|442:243|378:246,1,90,8|0,0:0|0:0,0:0:0:0:
207,287,57603,6,0,L|315:291,1,90,4|0,0:0|0:0,0:0:0:0:
410,56,57936,2,0,L|275:63,1,135,8|0,0:0|0:0,0:0:0:0:
225,127,58269,1,0,0:0:0:0:
332,350,58436,2,0,P|344:295|349:260,1,90,0|8,0:0|0:0,0:0:0:0:
128,281,58769,6,0,P|104:209|99:102,1,180,4|0,0:0|0:0,0:0:0:0:
178,51,59186,1,0,0:0:0:0:
178,51,59269,2,0,L|276:49,1,90,8|0,0:0|0:0,0:0:0:0:
19,186,59603,1,0,0:0:0:0:
233,223,59769,1,0,0:0:0:0:
2,278,59936,2,0,P|71:254|145:269,1,135,8|0,0:0|0:0,0:0:0:0:
256,326,60269,6,0,P|320:336|442:302,1,180,4|8,0:0|0:0,0:0:0:0:
204,186,60936,1,0,0:0:0:0:
327,179,61103,1,0,0:0:0:0:
165,82,61269,1,8,0:0:0:0:
143,314,61436,6,0,P|66:346|11:282,1,180,4|0,0:0|0:0,0:0:0:0:
90,104,61936,2,0,L|90:238,1,135,8|0,0:0|0:0,0:0:0:0:
225,345,62269,2,0,L|224:233,1,90
13,75,62603,2,0,L|14:187,1,90,8|0,0:0|0:0,0:0:0:0:
308,292,62936,5,4,0:0:0:0:
90,266,63103,2,0,P|146:261|188:263,1,90,0|8,0:0|0:0,0:0:0:0:
475,85,63436,2,2,P|419:90|377:88,1,90,2|0,0:0|0:0,0:0:0:0:
159,37,63769,1,8,0:3:0:0:
143,64,63853,1,0,0:0:0:0:
137,94,63936,1,0,0:0:0:0:
137,125,64019,1,0,0:0:0:0:
147,154,64103,2,2,P|211:148|256:153,1,90,10|0,0:0|0:0,0:0:0:0:
393,258,64436,5,0,0:0:0:0:
393,258,64519,1,0,0:0:0:0:
393,258,64603,2,0,P|367:203|361:152,1,90,8|0,0:0|0:0,0:0:0:0:
466,16,64936,2,0,P|469:40|469:90,1,53.9999983520508,8|0,0:0|0:0,0:0:0:0:
469,227,65103,2,0,P|465:261|464:294,1,53.9999983520508,8|0,0:0|0:0,0:0:0:0:
271,360,65269,2,0,P|268:336|268:286,1,53.9999983520508,8|0,0:0|0:0,0:0:0:0:
268,149,65436,2,0,P|272:115|273:82,1,53.9999983520508,8|0,0:0|0:0,0:0:0:0:
47,43,65603,6,0,P|43:82|43:152,1,90,4|0,0:0|0:0,0:0:0:0:
174,268,65936,2,0,P|133:263|38:268,1,135,8|0,0:0|0:0,0:0:0:0:
23,347,66269,1,0,0:0:0:0:
182,171,66436,2,0,P|196:101|198:63,1,90,0|8,0:0|0:0,0:0:0:0:
418,282,66769,6,0,P|351:288|251:212,1,180,4|0,0:0|0:0,0:0:0:0:
79,152,67269,2,0,P|84:197|95:241,1,90,8|0,0:0|0:0,0:0:0:0:
177,32,67603,1,0,0:0:0:0:
180,278,67769,1,0,0:0:0:0:
5,119,67936,2,0,P|10:74|20:30,1,90,8|0,0:0|0:0,0:0:0:0:
312,60,68269,5,4,0:0:0:0:
118,119,68436,2,0,L|224:118,1,90,0|8,0:0|0:0,0:0:0:0:
384,245,68769,2,0,P|308:288|233:246,1,180,0|8,0:0|0:0,0:0:0:0:
397,152,69269,2,2,P|472:195|472:281,1,180,6|0,0:0|0:0,0:0:0:0:
218,331,69769,6,0,P|190:308|181:293,1,45,8|0,0:0|0:0,0:0:0:0:
83,302,69936,2,0,P|72:267|73:249,1,45,8|0,0:3|0:3,0:0:0:0:
14,175,70103,2,0,P|24:140|35:126,1,45,8|0,0:3|0:0,0:0:0:0:
238,48,70269,1,8,0:0:0:0:
252,76,70353,1,0,0:0:0:0:
258,106,70436,1,0,0:0:0:0:
260,137,70519,1,0,0:0:0:0:
256,168,70603,1,0,0:0:0:0:
182,362,70769,6,0,P|159:289|185:187,1,180,4|0,0:0|0:0,0:0:0:0:
327,57,71269,2,0,P|338:124|332:191,1,135,8|0,0:0|0:0,0:0:0:0:
255,274,71603,1,0,0:0:0:0:
143,102,71769,1,0,0:0:0:0:
332,191,71936,1,8,0:0:0:0:
154,216,72103,6,0,P|100:228|31:141,1,180,4|0,0:0|0:0,0:0:0:0:
301,162,72603,2,0,P|367:157|403:158,1,90,8|0,0:0|0:0,0:0:0:0:
141,311,72936,1,0,0:0:0:0:
116,139,73103,2,0,P|111:90|109:42,1,90,0|8,0:0|0:0,0:0:0:0:
244,276,73436,6,4,P|324:270|447:278,1,180,4|0,0:0|0:0,0:0:0:0:
276,191,73936,2,0,P|265:146|262:98,1,90,8|0,0:0|0:0,0:0:0:0:
331,34,74269,1,0,0:0:0:0:
365,228,74436,1,0,0:0:0:0:
151,223,74603,1,8,0:0:0:0:
390,110,74769,6,0,P|444:112|482:110,1,90
221,48,75103,1,0,0:0:0:0:
221,48,75186,1,0,0:0:0:0:
221,48,75269,2,0,P|167:46|129:48,1,90,8|0,0:0|0:0,0:0:0:0:
406,37,75603,1,8,0:0:0:0:
140,133,75769,1,8,0:0:0:0:
140,133,76103,6,0,P|221:119|322:145,1,180,4|0,0:0|0:0,0:0:0:0:
59,225,76603,1,8,0:0:0:0:
274,243,76769,1,0,0:0:0:0:
19,109,76936,5,8,0:0:0:0:
234,91,77102,1,0,0:0:0:0:
27,308,77269,1,8,0:0:0:0:
120,260,77436,6,0,P|147:187|157:51,1,180,4|0,0:0|0:0,0:0:0:0:
119,21,77853,1,0,0:0:0:0:
119,21,77936,1,8,0:0:0:0:
205,312,78103,1,0,0:0:0:0:
307,134,78269,5,12,0:2:0:0:
317,104,78353,1,0,0:0:0:0:
326,74,78436,2,0,P|330:57|333:20,1,45
149,213,78603,5,12,0:2:0:0:
139,243,78687,1,0,0:0:0:0:
130,273,78770,2,0,P|126:290|123:327,1,45
357,290,78936,5,8,0:0:0:0:
370,289,79019,1,8,0:0:0:0:
383,288,79103,1,8,0:0:0:0:
396,287,79186,1,8,0:0:0:0:
409,286,79269,1,8,0:0:0:0:
235,220,79436,2,0,P|185:230|99:224,1,135,8|0,0:0|2:0,0:0:0:0:
239,302,79769,2,0,L|350:309,1,90,8|0,0:0|2:0,0:0:0:0:
488,196,80019,2,0,L|377:191,1,90,8|0,0:0|2:0,0:0:0:0:
314,129,80269,5,8,0:0:0:0:
315,142,80352,1,8,0:0:0:0:
316,155,80436,1,8,0:0:0:0:
317,168,80519,1,8,0:0:0:0:
318,181,80602,1,8,0:0:0:0:
196,174,80769,2,0,P|149:183|51:185,1,135,8|0,0:0|2:0,0:0:0:0:
267,74,81103,2,0,L|362:77,1,90,8|0,0:0|2:0,0:0:0:0:
388,227,81353,2,0,L|299:225,1,90,8|0,0:0|2:0,0:0:0:0:
445,174,81603,5,0,0:0:0:0:
445,174,81686,1,0,0:0:0:0:
445,174,81769,1,10,0:0:0:0:
325,349,81936,1,0,0:0:0:0:
311,320,82019,1,0,0:0:0:0:
303,289,82103,1,10,0:0:0:0:
293,119,82269,1,2,0:0:0:0:
462,253,82436,1,8,0:0:0:0:
462,253,82519,1,0,0:0:0:0:
462,253,82603,2,0,L|348:251,1,90,0|8,0:0|0:0,0:0:0:0:
81,312,82936,6,0,L|195:314,1,90,0|10,0:0|0:0,0:0:0:0:
287,201,83269,1,0,0:0:0:0:
287,201,83353,1,0,0:0:0:0:
287,201,83436,1,10,0:0:0:0:
165,47,83603,1,2,0:0:0:0:
140,67,83686,1,0,0:0:0:0:
126,95,83769,1,8,0:0:0:0:
127,127,83853,1,0,0:0:0:0:
141,155,83936,1,0,0:0:0:0:
152,184,84019,1,0,0:0:0:0:
154,216,84103,1,8,0:0:0:0:
141,244,84186,1,0,0:0:0:0:
116,263,84269,6,0,P|82:266|53:266,1,58.4999973220826
228,197,84436,2,0,P|257:198|287:201,1,58.4999973220826,12|0,0:2|0:0,0:0:0:0:
222,310,84603,2,0,L|224:339|226:368,1,58.4999973220826,0|0,0:0|0:0,0:0:0:0:
150,196,84769,2,0,P|147:166|146:137,1,58.4999973220826,12|0,0:2|0:0,0:0:0:0:
239,35,84936,6,0,P|273:32|302:32,1,58.4999973220826
488,53,85103,2,0,P|454:56|425:56,1,58.4999973220826,12|0,0:2|0:0,0:0:0:0:
289,184,85269,2,0,P|292:150|292:121,1,58.4999973220826
428,175,85436,2,0,P|428:204|431:233,1,58.4999973220826,12|0,0:2|0:0,0:0:0:0:
325,328,85603,5,8,0:0:0:0:
284,326,85686,1,8,0:0:0:0:
243,324,85769,1,8,0:0:0:0:
201,322,85853,1,8,0:0:0:0:
160,320,85936,1,8,0:0:0:0:
45,218,86103,2,0,P|109:226|230:194,1,175.499991966248,8|0,0:0|2:0,0:0:0:0:
261,17,86436,2,0,P|255:78|258:136,1,116.999994644165,8|0,0:0|2:0,0:0:0:0:
408,224,86686,2,0,P|350:221|295:201,1,116.999994644165,8|0,0:0|2:0,0:0:0:0:
153,67,86936,5,8,0:0:0:0:
154,107,87019,1,8,0:0:0:0:
155,148,87103,1,8,0:0:0:0:
157,188,87186,1,8,0:0:0:0:
159,228,87269,1,8,0:0:0:0:
386,307,87436,2,0,P|315:299|222:343,1,175.499991966248,8|0,0:0|2:0,0:0:0:0:
317,197,87769,2,0,P|359:139|367:73,1,116.999994644165,8|0,0:0|2:0,0:0:0:0:
442,195,88019,2,0,P|470:260|524:300,1,116.999994644165,8|0,0:0|2:0,0:0:0:0:
274,284,88269,5,8,0:0:0:0:
241,258,88353,1,8,0:0:0:0:
227,219,88436,1,8,0:0:0:0:
232,178,88519,1,8,0:0:0:0:
252,141,88603,1,8,0:0:0:0:
387,26,88769,2,0,L|382:221,1,175.499991966248,8|0,0:0|2:0,0:0:0:0:
277,350,89103,2,0,L|271:225,1,116.999994644165,8|0,0:0|2:0,0:0:0:0:
177,32,89353,2,0,L|172:154,1,116.999994644165,8|0,0:0|2:0,0:0:0:0:
