osu file format v14

[General]
AudioFilename: LIAR MASK.mp3
AudioLeadIn: 0
PreviewTime: 222903
Countdown: 0
SampleSet: Soft
StackLeniency: 0.7
Mode: 0
LetterboxInBreaks: 0
WidescreenStoryboard: 0

[Editor]
DistanceSpacing: 1
BeatDivisor: 2
GridSize: 4
TimelineZoom: 1

[Metadata]
Title:Liar Mask
TitleUnicode:Liar Mask
Artist:Mayama Rika
ArtistUnicode:真山りか
Creator:Setsurei
Version:Easy
Source:アカメが斬る!
Tags:Akame ga Kill! kiru 2nd Opening second WHITE FOX Square Enix Full wendao2000 Harez
BeatmapID:578247
BeatmapSetID:251781

[Difficulty]
HPDrainRate:2
CircleSize:2.5
OverallDifficulty:1
ApproachRate:3
SliderMultiplier:0.9
SliderTickRate:1

[Events]
//Background and Video events
0,0,"BG.jpg",0,0
//Break Periods
2,82440,84800
2,158438,162131
2,177104,177798
2,271103,273463
//Storyboard Layer 0 (Background)
//Storyboard Layer 1 (Fail)
//Storyboard Layer 2 (Pass)
//Storyboard Layer 3 (Foreground)
//Storyboard Sound Samples

[TimingPoints]
2109,400,4,2,2,30,1,0
8509,-100,4,2,1,50,0,0
14909,-100,4,2,2,20,0,0
15575,333.333333333333,4,2,2,30,1,0
20908,-100,4,2,1,50,0,0
26241,-100,4,2,2,30,0,0
31574,-100,4,2,1,50,0,0
36908,333.333333333333,3,2,2,30,1,0
52907,333.333333333333,4,2,1,30,1,0
55573,-100,4,2,1,70,0,1
79573,-100,4,2,1,50,0,0
90240,-100,4,2,2,20,0,0
91573,-100,4,2,1,50,0,0
102240,-100,4,2,3,50,0,0
107573,-100,4,2,1,50,0,0
112906,333.333333333333,3,2,3,50,1,0
128905,333.333333333333,4,2,1,50,1,0
131571,-100,4,2,1,70,0,1
155571,-100,4,2,2,50,0,0
187571,-100,4,2,1,60,0,0
187571,-100,4,2,1,60,0,0
192904,-100,4,2,1,70,0,0
202238,333.333333333333,3,2,2,30,1,0
218237,-100,3,2,1,50,0,0
220237,333.333333333333,4,2,1,50,1,0
222903,-100,4,2,1,50,0,1
225570,-100,4,2,1,70,0,1
268236,-100,4,2,1,50,0,0
278903,-100,4,2,2,20,0,0

[Colours]
Combo1 : 236,40,40
Combo2 : 99,84,84
Combo3 : 211,83,65
Combo4 : 148,136,129

[HitObjects]
288,88,2109,6,0,P|221:34|135:51,1,180,8|8,0:0|0:0,0:0:0:0:
28,196,3709,2,0,P|50:278|129:315,1,180,8|8,0:0|0:0,0:0:0:0:
304,372,5309,6,0,P|326:333|332:288,1,90,8|0,0:0|0:0,0:0:0:0:
424,288,6109,2,0,P|412:244|385:209,1,90,8|0,0:0|0:0,0:0:0:0:
308,164,6909,1,8,0:0:0:0:
432,36,7709,2,0,B|452:48|452:48|475:110,1,90,8|0,0:0|0:0,0:0:0:0:
504,196,8509,6,0,P|501:282|426:324,1,180,12|8,0:0|0:0,0:0:0:0:
248,340,10109,2,0,P|159:352|78:315,1,180,12|8,0:0|0:0,0:0:0:0:
28,144,11709,6,0,P|59:62|141:36,1,180,8|8,0:0|0:0,0:0:0:0:
228,64,12909,1,0,0:0:0:0:
316,52,13309,2,0,B|324:95|292:129|292:129|289:174|339:201|339:201|318:236|325:285|427:288|398:357,1,360,0|0,0:0|0:0,0:0:0:0:
216,320,15575,6,0,B|172:296|172:296|130:347|57:348,1,180,8|8,0:0|0:0,0:0:0:0:
60,167,16908,2,0,P|112:97|198:81,1,180,8|8,0:0|0:0,0:0:0:0:
376,64,18241,6,0,B|404:52|404:52|464:100|444:188,1,180,8|8,0:0|0:0,0:0:0:0:
320,316,19574,2,0,P|232:334|147:309,1,180,8|8,0:0|0:0,0:0:0:0:
80,144,20908,6,0,P|139:78|225:57,1,180,8|8,0:0|0:0,0:0:0:0:
372,164,22241,2,0,P|397:127|403:83,2,90,8|0|8,0:0|0:0|0:0,0:0:0:0:
244,288,23574,6,0,P|168:334|79:330,1,180,8|8,0:0|0:0,0:0:0:0:
120,156,24907,2,0,P|94:119|88:75,2,90,8|0|8,0:0|0:0|0:0,0:0:0:0:
244,288,26241,6,0,P|324:319|397:272,1,180,8|8,0:0|0:0,0:0:0:0:
460,104,27574,2,0,P|433:68|392:50,2,90,8|0|8,0:0|0:0|0:0,0:0:0:0:
328,228,28908,6,0,B|275:184|270:112|270:112|222:107,1,180,8|8,0:0|0:0,0:0:0:0:
48,148,30241,2,0,B|28:192|28:192|88:232|99:299,1,180,8|8,0:0|0:0,0:0:0:0:
271,343,31574,6,0,P|357:323|408:251,1,180,8|8,0:0|0:0,0:0:0:0:
243,171,32908,2,0,P|225:131|232:87,1,90,8|0,0:0|0:0,0:0:0:0:
304,36,33574,1,8,0:0:0:0:
472,100,34241,6,0,P|457:187|392:247,1,180,8|8,0:0|0:0,0:0:0:0:
218,303,35574,2,0,B|176:292|176:292|68:304|55:256,1,180,8|8,0:0|0:0,0:0:0:0:
140,96,36908,6,0,P|223:18|258:126,1,270,8|0,0:0|0:0,0:0:0:0:
488,268,38908,2,0,P|405:346|370:238,1,270,8|0,0:0|0:0,0:0:0:0:
100,220,40907,6,0,B|57:200|57:200|65:144|29:96|29:96|69:40|125:48,1,270,8|0,0:0|0:0,0:0:0:0:
392,60,42907,2,0,B|443:119|431:190|431:190|413:206|370:201|370:201|381:243|362:264,1,270,8|0,0:0|0:0,0:0:0:0:
272,276,44241,2,0,P|233:298|205:333,1,90,8|0,0:0|0:0,0:0:0:0:
116,336,44907,6,0,P|30:239|72:117,1,270,8|0,0:0|0:0,0:0:0:0:
328,28,46907,2,0,B|432:27|421:64|412:107|489:110|489:110|504:160|488:184,1,270,8|0,0:0|0:0,0:0:0:0:
264,336,48907,6,0,P|146:274|87:155,1,270,8|0,0:0|0:0,0:0:0:0:
340,56,50907,2,0,B|368:64|368:64|441:195,1,180,8|0,0:0|0:0,0:0:0:0:
400,276,51907,2,0,B|372:268|372:268|298:136,1,180,0|0,0:0|0:0,0:0:0:0:
216,104,52907,6,0,P|130:119|90:196,1,180,8|8,0:0|0:0,0:0:0:0:
104,284,53907,1,0,0:0:0:0:
184,324,54240,2,0,P|269:308|309:231,1,180,8|8,0:0|0:0,0:0:0:0:
251,59,55573,6,0,P|339:49|418:88,2,180,8|8|0,0:0|0:0|0:0,0:0:0:0:
216,144,57240,2,0,P|236:184|263:219,1,90,0|8,0:0|0:0,0:0:0:0:
344,264,57906,1,0,0:0:0:0:
311,348,58240,6,0,P|206:313|138:226,1,225,8|0,0:0|0:0,0:0:0:0:
124,136,59406,1,0,0:0:0:0:
346,83,60240,6,0,P|384:104|409:141,1,90,8|0,0:0|0:0,0:0:0:0:
324,176,60906,2,0,B|328:267|328:267|381:256|446:290|440:370,1,270,8|0,0:0|0:0,0:0:0:0:
264,336,62573,2,0,B|249:313|241:285|241:285|209:277|193:321|161:341|131:330,1,180
60,276,63573,6,0,B|52:236|52:236|80:146,1,135,8|0,0:0|0:0,0:0:0:0:
116,64,64406,1,0,0:0:0:0:
208,60,64740,2,0,B|300:76|380:28|380:28|403:67,1,225,0|8,0:0|0:0,0:0:0:0:
492,224,66240,6,0,P|459:253|416:264,1,90,8|0,0:0|0:0,0:0:0:0:
449,348,66906,2,0,P|382:348|334:303,1,135,8|0,0:0|0:0,0:0:0:0:
212,244,67906,2,0,P|130:279|83:354,1,180
0,320,68906,6,0,P|44:242|114:186,1,180,8|0,0:0|0:0,0:0:0:0:
196,152,69906,2,0,B|220:148|220:148|288:64|343:57,1,180,4|0,0:1|0:0,0:0:0:0:
432,60,70906,2,0,L|457:96,1,45,8|0,0:0|0:0,0:0:0:0:
488,184,71406,6,0,P|475:292|384:351,1,225,0|8,0:0|0:0,0:0:0:0:
292,358,72573,2,0,P|204:348|139:287,1,180
110,201,73573,1,0,0:0:0:0:
135,115,73906,6,0,P|200:58|283:83,1,180
220,145,74906,2,0,P|205:210|236:268,2,135,8|0|0,0:0|0:0|0:0,0:0:0:0:
292,200,76240,1,8,0:0:0:0:
362,82,76740,6,0,P|274:18|168:42,1,225,4|8,0:0|0:0,0:0:0:0:
100,96,77906,2,0,B|88:120|88:120|72:272,1,180,0|0,0:0|0:0,0:0:0:0:
140,332,78906,2,0,B|160:336|160:336|229:330,1,90,8|0,0:0|0:0,0:0:0:0:
256,192,79573,12,8,82240,0:0:0:0:
19,152,86240,6,0,P|93:47|217:76,1,270,8|0,0:0|0:0,0:0:0:0:
280,140,87573,2,0,P|399:172|440:56,1,270,8|0,0:0|0:0,0:0:0:0:
356,88,88906,2,0,P|372:218|281:312,1,270,8|0,0:0|0:0,0:0:0:0:
188,288,90240,6,0,P|140:156|263:223,1,360,8|8,0:0|0:0,0:0:0:0:
296,52,92906,6,0,P|384:63|450:121,1,180,8|8,0:0|0:0,0:0:0:0:
476,208,93906,1,0,0:0:0:0:
456,296,94240,2,0,P|385:350|297:356,1,180,8|8,0:0|0:0,0:0:0:0:
124,304,95573,6,0,P|90:274|70:234,1,90,8|0,0:0|0:0,0:0:0:0:
59,144,96240,2,0,P|100:65|181:32,1,180,8|12,0:0|0:0,0:0:0:0:
360,44,97573,1,8,0:0:0:0:
440,204,98240,6,0,B|436:256|436:256|404:288|392:324|392:324|352:347,1,180,8|8,0:0|0:0,0:0:0:0:
264,364,99240,1,0,0:0:0:0:
176,344,99574,2,0,P|123:275|150:192,1,180,8|8,0:0|0:0,0:0:0:0:
288,80,100906,2,0,L|378:80,2,90,8|0|8,0:0|0:0|0:0,0:0:0:0:
107,96,102240,6,0,P|87:182|107:269,1,180,8|8,0:0|0:0,0:0:0:0:
287,291,103573,2,0,P|227:227|228:139,1,180,8|8,0:0|0:0,0:0:0:0:
376,40,104906,6,0,B|424:88|424:88|446:133|446:133|490:176,1,180,8|8,0:0|0:0,0:0:0:0:
492,268,105906,1,0,0:0:0:0:
412,308,106240,2,0,B|396:264|412:232|412:232|364:184|364:184|351:152,1,180,8|12,0:0|0:0,0:0:0:0:
212,36,107573,6,0,P|123:36|52:89,1,180,8|8,0:0|0:0,0:0:0:0:
88,268,108906,2,0,P|174:283|247:233,1,180,8|8,0:0|0:0,0:0:0:0:
308,64,110240,6,0,B|343:61|343:61|416:80|435:162,1,180,8|8,0:0|0:0,0:0:0:0:
432,252,111240,1,0,0:0:0:0:
380,324,111573,2,0,P|297:352|217:315,1,180,8|8,0:0|0:0,0:0:0:0:
143,151,112906,6,0,P|30:210|34:338,1,270,8|0,0:0|0:0,0:0:0:0:
280,228,114906,2,0,P|273:183|253:143,1,90,8|0,0:0|0:0,0:0:0:0:
194,78,115572,1,8,0:0:0:0:
283,57,115906,2,0,B|291:60|318:34|318:34|356:78|399:89|430:112,1,180,0|0,0:0|0:0,0:0:0:0:
488,180,116906,6,0,P|465:265|397:321,1,180,12|8,0:0|0:0,0:0:0:0:
308,340,117906,2,0,B|276:340|276:340|220:323,2,90
288,252,118906,2,0,B|208:228|208:228|140:232|140:232|43:163,1,270,8|0,0:0|0:0,0:0:0:0:
293,60,120905,6,0,B|362:86|362:86|410:52|462:76,1,180,12|8,0:0|0:0,0:0:0:0:
419,160,121905,2,0,P|372:231|406:311,1,180,2|0,0:0|0:0,0:0:0:0:
460,240,122905,2,0,L|280:221,1,180,8|8,0:0|0:0,0:0:0:0:
195,191,123905,2,0,P|157:170|135:131,2,90,2|0|0,0:0|0:0|0:0,0:0:0:0:
224,108,124905,6,0,L|394:48,1,180,12|8,0:0|0:0,0:0:0:0:
444,124,125905,2,0,L|273:183,1,180,6|0,0:0|0:0,0:0:0:0:
240,268,126905,6,0,P|283:277|324:262,2,90,8|0|8,0:0|0:0|0:0,0:0:0:0:
168,212,127905,2,0,L|37:88,1,180,2|0,0:0|0:0,0:0:0:0:
108,36,128905,6,0,B|175:95|175:95|254:39|347:76,1,270,8|0,0:0|0:0,0:0:0:0:
424,120,130238,2,0,L|481:188,1,90,8|0,0:0|0:0,0:0:0:0:
424,260,130905,2,0,B|401:265|378:256|353:245|335:250,1,90,12|0,0:0|0:0,0:0:0:0:
263,304,131571,6,0,P|165:343|89:268,1,225,8|0,0:0|0:0,0:0:0:0:
76,180,132738,2,0,B|96:133|96:133|148:116|188:60|188:60|200:92|220:103,1,225,0|8,0:0|0:0,0:0:0:0:
272,32,133905,1,0,0:0:0:0:
358,46,134238,6,0,B|352:84|317:109|317:109|344:156|344:156|316:200|336:248,1,225,8|0,0:0|0:0,0:0:0:0:
416,208,135405,2,0,P|396:311|291:325,1,225,0|0,0:0|0:0,0:0:0:0:
224,264,136571,1,0,0:0:0:0:
136,284,136905,6,0,P|72:220|48:134,1,180,12|8,0:0|0:0,0:0:0:0:
195,35,138238,2,0,P|273:80|318:157,1,180,8|8,0:0|0:0,0:0:0:0:
328,248,139238,1,0,0:0:0:0:
388,316,139571,6,0,B|452:236|452:236|457:203,1,135,8|0,0:0|0:0,0:0:0:0:
456,112,140405,1,0,0:0:0:0:
383,57,140738,2,0,B|320:72|248:32|248:32|172:68,1,225,0|8,0:0|0:0,0:0:0:0:
176,160,141904,1,0,0:0:0:0:
172,252,142238,6,0,P|206:282|249:293,1,90,8|0,0:0|0:0,0:0:0:0:
336,303,142905,2,0,P|417:270|451:190,1,180,8|0,0:0|0:0,0:0:0:0:
444,100,143904,6,0,L|365:55,1,90,0|8,0:0|0:0,0:0:0:0:
280,80,144571,1,0,0:0:0:0:
192,96,144904,2,0,P|126:82|69:46,2,135,8|0|0,0:0|0:0|0:0,0:0:0:0:
460,92,146904,6,0,L|460:182,1,90,8|0,0:0|0:0,0:0:0:0:
452,272,147571,2,0,P|350:349|240:285,1,270,0|0,0:0|0:0,0:0:0:0:
188,212,148904,6,0,L|107:252,2,90,0|0|8,0:0|0:0|0:0,0:0:0:0:
172,124,149904,1,0,0:0:0:0:
235,60,150238,2,0,P|351:111|344:238,1,270,0|0,0:0|0:0,0:0:0:0:
284,308,151571,2,0,B|264:324|264:324|196:301|111:324,1,180,8|8,0:0|0:0,0:0:0:0:
72,196,152738,6,0,P|116:95|218:56,1,225,4|8,0:0|0:0,0:0:0:0:
308,60,153904,1,0,0:0:0:0:
396,36,154238,2,0,P|375:120|295:152,1,180,0|8,0:0|0:0,0:0:0:0:
228,212,155238,1,0,0:0:0:0:
256,192,155571,12,8,158238,0:0:0:0:
108,112,163571,6,0,P|62:229|160:307,1,270,8|0,0:0|0:0,0:0:0:0:
236,260,164904,2,0,L|324:157,2,135
308,316,166238,6,0,L|472:243,1,180,8|8,0:0|0:0,0:0:0:0:
395,79,167571,2,0,P|274:32|163:100,1,270,8|0,0:0|0:0,0:0:0:0:
81,136,168904,6,0,B|99:173|135:193|171:188|171:188|159:233|131:253|131:253|132:300|165:323,1,270,8|0,0:0|0:0,0:0:0:0:
256,336,170238,2,0,B|280:341|324:293|324:293|384:317|384:317|466:226,1,270,8|0,0:0|0:0,0:0:0:0:
460,136,171571,6,0,B|445:113|445:113|409:111|409:111|384:83|384:83|347:75|347:75|321:42,1,180,8|0,0:0|0:0,0:0:0:0:
140,36,172904,2,0,B|208:121|118:153|33:180|101:265,1,270,8|0,0:0|0:0,0:0:0:0:
172,320,174238,2,0,P|256:340|324:287,1,180,8|0,0:0|0:0,0:0:0:0:
400,176,175404,6,0,L|488:194,2,90,4|4|4,0:0|0:0|0:0,0:0:0:0:
312,152,176404,2,0,P|271:99|260:33,1,135,4|8,0:0|0:0,0:0:0:0:
136,72,179238,5,0,0:0:0:0:
84,148,179571,2,0,P|47:204|25:268,1,135,8|0,0:0|0:0,0:0:0:0:
84,336,180404,2,0,B|104:348|104:348|170:347,1,90
244,295,181071,2,0,P|260:254|266:209,2,90
372,336,182238,6,0,B|416:348|416:348|496:252|423:140,1,270,8|0,0:0|0:0,0:0:0:0:
360,80,183571,2,0,P|239:27|119:79,1,270,8|0,0:0|0:0,0:0:0:0:
70,154,184904,2,0,B|59:240|59:240|151:228|215:312|215:312|231:176|311:352|375:196|375:196|435:208|423:244|411:276|449:286,1,630,8|0,0:0|0:0,0:0:0:0:
511,224,187571,6,0,P|470:145|390:106,1,180,12|8,0:0|0:0,0:0:0:0:
216,76,188904,2,0,P|128:91|60:149,1,180,12|8,0:0|0:0,0:0:0:0:
212,248,190238,2,0,P|279:305|367:321,2,180,12|8|12,0:0|0:0|0:0,0:0:0:0:
44,312,192238,1,0,0:0:0:0:
64,132,192904,6,2,P|131:74|219:58,1,180,8|10,0:0|0:1,0:1:0:0:
392,104,194237,2,2,P|324:161|236:177,1,180,12|10,0:0|0:1,0:1:0:0:
326,23,195571,2,2,B|320:88|256:88|256:88|176:56|56:184|184:296|264:264|264:264|272:296|316:352|388:332|413:308,1,630,8|0,0:0|0:0,0:1:0:0:
478,245,198238,6,2,P|431:142|355:226,1,270,8|0,0:0|0:0,0:1:0:0:
264,227,199571,2,2,P|335:73|506:75,1,360,12|0,0:0|0:0,0:1:0:0:
240,318,202238,6,0,P|114:299|82:176,1,270,12|0,0:0|0:0,0:0:0:0:
320,44,204238,2,0,P|379:110|400:196,1,180,8|8,0:0|0:0,0:0:0:0:
320,240,205238,2,0,B|246:236|246:236|186:216|174:166,1,180,0|0,0:0|0:0,0:0:0:0:
166,75,206238,6,0,B|190:35|190:35|254:15|320:44,1,180,8|8,0:0|0:0,0:0:0:0:
392,96,207238,2,0,P|402:138|386:179,2,90,0|8|0,0:0|0:0|0:0,0:0:0:0:
473,60,208238,2,0,P|489:147|460:231,1,180,8|8,0:0|0:0,0:0:0:0:
510,306,209238,2,0,B|456:334|409:302|409:302|339:326,1,180,0|0,0:0|0:0,0:0:0:0:
256,356,210238,1,12,0:0:0:0:
72,348,210904,5,8,0:0:0:0:
24,272,211238,2,0,P|26:141|126:56,1,270,0|8,0:0|0:0,0:0:0:0:
304,36,212904,1,8,0:0:0:0:
394,43,213238,2,0,P|463:100|495:183,1,180,0|0,0:0|0:0,0:0:0:0:
470,271,214238,2,0,B|424:300|424:300|372:260|400:208|400:208|392:148|337:123,1,270,12|0,0:0|0:0,0:0:0:0:
72,156,216238,6,0,P|80:243|145:303,1,180,12|8,0:0|0:0,0:0:0:0:
228,264,217237,2,0,P|219:176|154:116,1,180,0|0,0:0|0:0,0:0:0:0:
192,36,218237,2,0,P|264:88|310:165,1,180,12|8,0:0|0:0,0:0:0:0:
328,252,219237,2,0,P|394:195|383:110,1,180,0|0,0:0|0:0,0:0:0:0:
448,48,220237,6,0,P|490:174|436:294,1,270
360,340,221570,2,0,P|271:339|199:287,1,180,8|0,0:0|0:0,0:0:0:0:
132,120,222903,6,0,P|207:42|314:61,1,225,12|0,0:1|0:0,0:0:0:0:
368,136,224070,2,0,B|384:248|240:276|240:276|155:220,1,315,0|0,0:0|0:0,0:0:0:0:
232,172,225570,2,0,B|191:142|191:142|75:102|24:260|128:304|128:304|155:322,1,360,12|0,0:0|0:0,0:0:0:0:
336,344,227570,6,0,L|423:322,1,90,8|0,0:0|0:0,0:0:0:0:
479,250,228237,2,0,B|480:200|424:188|359:175|358:131,1,180,8|8,0:0|0:0,0:0:0:0:
367,43,229237,2,0,P|323:48|287:74,1,90,0|8,0:0|0:0,0:0:0:0:
212,124,229903,6,0,B|192:109|192:109|148:60,2,90,0|8|0,0:0|0:0|0:0,0:0:0:0:
155,195,230903,2,0,P|141:260|178:314,1,135,12|0,0:0|0:0,0:0:0:0:
264,348,231737,1,0,0:0:0:0:
350,327,232070,2,0,L|427:216,1,135,0|4,0:0|0:0,0:0:0:0:
168,136,233570,6,0,P|202:106|245:95,1,90,12|0,0:0|0:0,0:0:0:0:
335,95,234237,2,0,P|417:129|455:208,1,180,8|0,0:0|0:0,0:0:0:0:
456,300,235236,6,0,L|368:314,1,90,0|8,0:0|0:0,0:0:0:0:
276,308,235903,1,0,0:0:0:0:
188,292,236236,2,0,P|122:306|65:342,2,135,12|0|0,0:0|0:0|0:0,0:0:0:0:
336,63,238236,6,0,P|374:41|418:39,1,90,8|0,0:0|0:0,0:0:0:0:
476,111,238903,2,0,B|492:176|492:176|388:216|398:338,1,270,0|0,0:0|0:0,0:0:0:0:
308,352,240236,2,0,B|280:348|268:292|268:292|228:276|200:332|200:332|134:339|120:281,1,270,0|0,0:0|0:0,0:0:0:0:
112,188,241570,2,0,B|120:156|96:128|96:128|128:84|188:108|188:108|200:64|200:64|212:36|247:41,1,270,0|0,0:0|0:0,0:0:0:0:
336,64,242903,6,0,L|417:24,2,90,0|0|8,0:0|0:0|0:0,0:0:0:0:
384,140,243903,1,0,0:0:0:0:
408,228,244236,2,0,P|409:272|392:313,1,90,8|4,0:0|0:1,0:0:0:0:
172,343,245403,6,0,P|59:246|100:103,1,315
180,60,246903,2,0,P|306:89|360:208,1,270,8|0,0:0|0:0,0:0:0:0:
355,299,248236,2,0,P|404:345|470:346,2,135,0|0|0,0:0|0:0|0:0,0:0:0:0:
276,260,249570,6,0,B|200:216|136:280|136:280|75:181,1,270,8|0,0:0|0:0,0:0:0:0:
64,92,250903,2,0,P|136:40|224:37,1,180,0|8,0:0|0:0,0:0:0:0:
308,68,251903,1,0,0:0:0:0:
384,120,252236,2,0,P|435:192|438:280,2,180,8|0|0,0:0|0:0|0:0,0:0:0:0:
264,252,254236,6,0,L|181:287,1,90,8|0,0:0|0:0,0:0:0:0:
96,316,254903,2,0,P|39:248|33:159,1,180,8|8,0:0|0:0,0:0:0:0:
64,76,255903,5,0,0:0:0:0:
148,40,256236,2,0,B|216:44|260:80|260:80|292:72|292:72|328:80,1,180,0|8,0:0|0:0,0:0:0:0:
400,116,257236,1,0,0:0:0:0:
440,196,257570,2,0,P|468:256|512:307,2,135,8|0|0,0:0|0:0|0:0,0:0:0:0:
180,124,259570,6,0,P|125:84|62:60,2,135,8|0|0,0:0|0:0|0:0,0:0:0:0:
148,208,260903,2,0,B|142:236|142:236|158:264|162:293,1,90,8|0,0:0|0:0,0:0:0:0:
240,340,261570,2,0,L|329:337,1,90
416,316,262236,2,0,L|471:244,1,90,8|0,0:0|0:0,0:0:0:0:
500,160,262903,2,0,P|461:82|376:68,2,180,0|8|0,0:0|0:0|0:0,0:0:0:0:
328,216,264903,6,0,L|286:233,1,45,8|0,0:0|0:0,0:0:0:0:
202,263,265403,2,0,P|136:259|89:212,1,135,0|0,0:0|0:0,0:0:0:0:
76,123,266236,2,0,P|97:84|131:56,1,90,8|0,0:0|0:0,0:0:0:0:
220,60,266903,2,0,L|233:148,2,90,0|0|8,0:0|0:0|0:0,0:0:0:0:
304,32,267903,1,0,0:0:0:0:
256,192,268236,12,8,270903,0:0:0:0:
19,232,274903,6,0,P|93:337|217:308,1,270,8|0,0:0|0:0,0:0:0:0:
280,244,276236,2,0,P|399:212|440:328,1,270,8|0,0:0|0:0,0:0:0:0:
356,296,277569,2,0,P|372:166|281:72,1,270,8|0,0:0|0:0,0:0:0:0:
256,192,278903,12,8,284236,0:0:0:0:
