osu file format v14

[General]
AudioFilename: 01. Liar Mask.mp3
AudioLeadIn: 0
PreviewTime: 222914
Countdown: 0
SampleSet: Soft
StackLeniency: 0.4
Mode: 0
LetterboxInBreaks: 1
WidescreenStoryboard: 0

[Editor]
DistanceSpacing: 1.2
BeatDivisor: 4
GridSize: 4
TimelineZoom: 1.6

[Metadata]
Title:Liar Mask
TitleUnicode:Liar Mask
Artist:Mayama Rika
ArtistUnicode:真山りか
Creator:Atsuro
Version:Hard
Source:アカメが斬る!
Tags:Akame ga Kill akg Opening 2 full version LixRei
BeatmapID:555142
BeatmapSetID:238462

[Difficulty]
HPDrainRate:6
CircleSize:4
OverallDifficulty:6
ApproachRate:7.5
SliderMultiplier:1.4
SliderTickRate:1

[Events]
//Background and Video events
0,0,"bg.png",0,0
//Break Periods
2,91783,95425
2,158448,164589
2,202448,209248
//Storyboard Layer 0 (Background)
//Storyboard Layer 1 (Fail)
//Storyboard Layer 2 (Pass)
//Storyboard Layer 3 (Foreground)
//Storyboard Sound Samples

[TimingPoints]
2100,400,4,2,0,60,1,0
2100,-142.857142857143,4,2,1,40,0,0
8500,-142.857142857143,4,2,1,60,0,0
15585,333.333333333333,4,2,0,100,1,0
15585,-133.333333333333,4,2,1,60,0,0
20918,-117.647058823529,4,2,1,70,0,0
26251,-153.846153846154,4,2,1,60,0,0
31584,-117.647058823529,4,2,1,70,0,0
36918,333.333333333333,3,2,1,100,1,0
36918,-133.333333333333,3,2,1,60,0,0
52917,333.333333333333,4,1,1,100,1,0
52917,-100,4,1,1,60,0,0
55583,-83.3333333333333,4,1,1,70,0,1
90250,-125,4,2,1,30,0,0
90916,-125,4,2,1,50,0,0
91250,-125,4,2,1,70,0,0
101916,-100,4,2,1,70,0,0
112916,333.333333333333,3,2,1,100,1,0
112916,-125,3,2,1,70,0,0
128915,333.333333333333,4,1,1,100,1,0
128915,-100,4,1,1,70,0,0
129915,-100,4,1,1,60,0,0
131581,-83.3333333333333,4,1,1,70,0,1
155581,-100,4,2,1,70,0,0
176914,-83.3333333333333,4,2,1,80,0,1
187581,-100,4,2,1,70,0,0
199664,-100,4,2,1,50,0,0
202248,333.333333333333,3,2,1,35,1,0
210248,-142.857142857143,3,2,1,70,0,0
221581,333.333333333333,4,1,1,60,1,0
232914,-100,4,2,1,50,0,0
233581,-83.3333333333333,4,1,1,70,0,1
243080,-83.3333333333333,4,1,1,60,0,1
244247,-83.3333333333333,4,1,1,70,0,0
244580,-83.3333333333333,4,1,1,70,0,1
278914,-83.3333333333333,4,3,0,100,0,0
278997,-83.3333333333333,4,2,0,70,0,0
280247,-83.3333333333333,4,2,0,50,0,0
281580,-83.3333333333333,4,2,0,30,0,0
282914,-83.3333333333333,4,2,0,20,0,0

[Colours]
Combo1 : 98,0,98
Combo2 : 139,139,139
Combo3 : 255,0,0
Combo4 : 40,40,40

[HitObjects]
176,68,2100,6,0,P|184:112|232:160,1,97.9999970092774,0|0,0:0|0:0,0:0:0:0:
336,316,2900,2,0,P|328:272|280:224,1,97.9999970092774,2|0,0:0|0:0,0:0:0:0:
336,68,3700,2,0,P|328:112|280:160,1,97.9999970092774,0|0,0:0|0:0,0:0:0:0:
175,315,4500,2,0,P|185:268|217:232,1,97.9999970092774,2|0,0:0|0:0,0:0:0:0:
217,152,5300,5,0,0:0:0:0:
294,232,5700,1,0,0:0:0:0:
217,233,6100,1,2,0:0:0:0:
294,152,6500,1,0,0:0:0:0:
256,300,6900,1,0,0:0:0:0:
344,88,7500,2,0,P|256:52|156:100,1,195.999994018555
136,160,8500,6,0,P|116:208|76:256,1,97.9999970092774,4|0,0:1|0:0,0:0:0:0:
184,352,9300,2,0,L|284:352,1,97.9999970092774,2|0,0:0|0:0,0:0:0:0:
376,248,10100,2,0,B|328:236|328:260|280:244,1,97.9999970092774,4|0,0:1|0:0,0:0:0:0:
341,168,10900,1,8,0:0:0:0:
463,255,11300,1,2,0:0:0:0:
328,319,11700,6,0,P|284:309|239:277,1,97.9999970092774,4|8,0:1|0:0,0:0:0:0:
210,110,12500,2,0,P|222:152|216:207,1,97.9999970092774,2|4,0:0|0:3,0:0:0:0:
87,315,13300,1,4,0:1:0:0:
256,192,13400,12,0,15585,0:0:0:0:
208,72,16140,5,0,0:0:0:0:
208,72,16251,2,0,P|151:100|123:145,1,105.000004005432,2|0,0:0|0:0,0:0:0:0:
218,170,16807,1,0,0:0:0:0:
218,170,16918,2,0,P|275:198|302:243,2,105.000004005432,2|0|2,0:0|0:0|0:0,0:0:0:0:
177,232,17751,2,0,P|151:269|129:287,2,52.5000020027161,0|0|0,0:0|0:0|0:0,0:0:0:0:
218,170,18251,6,0,P|245:142|318:103,1,105.000004005432,2|0,0:0|0:0,0:0:0:0:
411,46,18918,2,0,P|421:83|419:166,1,105.000004005432,2|0,0:0|0:0,0:0:0:0:
421,275,19584,2,0,P|383:265|312:221,1,105.000004005432,2|0,0:0|0:0,0:0:0:0:
241,278,20084,1,0,0:0:0:0:
241,278,20251,2,0,B|193:304|160:285|160:285|126:276|89:295,1,157.500006008148,2|0,0:0|0:0,0:0:0:0:
51,210,20918,6,0,L|76:156,1,59.5000011348725,4|0,0:1|0:3,0:0:0:0:
138,120,21251,2,0,P|188:136|261:131,1,119.000002269745,0|8,0:0|0:0,0:0:0:0:
388,80,21918,1,0,0:0:0:0:
455,160,22140,1,0,0:0:0:0:
455,160,22251,2,0,P|460:230|459:244,1,59.5000011348725
445,298,22584,1,4,0:3:0:0:
293,367,22918,2,0,P|226:343|163:292,1,119.000002269745,8|0,0:0|0:0,2:0:0:0:
275,164,23584,6,0,P|288:233|275:314,1,119.000002269745,4|0,0:3|0:0,2:0:0:0:
192,256,24140,1,0,0:0:0:0:
192,256,24251,2,0,P|133:216|85:149,1,119.000002269745,8|0,0:0|0:0,2:0:0:0:
47,99,24807,1,0,0:0:0:0:
47,99,24918,2,0,P|115:83|170:110,1,119.000002269745,0|4,0:0|0:3,0:0:0:0:
256,204,25584,2,0,P|311:222|367:205,1,119.000002269745,12|0,0:1|0:0,0:0:0:0:
427,98,26251,6,0,P|390:86|319:93,1,90.9999958343508,2|0,0:0|0:0,0:0:0:0:
256,160,26918,1,2,0:0:0:0:
171,86,27251,2,0,L|124:152,1,60.6666638895672
112,192,27584,2,0,P|100:256|104:296,1,90.9999958343508,2|0,0:0|0:0,0:0:0:0:
216,352,28251,2,0,L|260:360,1,45.4999979171754,2|0,0:0|0:0,0:0:0:0:
288,280,28584,2,0,L|332:272,1,45.4999979171754
328,184,28918,6,0,P|349:168|400:112,1,90.9999958343508,2|0,0:0|0:0,0:0:0:0:
308,56,29584,1,2,0:0:0:0:
208,104,29918,1,0,0:0:0:0:
115,48,30251,2,0,P|83:79|56:116,1,90.9999958343508,2|0,0:0|0:0,0:0:0:0:
32,164,30751,1,0,0:0:0:0:
57,212,30918,2,0,B|77:254|118:277|118:277|171:280,1,136.499993751526,2|0,0:0|0:0,0:0:0:0:
197,350,31584,6,0,B|242:347|242:347|283:324|299:293,1,119.000002269745,4|0,0:0|0:0,0:0:0:0:
296,298,32029,1,4,0:3:0:0:
390,312,32251,2,0,P|413:245|420:193,1,119.000002269745,8|0,0:0|0:0,0:0:0:0:
419,197,32696,1,4,0:3:0:0:
332,158,32918,2,0,P|289:127|270:92,1,79.3333348464966,4|0,0:3|0:0,0:0:0:0:
203,42,33362,1,0,0:0:0:0:
108,55,33584,2,0,P|36:109|40:205,1,158.666669692993,8|0,0:0|0:0,0:0:0:0:
121,150,34251,6,0,P|155:169|251:165,1,119.000002269745,4|0,0:3|0:0,0:0:0:0:
233,171,34696,1,4,0:3:0:0:
313,119,34918,2,0,P|331:175|303:239,1,119.000002269745,8|0,0:0|0:0,0:0:0:0:
280,264,35362,2,0,L|196:264,1,79.3333348464966,4|8,0:3|0:0,0:0:0:0:
106,270,35807,2,0,L|87:332,2,39.6666674232483,8|8|8,0:0|0:0|0:0,0:0:0:0:
142,181,36251,1,8,0:0:0:0:
205,102,36473,2,0,P|249:84|293:87,1,79.3333348464966,4|0,0:3|0:0,0:0:0:0:
351,46,36918,6,0,P|402:80|445:129,1,105.000004005432,4|0,0:0|0:0,0:0:0:0:
500,192,37584,1,0,0:0:0:0:
432,272,37918,2,0,P|372:317|280:297,1,157.500006008148,2|0,0:0|0:0,0:0:0:0:
294,307,38584,1,0,0:0:0:0:
205,247,38918,6,0,P|265:202|357:222,1,157.500006008148,2|0,0:0|0:0,0:0:0:0:
343,213,39584,1,0,0:0:0:0:
286,124,39918,2,0,P|249:128|182:161,2,105.000004005432,2|0|0,0:0|0:0|0:0,0:0:0:0:
226,37,40917,6,0,P|159:60|77:121,1,157.500006008148,4|0,0:0|0:0,0:0:0:0:
42,136,41584,2,0,P|20:176|14:194,1,52.5000020027161
3,232,41917,1,2,0:0:0:0:
81,303,42251,1,0,0:0:0:0:
157,231,42584,1,0,0:0:0:0:
232,303,42917,6,0,P|274:324|399:303,1,157.500006008148,2|0,0:0|0:0,0:0:0:0:
440,308,43584,2,0,L|477:356,2,52.5000020027161,0|0|2,0:0|0:0|0:0,0:0:0:0:
385,217,44251,1,0,0:0:0:0:
440,127,44584,1,0,0:0:0:0:
385,37,44917,6,0,P|328:12|273:10,1,105.000004005432,4|0,0:0|0:0,0:0:0:0:
184,24,45584,1,0,0:0:0:0:
268,84,45917,2,0,P|197:115|146:175,1,157.500006008148,2|0,0:0|0:0,0:0:0:0:
146,174,46584,1,0,0:0:0:0:
192,267,46917,6,0,P|112:272|50:213,1,157.500006008148,2|0,0:0|0:0,0:0:0:0:
55,224,47584,1,0,0:0:0:0:
146,174,47917,2,0,P|198:134|242:118,1,105.000004005432,2|0,0:0|0:0,0:0:0:0:
339,111,48584,1,0,0:0:0:0:
412,185,48917,5,4,0:0:0:0:
310,211,49251,1,0,0:0:0:0:
378,290,49584,1,0,0:0:0:0:
276,316,49917,5,2,0:0:0:0:
237,163,50251,1,0,0:0:0:0:
200,316,50584,1,0,0:0:0:0:
105,192,50917,5,2,0:0:0:0:
213,76,51251,1,0,0:0:0:0:
65,124,51584,1,0,0:0:0:0:
217,156,51917,1,2,0:0:0:0:
117,32,52251,1,0,0:0:0:0:
173,212,52584,1,0,0:0:0:0:
313,80,52917,6,0,P|341:60|393:40,1,70,4|0,0:0|0:0,0:0:0:0:
447,86,53250,2,0,P|450:120|441:175,1,70,8|0,0:0|0:0,0:0:0:0:
446,155,53500,1,0,0:0:0:0:
446,155,53583,1,0,0:0:0:0:
363,144,53750,1,0,0:0:0:0:
299,214,53917,2,0,P|251:245|225:252,1,70,8|0,0:0|0:0,0:0:0:0:
154,240,54250,5,2,0:0:0:0:
74,214,54417,1,0,0:0:0:0:
74,130,54583,1,10,0:0:0:0:
154,104,54750,1,0,0:0:0:0:
203,171,54917,2,2,P|243:155|276:124,2,70,2|0|0,0:0|2:0|2:0,0:0:0:0:
40,324,55583,6,0,B|88:344|88:344|133:300|188:280,1,167.999994873047,4|8,0:0|0:0,0:0:0:0:
280,248,56083,1,0,0:0:0:0:
368,297,56250,2,0,P|420:276|455:255,1,83.9999974365235
428,76,56750,6,0,P|350:141|278:133,1,167.999994873047
188,56,57250,2,0,P|230:52|292:90,1,83.9999974365235,8|0,0:0|0:0,0:0:0:0:
216,148,57583,2,0,B|176:228|256:228|214:308,1,167.999994873047,0|8,0:0|0:0,0:0:0:0:
140,376,58083,1,0,0:0:0:0:
64,308,58250,6,0,P|31:263|24:204,1,83.9999974365235,4|0,0:0|0:0,0:0:0:0:
76,152,58583,2,0,P|90:112|117:81,1,83.9999974365235,8|0,0:0|0:0,0:0:0:0:
215,56,58916,1,0,0:0:0:0:
307,95,59083,1,0,0:0:0:0:
224,150,59250,1,8,0:0:0:0:
284,15,59416,6,0,P|368:37|380:135,1,167.999994873047
389,107,59833,1,0,0:0:0:0:
389,107,59916,1,8,0:0:0:0:
357,287,60250,2,0,P|361:328|410:377,1,83.9999974365235,0|0,0:0|0:0,0:0:0:0:
451,268,60583,2,0,P|446:226|397:177,1,83.9999974365235,8|0,0:0|0:0,0:0:0:0:
320,176,60916,6,0,P|254:229|142:207,1,167.999994873047,4|8,0:0|0:0,0:0:0:0:
109,149,61416,1,0,0:0:0:0:
176,73,61583,2,0,P|206:101|226:138,1,83.9999974365235
174,225,61916,1,8,0:0:0:0:
38,198,62083,6,0,P|26:118|86:63,1,167.999994873047,0|0,0:0|0:0,0:0:0:0:
189,139,62583,2,0,P|150:154|109:149,1,83.9999974365235,8|0,0:0|0:0,0:0:0:0:
54,284,62916,2,0,P|91:267|117:234,1,83.9999974365235
268,268,63250,2,0,P|229:284|188:280,1,83.9999974365235,8|0,0:0|0:0,0:0:0:0:
282,180,63583,6,0,P|328:202|345:310,1,167.999994873047,0|8,0:0|0:0,0:0:0:0:
196,203,64083,2,0,P|214:120|320:104,1,167.999994873047,2|2,0:0|0:0,0:0:0:0:
285,92,64500,1,0,0:0:0:0:
285,92,64583,1,8,0:0:0:0:
368,20,64750,2,0,B|413:71|385:140|385:140|437:191|445:275,1,251.999992309571,6|8,0:0|0:0,0:0:0:0:
266,349,65583,6,0,P|209:326|176:283,1,83.9999974365235
161,177,65916,2,0,P|218:200|251:243,1,83.9999974365235,8|0,0:0|0:0,0:0:0:0:
95,231,66250,6,0,P|79:152|135:95,1,167.999994873047,4|8,0:0|0:0,0:0:0:0:
231,63,66750,1,0,0:0:0:0:
325,94,66916,2,0,P|361:116|382:152,2,83.9999974365235,0|0|8,0:0|0:0|0:0,0:0:0:0:
315,195,67416,6,0,P|385:232|452:189,1,167.999994873047
434,90,67916,2,0,P|397:46|357:29,1,83.9999974365235,8|0,0:0|0:0,0:0:0:0:
280,72,68250,2,0,P|223:82|188:108,1,83.9999974365235
198,196,68583,2,0,P|178:250|183:293,1,83.9999974365235,8|0,0:0|0:0,0:0:0:0:
186,376,68916,6,0,P|260:333|271:235,1,167.999994873047,4|0,0:0|0:0,0:0:0:0:
272,159,69416,2,0,P|197:200|186:299,1,167.999994873047,4|8,0:0|0:0,0:0:0:0:
79,256,69916,2,0,P|119:139|221:68,1,251.999992309571,4|0,0:0|0:0,0:0:0:0:
288,144,70583,1,8,0:0:0:0:
355,69,70750,2,0,L|355:5,2,41.9999987182618
422,144,71083,1,0,0:0:0:0:
409,345,71416,6,0,P|321:354|269:272,1,167.999994873047,4|0,0:0|0:0,0:0:0:0:
207,235,71916,2,0,P|205:276|184:312,1,83.9999974365235,8|0,0:0|0:0,0:0:0:0:
150,173,72250,2,0,P|186:153|228:153,1,83.9999974365235,0|0,0:0|0:0,0:0:0:0:
323,187,72583,1,8,0:0:0:0:
333,287,72750,6,0,P|401:250|408:138,1,167.999994873047
386,71,73250,2,0,P|319:30|278:36,1,83.9999974365235,8|0,0:0|0:0,0:0:0:0:
235,170,73583,2,0,P|275:158|306:130,1,83.9999974365235
228,69,73916,2,0,P|161:28|120:34,1,83.9999974365235,8|0,0:0|0:0,0:0:0:0:
142,128,74250,6,0,P|140:209|211:272,1,167.999994873047,2|10,0:0|0:0,0:0:0:0:
235,170,74750,1,0,0:0:0:0:
235,170,74916,2,0,P|275:158|306:130,1,83.9999974365235,2|0,0:0|0:0,0:0:0:0:
387,69,75250,1,8,0:0:0:0:
387,69,75416,6,0,P|422:156|469:218,1,167.999994873047,2|0,0:0|0:0,0:0:0:0:
464,316,75916,2,0,P|429:338|391:355,1,83.9999974365235,8|0,0:0|0:0,0:0:0:0:
285,271,76250,5,10,0:0:0:0:
182,356,76416,1,10,0:0:0:0:
182,356,76750,6,0,P|132:351|71:249,1,167.999994873047,6|0,0:0|0:0,0:0:0:0:
183,179,77250,2,0,P|183:221|167:260,1,83.9999974365235,10|0,0:0|0:0,0:0:0:0:
120,117,77583,2,0,P|156:96|197:91,2,83.9999974365235,2|0|8,0:0|0:0|0:0,0:0:0:0:
132,25,78083,6,0,P|194:17|300:43,1,167.999994873047,6|0,0:0|0:0,0:0:0:0:
372,149,78583,2,0,P|334:129|294:116,1,83.9999974365235,10|0,0:0|0:0,0:0:0:0:
194,116,78916,2,0,P|152:128|115:147,1,83.9999974365235,2|0,0:0|0:0,0:0:0:0:
72,238,79250,2,0,L|96:333,1,83.9999974365235,10|0,0:0|0:0,0:0:0:0:
190,335,79583,5,12,0:0:0:0:
289,301,79750,2,0,L|335:291,2,41.9999987182618,0|0|8,0:0|0:0|0:0,0:0:0:0:
304,201,80083,2,0,L|391:175,1,83.9999974365235,8|0,0:0|2:0,0:0:0:0:
429,86,80416,2,0,L|292:126,1,125.999996154785,8|8,0:0|0:0,0:0:0:0:
172,53,80916,6,0,L|148:10,4,41.9999987182618,12|0|0|0|8,0:0|0:0|0:0|0:0|0:0,0:0:0:0:
210,146,81416,2,0,P|194:208|155:248,1,83.9999974365235,8|0,0:0|2:0,0:0:0:0:
116,300,81750,2,0,P|85:246|95:171,1,125.999996154785,8|8,0:0|0:0,0:0:0:0:
182,64,82250,5,0,0:0:0:0:
280,43,82416,2,0,P|347:56|422:163,1,167.999994873047,2|0,0:0|0:0,0:0:0:0:
493,188,82916,2,0,P|460:212|419:224,1,83.9999974365235,0|2,0:0|0:0,0:0:0:0:
328,192,83250,1,8,0:0:0:0:
238,236,83416,1,0,0:0:0:0:
148,192,83583,5,0,0:0:0:0:
66,132,83750,2,0,P|136:93|229:130,1,167.999994873047,2|0,0:0|0:0,0:0:0:0:
148,192,84250,2,0,P|120:239|97:268,1,83.9999974365235,0|2,0:0|0:0,0:0:0:0:
159,345,84583,1,8,0:0:0:0:
159,345,84750,1,0,0:0:0:0:
256,312,84916,5,0,0:0:0:0:
351,345,85083,2,0,P|423:323|485:240,1,167.999994873047,2|0,0:0|0:0,0:0:0:0:
484,152,85583,2,0,P|462:80|437:53,1,83.9999974365235,0|2,0:0|0:0,0:0:0:0:
384,144,85916,1,8,0:0:0:0:
296,196,86083,1,0,0:0:0:0:
208,144,86250,6,0,L|162:103,4,41.9999987182618,12|0|0|0|8,0:0|0:0|0:0|0:0|0:0,0:0:0:0:
204,244,86750,2,0,L|124:176,1,83.9999974365235,8|0,0:0|2:0,0:0:0:0:
160,304,87083,2,0,L|63:222,1,125.999996154785,8|8,0:0|0:0,0:0:0:0:
236,315,87583,6,0,L|276:351,4,41.9999987182618,12|0|0|0|8,0:0|0:0|0:0|0:0|0:0,0:0:0:0:
278,223,88083,2,0,P|311:193|360:169,1,83.9999974365235,8|0,0:0|2:0,0:0:0:0:
386,81,88416,2,0,P|310:101|250:137,1,125.999996154785,8|8,0:0|0:0,0:0:0:0:
141,205,88916,6,0,L|115:165,4,41.9999987182618,12|0|0|0|8,0:0|0:0|0:0|0:0|0:0,0:0:0:0:
196,288,89416,2,0,P|244:312|308:316,1,83.9999974365235,8|0,0:0|2:0,0:0:0:0:
314,224,89750,2,0,P|366:200|414:136,1,125.999996154785,8|8,0:0|0:0,0:0:0:0:
256,192,90250,12,4,91583,0:0:0:0:
252,270,96250,6,0,B|240:328|240:328|186:373|115:338,1,168,4|0,0:3|0:0,0:0:0:0:
172,248,96916,6,0,P|176:188|172:128,1,112,4|0,0:3|0:0,0:0:0:0:
152,56,97416,1,0,0:0:0:0:
232,84,97583,2,0,P|292:88|352:84,1,112,4|0,0:3|0:0,0:0:0:0:
468,120,98139,1,0,0:0:0:0:
468,120,98250,2,0,P|482:163|492:176,1,56,4|0,0:3|0:0,0:0:0:0:
404,176,98583,2,0,P|392:215|380:232,1,56
464,248,98916,2,0,P|484:312|512:372,1,112,4|4,0:3|0:3,0:0:0:0:
335,376,99583,6,0,P|281:367|242:328,1,112,4|0,0:3|0:0,0:0:0:0:
247,243,100083,1,0,0:0:0:0:
310,187,100250,2,0,P|327:264|304:305,1,112,4|0,0:3|0:0,0:0:0:0:
183,299,100805,1,0,0:0:0:0:
183,299,100916,2,0,P|166:222|189:181,2,112,4|0|4,0:3|0:0|0:3,0:0:0:0:
422,50,102250,6,0,P|373:32|332:31,1,70,4|0,0:3|0:0,0:0:0:0:
263,80,102583,2,0,P|245:129|244:170,1,70,4|0,0:3|0:0,0:0:0:0:
293,239,102916,2,0,P|342:257|383:258,1,70,4|0,0:3|0:0,0:0:0:0:
454,212,103250,2,0,P|472:163|473:122,1,70,8|0,0:3|0:0,0:0:0:0:
422,50,103583,6,0,P|373:32|332:31,1,70,4|0,0:3|0:0,0:0:0:0:
240,122,103916,2,0,P|271:136|306:141,1,70,4|0,0:3|0:0,0:0:0:0:
249,235,104250,2,0,P|217:249|182:254,1,70,4|0,0:3|0:0,0:0:0:0:
67,322,104583,2,0,P|98:336|133:341,1,70,12|0,0:3|0:0,0:0:0:0:
241,328,104916,5,4,0:3:0:0:
327,357,105083,1,0,0:0:0:0:
413,328,105250,2,0,P|467:290|481:260,1,70,4|0,0:3|0:0,0:0:0:0:
471,182,105583,2,0,P|446:156|415:141,1,70,4|0,0:3|0:0,0:0:0:0:
368,235,105916,2,0,P|326:254|280:254,1,70,8|0,0:3|0:0,0:0:0:0:
219,191,106250,6,0,P|223:145|246:105,1,70,4|0,0:3|0:0,0:0:0:0:
318,76,106583,1,4,0:3:0:0:
393,139,106750,1,0,0:0:0:0:
302,175,106916,1,8,0:0:0:0:
377,324,107583,6,0,L|432:333,2,46.6666666666667,8|0|0,0:0|0:0|0:0,0:0:0:0:
307,324,107916,2,0,L|252:333,2,46.6666666666667,0|0|0,0:0|0:0|0:0,0:0:0:0:
344,264,108250,2,0,B|355:214|341:142,1,93.3333333333333,8|0,0:0|0:0,0:0:0:0:
389,116,108583,2,0,L|437:147,2,46.6666666666667,0|0|0,0:0|0:0|0:0,0:0:0:0:
325,86,108916,6,0,B|276:101|220:149,1,93.3333333333333,8|0,0:0|0:0,0:0:0:0:
174,121,109250,2,0,L|176:63,2,46.6666666666667,0|0|0,0:0|0:0|0:0,0:0:0:0:
178,191,109583,2,0,B|215:225|285:249,1,93.3333333333333,8|0,0:0|0:0,0:0:0:0:
284,304,109916,2,0,L|233:330,2,46.6666666666667,0|0|0,0:0|0:0|0:0,0:0:0:0:
344,264,110250,6,0,B|355:214|341:142,1,93.3333333333333,8|0,0:0|0:0,0:0:0:0:
293,124,110583,2,0,L|236:150,2,46.6666666666667,0|0|0,0:0|0:0|0:0,0:0:0:0:
286,54,110916,2,0,P|217:55|153:44,1,93.3333333333333,8|0,0:0|0:0,0:0:0:0:
128,80,111250,2,0,P|99:139|68:173,1,93.3333333333333
89,229,111583,6,0,L|136:246,2,46.6666666666667,8|0|0,0:0|0:0|0:0,0:0:0:0:
44,282,111916,2,0,L|-3:299,2,46.6666666666667,0|0|0,0:0|0:0|0:0,0:0:0:0:
97,327,112250,2,0,P|135:362|179:377,2,93.3333333333333,8|4|4,0:0|0:3|0:3,0:0:0:0:
209,243,112916,6,0,P|274:203|325:200,1,112,4|2,0:0|0:3,0:0:0:0:
435,243,113582,1,2,0:3:0:0:
406,111,113916,2,0,P|341:71|290:68,1,112,4|2,0:3|0:3,0:0:0:0:
180,114,114582,1,2,0:3:0:0:
142,242,114916,6,0,P|101:311|56:336,1,112,4|2,0:3|0:3,0:0:0:0:
10,207,115582,1,2,0:3:0:0:
117,126,115916,2,0,P|178:127|236:168,1,112,4|2,0:3|0:3,0:0:0:0:
256,209,116416,1,0,0:3:0:0:
306,253,116582,1,2,0:3:0:0:
373,257,116749,1,0,0:0:0:0:
432,227,116916,6,0,P|460:180|470:114,1,112,4|2,0:0|0:3,0:0:0:0:
447,61,117416,1,0,0:0:0:0:
381,75,117582,2,0,P|332:81|303:79,1,56,2|0,0:3|0:0,0:0:0:0:
301,159,117916,2,0,P|254:143|192:95,2,112,4|2|2,0:3|0:3|0:3,0:0:0:0:
170,193,118916,6,0,P|133:159|98:88,1,112,4|2,0:3|0:3,0:0:0:0:
65,49,119416,1,0,0:0:0:0:
29,108,119582,2,0,L|8:177,1,56,2|0,0:3|0:0,0:0:0:0:
46,221,119916,2,0,P|65:278|92:338,1,112,4|2,0:3|0:3,0:0:0:0:
151,314,120415,2,0,P|190:298|212:285,2,56,0|4|0,0:0|0:3|0:0,0:0:0:0:
255,350,120915,6,0,P|330:336|367:302,1,112,4|0,0:0|0:0,0:0:0:0:
268,213,121582,1,4,0:3:0:0:
390,157,121915,2,0,P|433:94|435:43,1,112,8|0,0:0|0:0,0:0:0:0:
405,0,122415,1,0,0:0:0:0:
344,29,122582,2,0,P|290:53|229:62,1,112,4|4,0:3|0:3,0:0:0:0:
104,48,123249,5,0,0:0:0:0:
67,103,123415,1,4,0:3:0:0:
104,160,123582,2,0,B|146:207|138:271|138:262,1,112,4|8,0:3|0:0,0:0:0:0:
36,350,124249,1,0,0:0:0:0:
10,218,124582,1,4,0:3:0:0:
138,262,124915,5,4,0:0:0:0:
237,316,125249,1,0,0:0:0:0:
230,204,125582,1,4,0:3:0:0:
331,250,125915,5,8,0:0:0:0:
275,79,126249,1,0,0:0:0:0:
448,123,126582,1,4,0:3:0:0:
277,178,126915,5,4,0:3:0:0:
424,40,127249,1,0,0:0:0:0:
348,226,127582,1,4,0:3:0:0:
341,24,127915,1,8,0:0:0:0:
429,205,128249,1,0,0:0:0:0:
275,79,128582,1,4,0:3:0:0:
256,268,128915,6,0,P|233:326|206:351,2,70,4|0|8,0:0|0:0|0:0,0:0:0:0:
191,202,129415,2,0,P|214:144|241:119,2,70,0|0|0,0:0|0:0|0:0,0:0:0:0:
133,273,129915,2,0,P|91:298|56:297,1,70,8|0,0:0|0:0,0:0:0:0:
24,220,130248,5,2,0:0:0:0:
85,153,130415,1,0,0:0:0:0:
24,84,130581,1,10,0:0:0:0:
85,16,130748,1,0,0:0:0:0:
144,84,130915,2,2,B|196:102|207:114|207:114|216:103|277:82,1,140,2|8,0:0|0:0,0:0:0:0:
433,130,131581,6,0,P|466:205|429:290,1,167.999994873047,4|8,0:0|0:0,0:0:0:0:
283,129,132248,2,0,P|267:87|271:39,1,83.9999974365235,0|0,0:0|0:0,0:0:0:0:
254,234,132748,6,0,P|212:305|111:319,1,167.999994873047,4|0,0:0|0:0,0:0:0:0:
47,270,133248,1,8,0:0:0:0:
135,221,133415,1,0,0:0:0:0:
50,166,133581,2,0,P|38:124|55:60,1,83.9999974365235
128,30,133915,2,0,P|170:40|217:87,1,83.9999974365235,8|0,0:0|0:0,0:0:0:0:
190,165,134248,6,0,P|273:139|302:54,1,167.999994873047,4|8,0:0|0:0,0:0:0:0:
389,17,134748,1,0,0:0:0:0:
461,86,134915,2,0,P|480:143|483:175,1,83.9999974365235
463,266,135248,1,8,0:0:0:0:
369,228,135415,6,0,P|283:208|200:251,1,167.999994873047,0|2,0:0|0:2,0:0:0:0:
212,238,135831,1,0,0:0:0:0:
212,238,135915,1,0,0:0:0:0:
168,329,136081,1,2,0:2:0:0:
93,262,136248,2,0,P|48:225|15:212,1,83.9999974365235,2|2,0:2|0:2,0:0:0:0:
23,113,136581,2,0,P|77:92|105:70,1,83.9999974365235,8|0,0:0|0:0,0:0:0:0:
178,138,136915,6,0,P|259:153|340:132,1,167.999994873047,4|8,0:0|0:0,0:0:0:0:
396,47,137415,1,0,0:0:0:0:
443,135,137581,2,0,P|479:170|508:187,2,83.9999974365235,0|0|8,0:0|0:0|0:0,0:0:0:0:
340,131,138081,6,0,P|259:152|178:138,1,167.999994873047
79,36,138581,2,0,P|98:73|106:114,1,83.9999974365235,8|0,0:0|0:0,0:0:0:0:
62,253,138915,2,0,P|84:217|115:189,1,83.9999974365235
163,344,139248,2,0,P|121:342|81:329,1,83.9999974365235,8|0,0:0|0:0,0:0:0:0:
188,182,139581,6,0,P|242:224|214:325,1,167.999994873047,0|8,0:0|0:0,0:0:0:0:
123,226,140081,2,0,P|110:174|188:104,1,167.999994873047,2|2,0:0|0:0,0:0:0:0:
186,104,140498,1,0,0:0:0:0:
186,104,140581,1,8,0:0:0:0:
288,28,140748,2,0,B|326:81|309:140|309:140|354:197|358:268,1,251.999992309571,6|8,0:0|0:0,0:0:0:0:
156,271,141581,6,0,P|91:292|64:289,1,83.9999974365235
13,211,141915,2,0,P|78:190|105:193,1,83.9999974365235,8|0,0:0|0:0,0:0:0:0:
192,175,142248,6,0,P|234:211|368:189,1,167.999994873047,4|8,0:0|0:0,0:0:0:0:
384,117,142748,1,0,0:0:0:0:
322,37,142915,2,0,P|294:68|286:109,2,83.9999974365235,0|0|8,0:0|0:0|0:0,0:0:0:0:
384,117,143414,6,0,P|437:185|408:277,1,167.999994873047
261,230,143914,2,0,L|342:206,1,83.9999974365235,8|0,0:0|0:0,0:0:0:0:
285,323,144248,2,0,L|204:347,1,83.9999974365235
86,284,144581,2,0,P|63:243|55:192,1,83.9999974365235,8|0,0:0|0:0,0:0:0:0:
81,92,144914,6,0,P|131:56|177:137,1,167.999994873047,4|8,0:0|0:0,0:0:0:0:
175,254,145414,2,0,P|243:286|275:217,1,167.999994873047,4|8,0:0|0:0,0:0:0:0:
282,91,145914,2,0,P|332:55|455:170,1,251.999992309571,4|0,0:0|0:0,0:0:0:0:
457,155,146498,1,0,0:0:0:0:
457,155,146581,1,8,0:0:0:0:
361,148,146748,1,0,0:0:0:0:
300,227,146914,1,0,0:0:0:0:
400,234,147081,1,0,0:0:0:0:
400,234,147414,6,0,P|367:318|277:341,1,167.999994873047,4|0,0:0|0:0,0:0:0:0:
302,244,147914,2,0,P|256:214|239:178,1,83.9999974365235,8|0,0:0|0:0,0:0:0:0:
224,88,148248,1,0,0:0:0:0:
305,29,148414,1,0,0:0:0:0:
317,129,148581,1,8,0:0:0:0:
224,88,148748,6,0,P|158:69|57:129,1,167.999994873047
160,184,149248,2,0,P|216:201|245:224,1,83.9999974365235,8|0,0:0|0:0,0:0:0:0:
158,280,149581,2,0,P|115:319|80:333,1,83.9999974365235
70,231,149914,2,0,P|56:174|62:137,1,83.9999974365235,8|0,0:0|0:0,0:0:0:0:
130,77,150248,6,0,B|214:41|214:109|302:73,1,167.999994873047,2|10,0:0|0:0,0:0:0:0:
386,37,150748,1,0,0:0:0:0:
436,120,150914,2,0,P|472:148|512:164,2,83.9999974365235,2|0|8,0:0|0:0|0:0,0:0:0:0:
344,160,151414,6,0,P|316:264|268:304,1,167.999994873047,2|0,0:0|0:0,0:0:0:0:
176,332,151914,2,0,P|116:312|93:282,1,83.9999974365235,8|0,0:0|0:0,0:0:0:0:
21,211,152248,1,10,0:0:0:0:
126,150,152414,1,10,0:0:0:0:
126,150,152748,6,0,P|207:121|282:160,1,167.999994873047,6|0,0:0|0:0,0:0:0:0:
333,238,153248,2,0,P|382:248|433:225,1,83.9999974365235,10|0,0:0|0:0,0:0:0:0:
453,145,153581,2,0,P|491:170|506:289,1,167.999994873047,2|8,0:0|0:0,0:0:0:0:
437,354,154081,6,0,P|396:374|285:327,1,167.999994873047,6|0,0:0|0:0,0:0:0:0:
281,232,154581,2,0,P|232:247|202:285,1,83.9999974365235,10|0,0:0|0:0,0:0:0:0:
119,313,154914,2,0,P|130:263|112:218,1,83.9999974365235,2|0,0:0|0:0,0:0:0:0:
133,131,155248,2,0,P|170:165|218:172,1,83.9999974365235,10|0,0:0|0:0,0:0:0:0:
316,147,155581,1,4,1:0:0:0:
256,192,155664,12,4,158248,0:1:0:0:
36,52,165414,6,0,B|160:112|160:-12|304:52,1,280
368,124,166248,6,0,P|392:172|360:264,1,140,4|8,0:1|0:0,0:0:0:0:
294,190,166748,2,0,P|229:167|165:193,1,140,0|0,0:0|0:0,0:0:0:0:
94,261,167248,1,8,0:0:0:0:
166,326,167414,1,4,0:3:0:0:
240,261,167581,6,0,L|324:261,1,70
388,171,167914,2,0,L|304:171,1,70,8|0,0:0|0:0,0:0:0:0:
268,88,168248,2,0,B|336:60|336:112|404:80,1,140,0|8,0:0|0:0,0:0:0:0:
488,32,168748,1,0,0:0:0:0:
488,32,168914,6,0,P|500:66|495:111,1,70,4|0,0:1|0:0,0:0:0:0:
448,184,169248,1,8,0:0:0:0:
380,254,169414,2,0,L|415:295,2,35
310,184,169748,1,0,0:0:0:0:
235,246,169914,2,0,P|183:282|163:290,1,70,8|4,0:0|0:3,0:0:0:0:
44,232,170248,6,0,P|96:196|116:188,2,70,0|0|8,0:0|0:0|0:0,0:0:0:0:
32,108,170748,2,0,P|94:119|114:127,2,70,0|0|0,0:0|0:0|0:0,0:0:0:0:
116,8,171248,2,0,P|151:60|160:80,1,70,8|0,0:0|0:0,0:0:0:0:
188,156,171581,6,0,P|240:180|328:140,1,140,4|8,0:1|0:0,0:0:0:0:
364,68,172081,1,0,0:0:0:0:
408,156,172248,2,0,L|440:240,1,70,0|0,0:0|0:0,0:0:0:0:
388,324,172581,2,0,L|356:240,1,70,8|4,0:0|0:3,0:0:0:0:
280,312,172914,6,0,P|240:340|200:348,1,70
121,352,173248,1,8,0:0:0:0:
37,301,173414,2,0,P|86:259|171:268,1,140,0|0,0:0|0:0,0:0:0:0:
158,261,173831,1,0,0:0:0:0:
158,261,173914,1,8,0:0:0:0:
256,284,174081,1,0,0:0:0:0:
346,249,174248,6,0,P|380:238|410:221,1,70,4|0,0:1|0:0,0:0:0:0:
458,135,174581,1,8,0:0:0:0:
411,48,174748,2,0,P|380:31|260:16,1,140
183,101,175248,2,0,P|141:141|121:148,1,70,8|4,0:0|0:3,0:0:0:0:
256,296,175748,5,4,0:3:0:0:
381,145,176081,1,4,0:3:0:0:
130,145,176414,2,0,B|72:161|60:213|60:213|79:252,1,140,4|4,0:3|0:3,0:0:0:0:
89,335,176914,6,0,P|129:326|164:303,1,83.9999974365235,6|0,0:1|0:0,0:0:0:0:
203,209,177248,1,8,0:0:0:0:
303,209,177414,1,0,0:0:0:0:
339,303,177581,2,0,P|373:325|414:335,1,83.9999974365235,0|0,0:1|0:0,0:0:0:0:
492,264,177914,2,0,L|492:180,1,83.9999974365235,10|0,0:1|0:0,0:0:0:0:
432,96,178248,5,2,0:1:0:0:
380,180,178414,1,0,0:0:0:0:
324,96,178581,2,0,P|287:75|247:63,1,83.9999974365235,8|0,0:0|0:0,0:0:0:0:
148,44,178914,1,0,0:0:0:0:
48,48,179081,1,0,0:0:0:0:
100,128,179248,2,0,L|108:220,1,83.9999974365235,8|0,0:0|0:0,0:0:0:0:
151,302,179581,6,0,B|196:283|209:241|207:206|207:206|199:139,1,167.999994873047,6|8,0:1|0:0,0:0:0:0:
256,72,180081,1,0,0:0:0:0:
310,157,180248,2,0,L|300:256,2,83.9999974365235,0|0|8,0:0|0:0|0:0,0:0:0:0:
384,88,180748,6,0,P|436:96|495:197,1,167.999994873047,6|0,0:1|0:0,0:0:0:0:
394,190,181248,1,8,0:0:0:0:
394,190,181414,2,0,P|319:223|295:301,1,167.999994873047,2|0,0:1|0:0,0:0:0:0:
225,373,181914,2,8,B|196:347|186:304|198:269|198:269|129:259,1,167.999994873047,10|6,0:1|0:1,0:0:0:0:
61,316,182414,5,0,0:0:0:0:
27,220,182581,1,8,0:0:0:0:
46,120,182748,2,0,L|6:95,2,41.9999987182618,0|0|0,0:0|0:0|0:0,0:0:0:0:
145,139,183081,1,0,0:0:0:0:
198,53,183248,2,8,P|235:25|271:19,1,83.9999974365235,10|0,0:1|0:0,0:0:0:0:
274,120,183581,5,2,0:1:0:0:
280,220,183748,2,0,P|348:185|366:85,1,167.999994873047
440,28,184248,2,0,B|480:40|480:40|504:74,1,83.9999974365235,2|0,0:1|0:0,0:0:0:0:
505,175,184581,2,0,B|474:203|474:203|420:209,1,83.9999974365235,8|0,0:0|0:0,0:0:0:0:
382,119,184914,6,0,L|448:119,2,41.9999987182618,2|0|0,0:1|0:0|0:0,0:0:0:0:
311,46,185248,2,0,P|282:91|279:126,1,83.9999974365235,8|0,0:0|0:0,0:0:0:0:
322,211,185581,2,0,B|314:251|314:251|289:285,1,83.9999974365235
208,225,185914,1,10,0:1:0:0:
149,307,186081,6,0,B|108:280|95:233|105:178|138:151|138:151|154:135|182:124|228:83|211:17,1,335.999989746094,2|0,0:1|0:0,0:1:0:0:
116,41,186914,2,2,P|31:120|14:278,1,251.999992309571,0|4,0:1|0:3,0:1:0:0:
104,336,187581,6,0,P|176:348|258:282,1,140,14|8,0:1|0:0,0:0:0:0:
293,291,188026,2,0,L|339:328,2,46.6666666666667,8|8|10,0:0|0:0|0:1,0:0:0:0:
313,159,188470,2,0,L|359:196,1,46.6666666666667,0|8,0:0|0:0,0:0:0:0:
251,18,188914,6,0,P|174:28|116:89,1,140,14|8,0:1|0:0,0:0:0:0:
114,131,189359,2,8,P|86:176|74:185,2,46.6666666666667,8|8|10,0:0|0:0|0:1,0:0:0:0:
216,211,189803,2,0,P|244:256|264:271,1,46.6666666666667,0|8,0:0|0:0,0:0:0:0:
416,340,190248,6,0,P|448:268|404:200,1,140,14|8,0:1|0:0,0:0:0:0:
440,152,190692,2,0,L|510:151,1,46.6666666666667,8|8,0:0|0:0,0:0:0:0:
476,80,190914,2,0,B|397:81|397:81|365:107|360:148,1,140,10|10,0:1|0:1,0:0:0:0:
256,296,191581,6,0,P|212:332|196:336,2,46.6666666666667,10|0|0,0:1|0:0|0:0,0:0:0:0:
182,265,191914,2,0,P|125:259|111:251,2,46.6666666666667,8|0|0,0:1|0:0|0:0,0:0:0:0:
152,192,192248,2,0,P|116:148|112:132,2,46.6666666666667,10|0|0,0:1|0:0|0:0,0:3:0:0:
182,118,192581,2,0,P|188:61|196:47,2,46.6666666666667,10|0|0,0:1|0:0|0:0,2:0:0:0:
227,176,192914,6,0,P|278:214|368:205,1,140,14|8,0:1|0:0,0:0:0:0:
418,188,193359,2,0,P|422:223|418:259,2,46.6666666666667,8|8|10,0:0|0:0|0:1,0:0:0:0:
341,17,193914,1,10,0:1:0:0:
173,29,194248,6,0,P|127:54|86:132,1,140,14|10,0:1|0:1,0:0:0:0:
86,185,194692,2,0,L|86:252,1,46.6666666666667,8|10,0:0|0:1,0:0:0:0:
89,287,194914,2,0,P|130:336|216:354,1,140,10|10,0:1|0:1,0:0:0:0:
256,196,195581,6,0,L|256:260,2,46.6666666666667,14|0|0,0:1|0:0|0:0,0:0:0:0:
256,140,195914,2,0,L|256:80,2,46.6666666666667,8|0|0,0:0|0:0|0:0,0:0:0:0:
312,152,196248,2,0,P|364:180|424:176,1,93.3333333333333,8|0,0:0|0:0,0:0:0:0:
456,204,196581,2,0,L|420:328,1,93.3333333333333,10|0,0:1|0:0,0:0:0:0:
380,336,196914,6,0,P|352:348|324:356,2,46.6666666666667,10|0|0,0:1|0:0|0:0,0:0:0:0:
356,266,197248,2,0,P|334:257|313:247,2,46.6666666666667,8|0|0,0:0|0:0|0:0,0:0:0:0:
361,186,197581,2,0,P|284:175|236:247,1,140,8|10,0:0|0:1,0:0:0:0:
129,339,198248,6,0,L|69:319,2,46.6666666666667,14|0|0,0:1|0:0|0:0,0:0:0:0:
129,268,198581,2,0,L|187:249,2,46.6666666666667,8|0|0,0:0|0:0|0:0,0:0:0:0:
129,197,198914,2,0,L|69:177,2,46.6666666666667,8|0|0,0:0|0:0|0:0,0:0:0:0:
129,126,199248,2,0,L|173:111,2,46.6666666666667,10|0|0,0:1|0:0|0:0,0:0:0:0:
78,75,199581,5,4,0:0:0:0:
256,192,199664,12,4,202248,0:0:0:0:
300,236,210248,6,0,P|340:268|388:272,1,97.9999970092774,4|0,0:0|0:0,0:0:0:0:
320,152,210914,1,0,0:0:0:0:
212,236,211248,2,0,P|172:268|124:272,1,97.9999970092774,2|0,0:0|0:0,0:0:0:0:
192,152,211914,1,0,0:0:0:0:
292,56,212248,6,0,P|336:40|392:40,1,97.9999970092774,2|0,0:0|0:0,0:0:0:0:
364,176,212914,1,0,0:0:0:0:
340,312,213248,2,0,P|388:311|434:295,2,97.9999970092774,2|0|0,0:0|0:0|0:0,0:0:0:0:
208,268,214248,5,4,0:0:0:0:
116,192,214581,1,0,0:0:0:0:
156,80,214914,1,0,0:0:0:0:
356,80,215248,5,2,0:0:0:0:
396,192,215581,1,0,0:0:0:0:
304,268,215914,1,0,0:0:0:0:
256,160,216248,6,0,L|256:56,2,97.9999970092774,4|0|0,0:0|0:0|0:0,0:0:0:0:
210,267,217247,2,0,P|256:279|305:267,2,97.9999970092774,2|0|0,0:0|0:0|0:0,0:0:0:0:
124,183,218247,5,4,0:0:0:0:
172,76,218581,1,0,0:0:0:0:
256,212,218914,1,0,0:0:0:0:
256,96,219247,1,4,0:3:0:0:
388,183,219581,1,8,0:0:0:0:
340,76,219914,1,8,0:0:0:0:
190,180,220247,6,0,P|256:285|321:180,1,293.999991027832,4|0,0:1|0:0,0:0:0:0:
214,18,221581,5,2,0:0:0:0:
189,98,221747,1,0,0:0:0:0:
257,147,221914,1,2,0:0:0:0:
324,98,222081,1,0,0:0:0:0:
298,18,222247,1,2,0:0:0:0:
257,147,222914,6,0,B|232:220|280:220|256:288,1,140,4|8,0:1|0:0,0:0:0:0:
146,157,223581,2,0,P|164:103|189:80,1,70
340,93,224081,6,0,P|372:160|372:249,1,140,4|0,0:0|0:0,0:0:0:0:
309,277,224581,2,0,P|368:309|433:287,1,140,8|0,0:0|0:0,0:0:0:0:
468,212,225081,2,0,L|515:211,2,35,0|0|8,0:0|0:0|0:0,0:0:0:0:
433,135,225414,1,0,0:0:0:0:
374,74,225581,6,0,P|309:52|249:84,1,140,4|8,0:0|0:0,0:0:0:0:
200,152,226081,1,0,0:0:0:0:
149,218,226247,2,0,P|106:244|75:251,2,70,0|0|8,0:0|0:0|0:0,0:0:0:0:
200,152,226747,6,0,P|231:201|208:279,1,140,4|0,0:0|0:0,0:0:0:0:
248,351,227247,2,0,L|333:351,1,70,8|0,0:0|0:0,0:0:0:0:
404,264,227581,2,0,L|369:264,2,35,0|0|0,0:0|0:0|0:0,0:0:0:0:
288,188,227914,2,0,L|323:188,2,35,8|0|0,0:0|0:0|0:0,0:0:0:0:
403,123,228247,6,0,P|377:101|345:87,1,70,4|0,0:0|0:0,0:0:0:0:
195,61,228581,2,0,P|221:83|253:97,1,70,8|0,0:0|0:0,0:0:0:0:
407,55,228914,2,0,P|374:66|346:86,1,70,0|0,0:0|0:0,0:0:0:0:
192,131,229247,2,0,P|224:118|253:98,1,70,8|0,0:0|0:0,0:0:0:0:
349,17,229581,6,0,P|341:52|345:86,1,70
250,166,229914,2,0,P|257:132|253:98,1,70,8|0,0:0|0:0,0:0:0:0:
153,27,230247,2,0,L|196:40,4,35,0|0|0|0|8,0:0|0:0|0:0|0:0|0:0,0:0:0:0:
69,19,230747,1,0,0:0:0:0:
93,99,230914,6,0,P|110:164|104:246,1,140,4|8,0:0|0:0,0:0:0:0:
95,347,231414,2,0,P|142:299|216:263,1,140,2|2,0:0|0:0,0:0:0:0:
206,265,231831,1,0,0:0:0:0:
207,266,231914,1,8,0:0:0:0:
303,323,232081,2,0,B|371:336|371:289|444:322,1,140,6|6,0:0|0:0,0:0:0:0:
439,319,232581,1,10,0:0:0:0:
430,151,232914,6,0,P|379:108|368:104,1,70
292,107,233247,2,0,P|262:124|238:150,1,70
165,236,233581,6,0,P|90:268|15:235,1,167.999994873047,4|8,0:0|0:0,0:0:0:0:
92,167,234081,1,0,0:0:0:0:
168,101,234247,2,0,P|134:75|92:67,2,83.9999974365235,0|0|8,0:0|0:0|0:0,0:0:0:0:
236,174,234747,6,0,P|305:224|396:181,1,167.999994873047,0|0,0:0|0:0,0:0:0:0:
363,66,235247,2,0,P|332:92|318:132,1,83.9999974365235,8|0,0:0|0:0,0:0:0:0:
451,196,235581,2,0,P|443:155|416:123,1,83.9999974365235
296,209,235914,2,0,P|335:223|376:215,1,83.9999974365235,8|0,0:0|0:0,0:0:0:0:
318,132,236247,6,0,P|237:90|171:153,1,167.999994873047,4|8,0:0|0:0,0:0:0:0:
69,197,236747,2,0,P|150:239|216:176,1,167.999994873047,4|8,0:0|0:0,0:0:0:0:
318,132,237247,2,0,P|441:124|481:246,1,251.999992309571,4|0,0:0|0:0,0:0:0:0:
386,211,237914,5,8,0:0:0:0:
286,226,238080,2,0,L|229:206,2,41.9999987182618,0|0|0,0:0|0:0|0:0,0:0:0:0:
347,306,238414,2,0,L|435:343,1,83.9999974365235,0|8,0:0|0:0,0:0:0:0:
479,253,238747,6,0,P|482:171|420:114,1,167.999994873047,4|0,0:0|0:0,0:0:0:0:
386,211,239247,2,0,P|338:235|305:244,1,83.9999974365235,8|0,0:0|0:0,0:0:0:0:
232,176,239580,2,0,P|165:139|77:162,1,167.999994873047,0|8,0:0|0:0,0:0:0:0:
147,256,240080,6,0,P|214:293|302:270,1,167.999994873047,4|0,0:0|0:0,0:0:0:0:
386,221,240580,1,8,0:0:0:0:
471,275,240747,1,0,0:0:0:0:
471,173,240914,2,0,P|409:125|319:149,1,167.999994873047,0|8,0:0|0:0,0:0:0:0:
386,221,241414,6,0,L|420:45,1,167.999994873047,4|0,0:0|0:0,0:0:0:0:
317,61,241914,2,0,P|275:73|217:65,1,83.9999974365235,8|0,0:0|0:0,0:0:0:0:
136,50,242247,1,0,0:0:0:0:
41,14,242414,1,0,0:0:0:0:
54,113,242580,1,8,0:0:0:0:
123,186,242747,6,0,P|199:217|287:202,1,167.999994873047,4|0,0:0|0:0,0:0:0:0:
378,174,243247,2,0,L|364:283,1,83.9999974365235,8|0,0:0|0:0,0:0:0:0:
468,201,243580,2,0,L|478:117,2,83.9999974365235,0|0|8,0:0|0:0|0:0,0:0:0:0:
456,318,244080,1,0,0:0:0:0:
362,356,244247,6,0,P|284:355|256:343,1,83.9999974365235,0|0,0:0|2:0,0:0:0:0:
181,329,244580,2,0,P|142:261|215:242,1,167.999994873047,12|0,0:0|0:0,0:0:0:0:
306,257,245080,1,0,0:0:0:0:
405,271,245247,1,8,0:0:0:0:
362,180,245414,6,0,P|299:119|204:120,1,167.999994873047,0|0,0:0|0:0,0:0:0:0:
141,174,245914,2,0,P|80:191|46:191,1,83.9999974365235,8|0,0:0|0:0,0:0:0:0:
81,93,246247,2,0,P|96:31|113:3,1,83.9999974365235
183,78,246580,2,0,P|228:122|245:151,1,83.9999974365235,8|0,0:0|0:0,0:0:0:0:
292,226,246914,6,0,P|362:263|448:220,1,167.999994873047,4|8,0:0|0:0,0:0:0:0:
479,138,247414,1,0,0:0:0:0:
380,84,247580,2,0,P|366:123|370:169,2,83.9999974365235,0|0|8,0:0|0:0|0:0,0:0:0:0:
294,32,248080,6,0,B|264:72|219:76|219:76|124:76,1,167.999994873047,0|0,0:0|0:0,0:0:0:0:
72,156,248580,2,0,L|168:156,1,83.9999974365235,8|0,0:0|0:0,0:0:0:0:
224,236,248914,2,0,L|140:236,2,83.9999974365235,0|0|8,0:0|0:0|0:0,0:0:0:0:
284,317,249414,1,0,0:0:0:0:
344,236,249580,6,0,P|403:180|493:191,1,167.999994873047,4|8,0:0|0:0,0:0:0:0:
438,275,250080,1,0,0:0:0:0:
358,337,250247,2,0,P|304:364|255:367,2,83.9999974365235,0|0|8,0:0|0:0|0:0,0:0:0:0:
345,236,250747,6,0,P|291:209|183:217,1,167.999994873047,0|0,0:0|0:0,0:0:0:0:
122,294,251247,2,0,P|65:302|33:290,1,83.9999974365235,8|0,0:0|0:0,0:0:0:0:
16,196,251580,2,0,P|8:139|20:107,1,83.9999974365235
110,79,251914,2,0,P|167:71|199:83,1,83.9999974365235,8|0,0:0|0:0,0:0:0:0:
263,147,252247,6,0,P|301:217|381:215,1,167.999994873047,0|8,0:0|0:0,0:0:0:0:
459,83,252747,2,0,P|379:81|341:151,1,167.999994873047,2|2,0:0|0:0,0:0:0:0:
340,151,253164,1,0,0:0:0:0:
341,151,253247,1,8,0:0:0:0:
419,282,253414,2,0,P|460:206|400:138,1,167.999994873047,6|0,0:0|0:0,0:0:0:0:
362,229,253914,6,0,P|322:259|269:264,1,83.9999974365235,8|0,0:0|0:0,0:0:0:0:
206,207,254247,1,0,0:0:0:0:
123,264,254414,1,0,0:0:0:0:
39,207,254580,2,0,L|7:239,2,41.9999987182618,8|0|0,0:0|0:0|0:0,0:0:0:0:
123,150,254914,6,0,P|169:115|274:133,1,167.999994873047,4|8,0:0|0:0,0:0:0:0:
340,208,255414,1,0,0:0:0:0:
364,305,255580,2,8,P|438:223|424:153,1,167.999994873047,0|8,0:0|0:0,0:0:0:0:
481,83,256080,6,0,P|426:54|311:59,1,167.999994873047,4|0,0:0|0:0,0:0:0:0:
275,144,256580,2,0,P|232:178|195:186,1,83.9999974365235,8|0,0:0|0:0,0:0:0:0:
194,286,256914,2,0,P|143:265|117:237,1,83.9999974365235
30,286,257247,2,0,P|22:231|33:195,1,83.9999974365235,8|0,0:0|0:0,0:0:0:0:
80,117,257580,6,0,B|101:64|158:41|158:41|198:101,1,167.999994873047,4|8,0:0|0:0,0:0:0:0:
260,223,258080,2,0,B|290:269|290:269|347:246|368:193,1,167.999994873047,4|8,0:0|0:0,0:0:0:0:
266,133,258580,2,0,B|157:194|157:194|160:268|204:308,1,251.999992309571,4|0,0:0|0:0,0:0:0:0:
296,350,259247,5,8,0:0:0:0:
388,308,259414,2,0,L|418:349,2,41.9999987182618,0|0|0,0:0|0:0|0:0,0:0:0:0:
297,263,259747,1,0,0:0:0:0:
297,263,260080,6,0,P|344:218|446:230,1,167.999994873047,4|0,0:0|0:0,0:0:0:0:
405,131,260580,2,0,P|355:132|310:147,1,83.9999974365235,8|0,0:0|0:0,0:0:0:0:
234,191,260914,2,0,P|156:215|80:166,1,167.999994873047,0|8,0:0|0:0,0:0:0:0:
168,116,261414,6,0,L|140:295,1,167.999994873047,0|0,0:0|0:0,0:0:0:0:
210,364,261914,2,0,L|222:274,1,83.9999974365235,8|0,0:0|0:0,0:0:0:0:
305,224,262247,2,0,P|348:153|356:71,1,167.999994873047,0|8,0:0|0:0,0:0:0:0:
281,26,262747,1,0,0:0:0:0:
191,71,262914,6,0,P|212:122|241:145,1,83.9999974365235,2|0,0:0|0:0,0:0:0:0:
172,220,263247,2,0,L|64:220,1,83.9999974365235,10|0,0:0|0:0,0:0:0:0:
29,302,263580,2,0,L|137:302,1,83.9999974365235,2|0,0:0|0:0,0:0:0:0:
200,344,263914,1,8,0:0:0:0:
200,344,264080,6,0,P|272:336|328:260,1,167.999994873047,6|0,0:0|0:0,0:0:0:0:
337,163,264580,1,8,0:0:0:0:
419,220,264747,1,0,0:0:0:0:
328,264,264914,5,10,0:0:0:0:
205,197,265080,1,10,0:0:0:0:
205,197,265414,6,0,P|159:131|212:64,1,167.999994873047,6|0,0:0|0:0,0:0:0:0:
298,99,265914,2,0,P|314:137|288:180,1,83.9999974365235,10|0,0:0|0:0,0:0:0:0:
248,262,266247,2,8,P|199:273|159:259,2,83.9999974365235,2|0|8,0:0|0:0|0:0,0:0:0:0:
204,353,266747,6,0,P|124:328|72:249,1,167.999994873047,6|0,0:0|0:0,0:0:0:0:
18,182,267247,2,0,P|17:134|35:79,1,83.9999974365235,10|0,0:0|0:0,0:0:0:0:
89,19,267580,1,2,0:0:0:0:
134,109,267747,1,0,0:0:0:0:
189,24,267914,2,0,P|240:16|302:32,1,83.9999974365235,10|0,0:0|0:0,0:0:0:0:
362,64,268247,6,0,L|406:60,4,41.9999987182618,12|0|0|0|8,0:0|0:0|0:0|0:0|0:0,0:0:0:0:
279,122,268747,2,0,P|294:176|319:202,1,83.9999974365235,8|0,0:0|2:0,0:0:0:0:
383,289,269080,2,0,L|224:289,1,125.999996154785,8|8,0:0|0:0,0:0:0:0:
110,191,269580,6,0,L|45:191,4,41.9999987182618,12|0|0|0|8,0:0|0:0|0:0|0:0|0:0,0:0:0:0:
219,151,270080,2,0,P|226:193|219:238,1,83.9999974365235,8|0,0:0|2:0,0:0:0:0:
335,250,270414,2,0,P|342:187|333:125,1,125.999996154785,8|8,0:0|0:0,0:0:0:0:
203,47,270914,5,0,0:0:0:0:
111,89,271080,2,0,P|77:142|104:240,1,167.999994873047,2|0,0:0|0:0,0:0:0:0:
174,167,271580,1,0,0:0:0:0:
256,108,271747,1,2,0:0:0:0:
338,167,271914,2,0,P|376:208|412:230,1,83.9999974365235,8|0,0:0|0:0,0:0:0:0:
484,276,272247,5,0,0:0:0:0:
400,332,272414,2,0,B|316:364|316:296|232:332,1,167.999994873047,2|0,0:0|0:0,0:0:0:0:
144,364,272914,1,0,0:0:0:0:
80,288,273080,1,2,0:0:0:0:
168,235,273247,2,0,P|197:206|210:167,2,83.9999974365235,8|0|0,0:0|0:0|0:0,0:0:0:0:
116,147,273747,6,0,P|162:81|243:74,1,167.999994873047,2|0,0:0|0:0,0:0:0:0:
325,132,274247,1,0,0:0:0:0:
408,74,274414,2,0,L|431:30,2,41.9999987182618,2|0|8,0:0|0:0|0:0,0:0:0:0:
411,174,274747,1,0,0:0:0:0:
323,243,274914,6,0,L|349:197,4,41.9999987182618,12|0|0|0|8,0:0|0:0|0:0|0:0|0:0,0:0:0:0:
256,319,275414,2,0,P|201:342|145:337,1,83.9999974365235,8|0,0:0|2:0,0:0:0:0:
185,225,275747,2,0,P|139:213|83:151,1,125.999996154785,8|8,0:0|0:0,0:0:0:0:
256,111,276247,6,0,L|256:57,4,41.9999987182618,12|0|0|0|8,0:0|0:0|0:0|0:0|0:0,0:0:0:0:
342,211,276747,2,0,B|379:234|379:234|435:234,1,83.9999974365235,8|0,0:0|2:0,0:0:0:0:
496,324,277080,2,0,L|360:324,1,125.999996154785,8|8,0:0|0:0,0:0:0:0:
192,324,277580,6,0,L|233:359,4,41.9999987182618,12|0|0|0|8,0:0|0:0|0:0|0:0|0:0,0:0:0:0:
100,248,278080,2,0,B|88:208|88:208|104:148,1,83.9999974365235,8|0,0:0|2:0,0:0:0:0:
181,75,278414,2,0,B|197:115|197:115|173:201,1,125.999996154785,8|8,0:0|0:0,0:0:0:0:
124,344,278914,1,4,0:0:0:0:
256,192,278997,12,0,284247,0:0:0:0:
