osu file format v14

[General]
AudioFilename: 01. Liar Mask.mp3
AudioLeadIn: 0
PreviewTime: 222914
Countdown: 0
SampleSet: Soft
StackLeniency: 0.4
Mode: 0
LetterboxInBreaks: 1
WidescreenStoryboard: 0

[Editor]
Bookmarks: 56417,170748
DistanceSpacing: 1.3
BeatDivisor: 4
GridSize: 4
TimelineZoom: 1.5

[Metadata]
Title:Liar Mask
TitleUnicode:Liar Mask
Artist:Mayama Rika
ArtistUnicode:真山りか
Creator:Atsuro
Version:Expert
Source:アカメが斬る!
Tags:Akame ga Kill akg Opening 2 full version LixRei
BeatmapID:551561
BeatmapSetID:238462

[Difficulty]
HPDrainRate:7
CircleSize:4
OverallDifficulty:8.5
ApproachRate:9.2
SliderMultiplier:1.8
SliderTickRate:1

[Events]
//Background and Video events
0,0,"bg.png",0,0
//Break Periods
2,171614,187011
2,202447,209248
//Storyboard Layer 0 (Background)
//Storyboard Layer 1 (Fail)
//Storyboard Layer 2 (Pass)
//Storyboard Layer 3 (Foreground)
//Storyboard Sound Samples

[TimingPoints]
2100,400,4,2,0,60,1,0
2100,-166.666666666667,4,2,1,60,0,0
15585,333.333333333333,4,2,0,100,1,0
15585,-133.333333333333,4,2,1,60,0,0
20918,-117.647058823529,4,2,1,70,0,0
26251,-200,4,2,1,60,0,0
30918,-153.846153846154,4,2,1,60,0,0
31585,-117.647058823529,4,2,1,70,0,0
36918,333.333333333333,3,2,1,100,1,0
36918,-142.857142857143,3,2,1,60,0,0
52917,333.333333333333,4,1,1,100,1,0
52917,-100,4,1,1,60,0,0
55583,-83.3333333333333,4,1,1,70,0,1
70416,-83.3333333333333,4,1,1,60,0,1
71250,-83.3333333333333,4,1,1,70,0,1
78916,-83.3333333333333,4,1,1,60,0,1
79750,-83.3333333333333,4,1,1,70,0,1
90250,-125,4,2,1,30,0,0
90916,-125,4,2,1,50,0,0
91250,-125,4,2,1,70,0,0
112916,333.333333333333,3,2,1,100,1,0
112916,-125,4,2,1,70,0,0
128915,333.333333333333,4,1,1,70,1,0
129915,-100,4,1,1,60,0,0
131581,-83.3333333333333,4,1,1,70,0,1
141581,-83.3333333333333,4,1,1,60,0,1
142248,-83.3333333333333,4,1,1,70,0,1
146414,-83.3333333333333,4,1,1,60,0,1
147414,-83.3333333333333,4,1,1,70,0,1
154914,-83.3333333333333,4,1,1,60,0,1
155581,-100,4,1,1,70,0,0
155664,-100,4,2,1,50,0,0
157414,-100,4,2,1,70,0,0
159748,-100,4,2,1,55,0,0
160247,-100,4,2,1,70,0,0
176914,-83.3333333333333,4,2,1,80,0,1
187581,-100,4,2,1,70,0,0
199664,-100,4,2,1,40,0,0
202248,333.333333333333,3,2,1,35,1,0
202248,-100,3,2,1,40,0,0
210248,-142.857142857143,3,2,1,70,0,0
216581,-200,3,2,1,70,0,0
221414,-200,4,2,1,40,0,0
221581,333.333333333333,4,1,1,60,1,0
229914,-100,4,1,1,40,0,0
230081,-100,4,1,1,50,0,0
230247,-100,4,1,1,60,0,0
232914,-100,4,2,1,60,0,0
233581,-83.3333333333333,4,1,1,70,0,1
237747,-100,4,1,1,60,0,1
238747,-83.3333333333333,4,1,1,70,0,1
243080,-83.3333333333333,4,1,1,60,0,1
244247,-83.3333333333333,4,1,1,70,0,0
244580,-83.3333333333333,4,1,1,70,0,1
254247,-83.3333333333333,4,1,1,60,0,1
254914,-83.3333333333333,4,1,1,70,0,1
259080,-83.3333333333333,4,1,1,60,0,1
260080,-83.3333333333333,4,1,1,70,0,1
267580,-83.3333333333333,4,1,1,60,0,1
268247,-83.3333333333333,4,1,1,70,0,1
278914,-83.3333333333333,4,2,0,100,0,0
278997,-83.3333333333333,4,2,0,70,0,0
280247,-83.3333333333333,4,2,0,50,0,0
281580,-83.3333333333333,4,2,0,30,0,0
282914,-83.3333333333333,4,2,0,20,0,0

[Colours]
Combo1 : 98,0,98
Combo2 : 139,139,139
Combo3 : 255,0,0
Combo4 : 40,40,40

[HitObjects]
168,92,2100,6,0,P|160:136|200:193,1,107.999996704102,0|0,0:0|0:0,0:0:0:0:
332,152,2900,2,0,P|290:120|238:125,1,107.999996704102,2|0,0:0|0:0,0:0:0:0:
398,275,3700,2,0,L|417:163,1,107.999996704102
258,239,4500,2,0,L|239:351,1,107.999996704102,2|0,0:0|0:0,0:0:0:0:
147,211,5300,5,0,0:0:0:0:
173,51,5700,1,0,0:0:0:0:
22,110,6100,1,2,0:0:0:0:
147,211,6500,1,0,0:0:0:0:
298,154,6900,1,0,0:0:0:0:
459,339,7500,2,0,B|421:335|391:292|391:292|354:325|311:335|268:337,1,215.999993408203
321,253,8500,6,0,P|265:265|112:219,1,215.999993408203,4|2,0:1|0:0,0:0:0:0:
246,84,9700,1,0,0:0:0:0:
246,84,10100,2,0,P|293:72|361:79,1,107.999996704102,4|0,0:1|0:0,0:0:0:0:
262,213,10900,2,0,P|215:225|147:218,1,107.999996704102,10|0,0:0|0:0,0:0:0:0:
393,93,11700,6,0,P|413:146|428:215,1,107.999996704102,4|8,0:1|0:0,0:0:0:0:
359,343,12500,1,2,0:0:0:0:
262,213,12900,1,4,0:3:0:0:
424,196,13300,1,4,0:1:0:0:
256,192,13400,12,2,15585,0:0:0:0:
72,146,16140,5,0,0:0:0:0:
72,146,16251,2,0,P|99:203|154:249,1,135.000005149842,2|0,0:0|0:0,0:0:0:0:
214,112,16807,1,0,0:0:0:0:
214,112,16918,2,0,P|258:87|372:84,2,135.000005149842,2|0|2,0:0|0:0|0:0,0:0:0:0:
150,162,17751,1,0,0:0:0:0:
107,231,17918,1,0,0:0:0:0:
150,299,18085,1,0,0:0:0:0:
214,349,18251,6,0,P|264:353|369:307,1,135.000005149842,2|0,0:0|0:0,0:0:0:0:
343,135,18918,2,0,P|314:176|301:289,1,135.000005149842,2|0,0:0|0:0,0:0:0:0:
428,140,19585,2,0,P|399:71|331:49,1,135.000005149842,2|0,0:0|0:0,0:0:0:0:
256,156,20085,1,0,0:0:0:0:
256,156,20251,2,0,B|184:156|184:264|80:260,1,202.500007724762,2|0,0:0|0:0,0:0:0:0:
136,144,20918,6,0,P|167:112|200:92,1,76.5000014591217,4|0,0:1|0:0,0:0:0:0:
256,156,21251,2,0,P|305:190|424:204,1,153.000002918243,0|8,0:0|0:0,0:0:0:0:
468,72,21918,2,0,P|419:38|338:22,1,102.000001945496,0|0,0:0|0:0,0:0:0:0:
304,12,22251,1,0,0:0:0:0:
137,48,22585,6,0,P|80:72|56:92,1,76.5000014591217,4|0,0:3|0:0,0:0:0:0:
220,156,22918,2,0,P|277:180|301:200,1,76.5000014591217,8|0,0:0|0:0,0:0:0:0:
136,248,23251,2,0,P|79:272|55:292,1,76.5000014591217
232,332,23584,6,0,P|296:324|376:244,1,153.000002918243,4|0,0:3|0:0,0:0:0:0:
395,145,24140,1,0,0:0:0:0:
395,145,24251,2,0,P|356:93|246:64,1,153.000002918243,8|0,0:0|0:0,0:0:0:0:
250,258,24807,1,0,0:0:0:0:
250,257,24918,6,0,L|232:331,1,76.5000014591217
87,270,25251,2,0,L|104:195,1,76.5000014591217,4|0,0:3|0:0,0:0:0:0:
146,29,25584,2,0,P|73:48|29:109,1,153.000002918243,12|0,0:1|0:0,0:0:0:0:
86,270,26251,6,0,B|176:304|176:236|260:280,1,180,2|2,0:0|0:0,0:0:0:0:
356,336,27251,2,0,P|412:306|428:294,1,60
464,256,27584,1,2,0:0:0:0:
336,220,27918,2,0,P|304:180|292:128,1,90,0|2,0:0|0:0,0:0:0:0:
272,63,28418,1,0,0:0:0:0:
351,10,28585,1,0,0:0:0:0:
358,107,28751,1,0,0:0:0:0:
272,63,28918,6,0,B|184:17|98:65,1,180,2|2,0:0|0:0,0:0:0:0:
84,212,29918,1,0,0:0:0:0:
212,288,30251,2,0,P|255:299|298:288,1,90,2|0,0:0|0:0,0:0:0:0:
256,212,30751,1,0,0:0:0:0:
256,212,30918,2,0,B|272:168|248:128|248:128|272:84|256:44,1,175.499991966248,2|0,0:0|0:0,0:0:0:0:
72,84,31585,6,0,P|52:140|108:236,1,153.000002918243,4|0,0:0|0:0,0:0:0:0:
156,268,32029,1,4,0:3:0:0:
314,323,32251,2,0,P|370:275|370:195,1,153.000002918243,8|0,0:0|0:0,0:0:0:0:
255,144,32696,2,0,P|260:194|289:235,1,102.000001945496,4|4,0:3|0:3,0:0:0:0:
319,58,33140,6,0,P|273:36|223:41,1,102.000001945496,0|0,0:0|0:0,0:0:0:0:
89,136,33585,2,0,L|54:218,1,76.5000014591217,8|0,0:0|0:0,0:0:0:0:
95,324,33918,2,0,L|130:242,1,76.5000014591217
210,166,34251,6,0,P|272:231|348:220,1,153.000002918243,4|0,0:3|0:0,0:0:0:0:
403,193,34696,1,4,0:3:0:0:
186,83,34918,2,0,P|136:118|152:229,1,153.000002918243,8|0,0:0|0:0,0:0:0:0:
179,270,35362,1,4,0:3:0:0:
362,151,35585,6,0,P|307:118|269:113,1,102.000001945496,8|8,0:0|0:0,0:0:0:0:
270,113,35918,1,8,0:0:0:0:
270,113,36029,1,8,0:0:0:0:
184,304,36251,1,8,0:0:0:0:
376,304,36473,1,8,0:3:0:0:
276,240,36695,1,4,0:3:0:0:
448,244,36918,6,0,P|448:189|419:134,1,94.499997116089,6|0,0:0|0:0,0:0:0:0:
294,66,37584,1,0,0:0:0:0:
294,66,37918,2,0,B|241:83|241:37|171:71,1,125.999996154785,2|0,0:0|0:0,0:0:0:0:
84,119,38418,1,0,0:0:0:0:
84,119,38584,1,0,0:0:0:0:
120,256,38918,6,0,P|168:280|244:264,1,125.999996154785,2|0,0:0|0:0,0:0:0:0:
187,187,39418,1,0,0:0:0:0:
187,187,39584,1,0,0:0:0:0:
360,230,39918,2,0,P|410:213|453:147,1,125.999996154785,2|0,0:0|0:0,0:0:0:0:
364,39,40584,1,0,0:0:0:0:
363,39,40917,6,0,P|304:58|256:98,1,125.999996154785,6|0,0:0|0:0,0:0:0:0:
192,177,41417,1,0,0:0:0:0:
256,256,41584,1,0,0:0:0:0:
320,177,41751,1,0,0:0:0:0:
255,98,41917,2,0,P|207:58|148:39,1,125.999996154785,2|0,0:0|0:0,0:0:0:0:
132,196,42584,1,0,0:0:0:0:
132,196,42917,6,0,P|165:256|213:301,1,125.999996154785,2|0,0:0|0:0,0:0:0:0:
306,296,43417,1,0,0:0:0:0:
256,192,43584,1,0,0:0:0:0:
206,296,43751,1,0,0:0:0:0:
306,295,43917,2,0,P|350:251|380:196,1,125.999996154785,2|0,0:0|0:0,0:0:0:0:
256,44,44584,1,0,0:0:0:0:
196,152,44917,6,0,P|145:205|70:211,1,125.999996154785,6|0,0:0|0:0,0:0:0:0:
90,94,45584,1,0,0:0:0:0:
196,264,45917,2,0,P|246:317|321:323,1,125.999996154785,2|0,0:0|0:0,0:0:0:0:
304,204,46417,1,0,0:0:0:0:
304,204,46584,1,0,0:0:0:0:
324,68,46917,6,0,P|384:84|424:132,1,125.999996154785,2|0,0:0|0:0,0:0:0:0:
304,204,47417,1,0,0:0:0:0:
304,204,47584,2,0,L|200:134,1,125.999996154785,0|2,0:0|0:0,0:0:0:0:
324,68,48251,1,0,0:0:0:0:
196,264,48584,1,0,0:0:0:0:
100,58,48917,5,6,0:0:0:0:
199,73,49251,1,0,0:0:0:0:
135,151,49584,1,0,0:0:0:0:
100,58,49917,1,2,0:0:0:0:
324,68,50251,1,0,0:0:0:0:
196,264,50584,1,0,0:0:0:0:
100,58,50917,5,2,0:0:0:0:
324,68,51251,1,0,0:0:0:0:
188,68,51584,1,0,0:0:0:0:
412,58,51917,1,2,0:0:0:0:
316,264,52251,1,0,0:0:0:0:
256,28,52584,1,0,0:0:0:0:
196,264,52917,6,0,P|152:304|124:312,1,90
81,173,53250,1,8,0:0:0:0:
138,41,53417,1,0,0:0:0:0:
165,42,53500,1,0,0:0:0:0:
192,48,53583,1,0,0:0:0:0:
216,59,53667,1,0,0:0:0:0:
238,75,53750,1,0,0:0:0:0:
255,95,53833,1,0,0:0:0:0:
273,75,53917,1,8,0:0:0:0:
294,59,54000,1,0,0:0:0:0:
319,48,54083,1,0,0:0:0:0:
345,42,54167,1,0,0:0:0:0:
372,40,54250,6,0,L|445:38,1,45,2|0,0:0|0:0,0:0:0:0:
310,122,54417,2,0,L|237:119,1,45
372,202,54583,2,0,L|444:199,1,45,10|0,0:0|0:0,0:0:0:0:
310,283,54750,2,0,L|237:280,1,45,0|0,0:0|0:0,0:0:0:0:
376,360,54917,2,2,B|360:312|404:280|404:280|360:240|375:191,1,180,0|0,0:0|2:0,0:0:0:0:
125,341,55583,6,0,P|75:297|56:237,1,107.999996704102,4|0,0:0|0:0,0:0:0:0:
137,43,55917,2,0,P|187:87|206:147,1,107.999996704102,8|0,0:0|0:0,0:0:0:0:
256,290,56250,1,0,0:0:0:0:
310,124,56417,1,0,0:0:0:0:
169,227,56583,1,0,0:0:0:0:
343,227,56750,6,0,P|404:150|344:50,1,215.999993408203,4|0,0:0|0:0,0:0:0:0:
276,280,57250,2,0,P|331:312|386:300,1,107.999996704102,8|0,0:0|0:0,0:0:0:0:
251,161,57583,2,0,P|196:129|141:141,1,107.999996704102
212,366,57916,2,0,L|256:266,1,107.999996704102,8|0,0:0|0:0,0:0:0:0:
320,76,58250,5,4,0:0:0:0:
154,134,58416,1,0,0:0:0:0:
256,268,58583,2,0,P|316:296|396:296,1,107.999996704102,8|0,0:0|0:0,0:0:0:0:
436,136,58916,1,0,0:0:0:0:
324,216,59083,1,0,0:0:0:0:
444,272,59250,1,8,0:0:0:0:
304,92,59416,6,0,P|247:56|95:63,1,215.999993408203,0|0,0:0|1:0,0:0:0:0:
80,72,59833,1,0,0:0:0:0:
60,88,59916,1,8,0:0:0:0:
100,268,60083,1,0,0:0:0:0:
256,192,60250,1,0,0:0:0:0:
360,332,60416,1,0,0:0:0:0:
359,158,60583,1,8,0:0:0:0:
256,300,60750,1,0,0:0:0:0:
444,240,60916,6,0,P|465:188|460:128,1,107.999996704102,4|0,0:0|0:0,0:0:0:0:
332,8,61250,2,0,P|245:10|148:94,1,215.999993408203,8|0,0:0|0:0,0:0:0:0:
160,228,61750,1,0,0:0:0:0:
52,60,61916,1,8,0:0:0:0:
56,228,62083,6,0,P|113:313|215:304,1,215.999993408203
215,304,62500,1,0,0:0:0:0:
215,304,62583,1,8,0:0:0:0:
348,164,62750,1,0,0:0:0:0:
165,164,62916,1,0,0:0:0:0:
296,316,63083,1,0,0:0:0:0:
296,316,63166,1,0,0:0:0:0:
296,316,63250,2,0,P|352:346|408:358,1,107.999996704102,8|0,0:0|0:0,0:0:0:0:
488,176,63583,6,0,P|484:92|420:-8,1,161.999995056153
449,23,63916,1,8,0:0:0:0:
315,152,64083,2,0,P|256:198|196:152,1,161.999995056153,2|0,0:0|0:0,0:0:0:0:
196,98,64416,1,2,0:0:0:0:
230,58,64500,1,0,0:0:0:0:
282,58,64583,1,8,0:0:0:0:
316,99,64666,1,0,0:0:0:0:
316,152,64750,6,0,B|316:240|316:240|280:312|192:296,1,215.999993408203,6|0,0:0|0:0,0:0:0:0:
192,300,65166,1,0,0:0:0:0:
174,300,65250,1,8,0:0:0:0:
92,136,65416,1,0,0:0:0:0:
316,88,65583,6,0,L|372:68,1,53.9999983520508,0|0,0:0|0:0,0:0:0:0:
196,180,65750,2,0,L|140:200,1,53.9999983520508
316,180,65916,2,0,L|372:200,1,53.9999983520508,8|0,0:0|0:0,0:0:0:0:
196,88,66083,2,0,L|140:68,1,53.9999983520508
256,272,66250,6,0,P|312:312|464:288,1,215.999993408203,4|8,0:0|0:0,0:0:0:0:
392,152,66750,1,0,0:0:0:0:
244,56,66916,2,0,P|172:28|131:25,1,107.999996704102
20,132,67250,1,8,0:0:0:0:
196,180,67416,6,0,P|308:124|428:148,1,215.999993408203,4|0,0:0|0:0,0:0:0:0:
169,291,67916,1,8,0:0:0:0:
102,172,68083,1,0,0:0:0:0:
264,62,68250,1,0,0:0:0:0:
196,180,68416,1,0,0:0:0:0:
25,88,68583,1,8,0:0:0:0:
160,88,68750,1,0,0:0:0:0:
244,284,68916,6,0,B|168:292|168:292|64:256,1,161.999995056153,4|0,0:0|0:0,0:0:0:0:
40,192,69250,1,0,0:0:0:0:
304,200,69416,2,0,B|379:188|379:188|470:126,1,161.999995056153,4|0,0:0|0:0,0:0:0:0:
477,58,69750,1,0,0:0:0:0:
168,20,69916,2,0,P|116:88|184:200,1,215.999993408203,4|0,0:0|0:0,0:0:0:0:
396,308,70416,5,0,0:0:0:0:
440,291,70500,1,0,0:0:0:0:
438,241,70583,1,8,0:0:0:0:
391,229,70666,1,0,0:0:0:0:
364,269,70750,1,0,0:0:0:0:
315,291,70833,1,0,0:0:0:0:
262,300,70916,1,0,0:0:0:0:
208,292,70999,1,0,0:0:0:0:
160,269,71083,1,0,0:0:0:0:
100,80,71250,1,8,0:0:0:0:
224,216,71416,6,0,P|292:216|376:64,1,215.999993408203,4|0,0:0|0:0,0:0:0:0:
240,72,71916,1,8,0:0:0:0:
120,200,72083,1,0,0:0:0:0:
236,336,72250,2,0,P|300:328|372:288,1,107.999996704102
424,176,72583,1,8,0:0:0:0:
224,216,72750,6,0,P|120:184|52:72,1,215.999993408203
361,86,73250,2,0,L|310:181,1,107.999996704102,8|0,0:0|0:0,0:0:0:0:
254,81,73583,1,0,0:0:0:0:
424,176,73750,1,0,0:0:0:0:
396,16,73916,1,8,0:0:0:0:
310,181,74083,1,0,0:0:0:0:
161,50,74250,6,0,P|109:14|61:6,1,107.999996704102,2|0,0:0|0:0,0:0:0:0:
73,234,74583,2,0,P|130:206|161:169,1,107.999996704102,10|0,0:0|0:0,0:0:0:0:
238,46,74916,2,0,P|232:109|298:198,1,161.999995056153,2|0,0:0|0:0,0:0:0:0:
303,202,75250,1,8,0:0:0:0:
442,115,75416,1,2,0:0:0:0:
364,284,75583,6,0,P|308:320|256:316,1,107.999996704102
112,196,75916,2,0,P|165:199|207:231,1,107.999996704102,8|0,0:0|0:0,0:0:0:0:
398,355,76250,1,10,0:0:0:0:
476,160,76416,1,10,0:0:0:0:
476,160,76750,6,0,P|436:88|292:76,1,215.999993408203,6|0,0:0|0:0,0:0:0:0:
272,238,77250,2,0,P|322:218|358:178,1,107.999996704102,10|0,0:0|0:0,0:0:0:0:
154,178,77583,1,2,0:0:0:0:
256,336,77750,1,0,0:0:0:0:
358,178,77916,1,8,0:0:0:0:
159,73,78083,6,0,P|82:102|77:247,1,215.999993408203,6|0,0:0|0:0,0:0:0:0:
240,238,78583,2,0,P|204:198|154:178,1,107.999996704102,10|0,0:0|0:0,0:0:0:0:
256,336,78916,1,2,0:0:0:0:
297,324,78999,1,0,0:0:0:0:
334,301,79082,1,0,0:0:0:0:
363,269,79165,1,0,0:0:0:0:
382,231,79250,1,10,0:0:0:0:
389,188,79333,1,0,0:0:0:0:
385,146,79415,1,0,0:0:0:0:
368,106,79499,1,0,0:0:0:0:
344,56,79583,5,14,0:0:0:0:
294,75,79666,1,0,0:0:0:0:
243,95,79749,1,0,0:0:0:0:
194,115,79832,1,0,0:0:0:0:
144,134,79916,1,8,0:0:0:0:
108,330,80083,2,0,P|186:336|236:276,1,161.999995056153,8|0,0:0|2:0,0:0:0:0:
283,199,80416,2,0,P|205:192|159:241,1,107.999996704102,8|0,0:0|2:0,0:0:0:0:
154,257,80666,1,8,0:0:0:0:
440,341,80916,5,12,0:0:0:0:
448,304,81000,1,0,0:0:0:0:
455,266,81083,1,0,0:0:0:0:
462,229,81166,1,0,0:0:0:0:
469,192,81250,1,8,0:0:0:0:
352,108,81416,2,0,B|336:190|336:190|272:264,1,161.999995056153,8|0,0:0|2:0,0:0:0:0:
260,152,81750,2,0,B|275:69|275:69|323:16,1,107.999996704102,8|0,0:0|2:0,0:0:0:0:
326,11,82000,1,8,0:0:0:0:
488,184,82250,5,0,0:0:0:0:
488,184,82416,2,0,P|432:267|393:295,1,107.999996704102,10|0,0:0|0:0,0:0:0:0:
256,344,82750,1,0,0:0:0:0:
256,160,82916,1,0,0:0:0:0:
172,324,83083,1,2,0:0:0:0:
172,324,83166,1,0,0:0:0:0:
172,324,83250,1,8,0:0:0:0:
256,144,83416,1,0,0:0:0:0:
340,324,83583,5,0,0:0:0:0:
256,128,83750,2,0,P|228:84|164:60,1,107.999996704102,0|8,0:0|0:0,0:0:0:0:
48,244,84083,1,0,0:0:0:0:
184,340,84250,1,0,0:0:0:0:
195,168,84416,1,2,0:0:0:0:
195,168,84500,1,0,0:0:0:0:
195,168,84583,1,8,0:0:0:0:
340,324,84750,1,0,0:0:0:0:
340,324,84916,5,0,0:0:0:0:
456,188,85083,2,0,P|431:140|392:102,1,107.999996704102,2|8,0:0|0:0,0:0:0:0:
255,30,85416,1,0,0:0:0:0:
96,96,85583,1,0,0:0:0:0:
257,165,85750,1,2,0:0:0:0:
257,165,85833,1,0,0:0:0:0:
257,165,85916,1,8,0:0:0:0:
256,340,86083,1,0,0:0:0:0:
256,164,86250,5,12,0:0:0:0:
256,142,86333,1,0,0:0:0:0:
256,120,86416,1,0,0:0:0:0:
256,98,86500,1,0,0:0:0:0:
256,76,86583,1,8,0:0:0:0:
310,229,86750,2,0,P|235:246|180:192,1,161.999995056153,8|0,0:0|2:0,0:0:0:0:
219,317,87083,2,0,P|299:316|359:282,1,107.999996704102,8|0,0:0|2:0,0:0:0:0:
368,275,87333,1,8,0:0:0:0:
332,76,87583,5,12,0:0:0:0:
294,76,87666,1,0,0:0:0:0:
256,76,87750,1,0,0:0:0:0:
218,76,87833,1,0,0:0:0:0:
180,76,87916,1,8,0:0:0:0:
156,192,88083,2,0,B|216:252|216:252|216:360,1,161.999995056153,8|0,0:0|2:0,0:0:0:0:
296,329,88416,2,0,B|296:252|296:252|349:197,1,107.999996704102,8|0,0:0|2:0,0:0:0:0:
356,191,88666,1,8,0:0:0:0:
189,109,88916,5,12,0:0:0:0:
223,93,89000,1,0,0:0:0:0:
256,76,89083,1,0,0:0:0:0:
287,93,89166,1,0,0:0:0:0:
321,109,89250,1,8,0:0:0:0:
408,312,89416,2,0,B|352:312|352:312|352:252|300:212,1,161.999995056153,8|0,0:0|2:0,0:0:0:0:
203,219,89750,2,0,B|160:252|160:312|160:312|134:312,1,107.999996704102,8|0,0:0|2:0,0:0:0:0:
104,312,90000,1,8,0:0:0:0:
256,192,90250,12,4,91583,0:0:0:0:
120,272,91916,5,0,0:0:0:0:
120,272,92000,1,0,0:0:0:0:
120,272,92083,2,0,P|184:304|212:304,1,72,0|8,0:0|0:0,0:0:0:0:
392,272,92583,1,0,0:0:0:0:
392,272,92666,1,0,0:0:0:0:
392,272,92750,2,0,P|328:304|300:304,1,72,0|8,0:0|0:0,0:0:0:0:
256,120,93250,5,0,0:0:0:0:
256,120,93333,1,0,0:0:0:0:
256,120,93416,2,0,L|256:220,1,72,0|8,0:0|0:0,0:0:0:0:
204,264,93666,1,0,0:0:0:0:
204,264,93750,2,0,P|172:216|176:172,1,72,0|8,0:0|0:0,0:0:0:0:
342,203,94000,1,0,0:0:0:0:
341,203,94083,2,0,P|332:237|308:264,1,72,0|8,0:0|0:0,0:0:0:0:
170,203,94583,5,0,0:0:0:0:
170,203,94666,1,0,0:0:0:0:
170,203,94750,2,0,P|136:155|111:141,1,72,0|8,0:0|0:0,0:0:0:0:
342,203,95250,1,0,0:0:0:0:
342,203,95333,1,0,0:0:0:0:
342,203,95416,2,0,P|376:155|401:141,1,72,0|8,0:0|0:0,0:0:0:0:
256,40,95916,5,0,0:0:0:0:
256,40,96000,1,0,0:0:0:0:
256,40,96083,1,0,0:0:0:0:
256,152,96250,2,0,B|224:196|264:236|264:236|248:260|248:260|288:300|256:344,1,216,8|0,0:0|0:0,0:0:0:0:
104,364,96916,6,0,P|37:301|32:223,1,144,4|0,0:0|0:0,0:0:0:0:
26,148,97416,1,0,0:0:0:0:
85,67,97583,2,0,P|141:87|189:155,1,144,4|0,0:3|0:0,0:0:0:0:
216,268,98139,1,0,0:0:0:0:
216,268,98250,6,0,P|272:248|320:180,1,144,4|0,0:3|0:0,0:0:0:0:
352,40,98750,1,0,0:0:0:0:
400,140,98916,1,4,0:3:0:0:
400,140,99250,1,4,0:3:0:0:
400,140,99583,6,0,P|392:224|320:264,1,144,4|0,0:3|0:0,0:0:0:0:
256,248,100083,1,0,0:0:0:0:
183,186,100250,2,0,P|244:152|312:172,1,144,4|0,0:3|0:0,0:0:0:0:
333,352,100805,1,0,0:0:0:0:
333,352,100916,6,0,P|264:303|265:220,1,144,4|0,0:3|0:0,0:0:0:0:
348,258,101416,1,0,0:0:0:0:
204,358,101583,1,4,0:3:0:0:
91,100,102250,6,0,L|171:82,1,72,4|0,0:3|0:0,0:0:0:0:
290,154,102583,2,0,L|210:172,1,72,4|0,0:3|0:0,0:0:0:0:
117,277,102916,2,0,L|197:259,1,72,4|0,0:3|0:0,0:0:0:0:
316,331,103250,2,0,L|236:349,1,72,8|0,0:3|0:0,0:0:0:0:
415,353,103583,5,4,0:3:0:0:
437,255,103750,1,0,0:0:0:0:
339,232,103916,1,4,0:3:0:0:
317,331,104083,1,0,0:0:0:0:
209,257,104250,5,4,0:3:0:0:
339,232,104416,1,0,0:0:0:0:
313,101,104582,1,8,0:3:0:0:
183,126,104750,1,0,0:0:0:0:
209,257,104916,6,0,P|238:311|245:349,1,72,4|0,0:3|0:0,0:0:0:0:
313,101,105250,2,0,P|284:47|277:9,1,72,4|0,0:3|0:0,0:0:0:0:
183,126,105583,2,0,P|129:155|91:161,1,72,4|0,0:3|0:0,0:0:0:0:
339,232,105916,2,0,P|393:203|431:195,1,72,8|0,0:3|0:0,0:0:0:0:
281,37,106250,5,4,0:3:0:0:
119,157,106415,1,0,0:0:0:0:
240,320,106583,1,4,0:3:0:0:
402,200,106750,1,0,0:0:0:0:
402,200,106833,1,0,0:0:0:0:
402,200,106916,1,8,0:0:0:0:
213,107,107583,6,0,L|201:160,1,48,8|0,0:0|0:0,0:0:0:0:
351,197,107805,2,0,L|311:160,1,48
203,271,108028,2,0,L|255:255,1,48
213,107,108250,5,8,0:0:0:0:
167,91,108361,1,0,0:0:0:0:
120,98,108472,1,0,0:0:0:0:
81,125,108583,1,0,0:0:0:0:
57,166,108694,1,0,0:0:0:0:
55,214,108805,1,0,0:0:0:0:
73,257,108916,6,0,L|119:312,1,48,8|0,0:0|0:0,0:0:0:0:
180,220,109139,2,0,L|192:164,1,48
321,173,109361,2,0,L|332:220,1,48
407,294,109583,5,8,0:0:0:0:
445,265,109693,1,0,0:0:0:0:
469,224,109804,1,0,0:0:0:0:
477,177,109915,1,0,0:0:0:0:
469,130,110028,1,0,0:0:0:0:
444,89,110139,1,0,0:0:0:0:
406,60,110250,2,0,L|355:34,1,48,8|0,0:0|0:0,0:0:0:0:
288,134,110472,2,0,L|337:120,1,48
222,46,110694,2,0,L|170:19,1,48
103,119,110916,2,0,L|152:105,2,48,8|0|0,0:0|0:0|0:0,0:0:0:0:
266,232,111250,6,0,L|217:218,2,48,0|0|0,0:0|0:0|0:0,0:0:0:0:
319,375,111583,1,8,0:0:0:0:
360,350,111694,1,0,0:0:0:0:
392,315,111805,1,0,0:0:0:0:
411,271,111916,1,0,0:0:0:0:
415,223,112027,1,0,0:0:0:0:
405,177,112138,1,0,0:0:0:0:
380,135,112249,1,8,0:0:0:0:
256,16,112472,1,4,0:3:0:0:
131,135,112694,1,4,0:3:0:0:
188,296,112915,6,0,P|256:324|324:292,1,144,4|2,0:2|0:3,0:0:0:0:
392,224,113582,1,2,0:3:0:0:
256,48,113915,2,0,B|236:120|272:120|256:192,1,144,4|2,0:3|0:3,0:0:0:0:
204,304,114416,1,0,0:0:0:0:
352,304,114582,1,2,0:3:0:0:
352,304,114915,6,0,P|416:252|408:172,1,144,4|2,0:3|0:3,0:0:0:0:
356,128,115415,1,0,0:0:0:0:
329,215,115582,1,2,0:3:0:0:
160,304,115915,2,0,P|96:252|104:172,1,144,4|2,0:3|0:3,0:0:0:0:
156,128,116415,1,0,0:0:0:0:
183,215,116582,1,2,0:3:0:0:
256,284,116749,1,0,0:0:0:0:
329,215,116915,6,0,P|352:148|352:52,1,144,4|2,0:2|0:3,0:0:0:0:
256,52,117415,1,0,0:0:0:0:
200,136,117582,1,2,0:3:0:0:
256,220,117749,1,0,0:0:0:0:
200,304,117915,2,0,P|152:348|64:348,1,144,4|2,0:3|0:3,0:0:0:0:
112,256,118415,5,0,0:0:0:0:
200,304,118582,2,0,P|248:348|336:348,1,144,2|4,0:3|0:3,0:0:0:0:
325,178,119249,2,0,L|296:244,1,72,2|0,0:3|0:0,0:0:0:0:
217,161,119582,2,0,L|188:96,1,72,2|0,0:3|0:0,0:0:0:0:
292,80,119915,2,0,P|362:82|415:128,1,144,4|2,0:3|0:3,0:0:0:0:
325,178,120415,1,0,0:0:0:0:
256,232,120582,1,8,0:0:0:0:
186,178,120749,1,0,0:0:0:0:
96,128,120915,6,0,P|149:82|220:80,1,144,4|0,0:0|0:0,0:0:0:0:
256,232,121582,1,4,0:3:0:0:
256,232,121915,2,0,P|316:268|392:244,1,144,8|0,0:0|0:0,0:0:0:0:
380,107,122415,2,0,P|350:127|334:159,1,72,0|4,0:0|0:3,0:0:0:0:
453,49,122915,6,0,P|393:13|317:37,1,144,4|0,0:3|0:0,0:0:0:0:
256,104,123415,1,0,0:0:0:0:
187,178,123582,2,0,P|119:195|58:159,1,144,4|8,0:3|0:0,0:0:0:0:
256,104,124249,2,0,P|288:174|251:255,1,144,0|4,0:0|0:3,0:0:0:0:
187,178,124915,5,4,0:0:0:0:
256,104,125249,1,0,0:0:0:0:
325,178,125582,1,4,0:3:0:0:
118,180,125915,1,8,0:0:0:0:
256,28,126249,1,0,0:0:0:0:
394,180,126582,1,4,0:3:0:0:
256,352,126915,5,4,0:3:0:0:
184,244,127249,1,0,0:0:0:0:
328,244,127582,1,4,0:3:0:0:
112,156,127915,1,8,0:0:0:0:
416,154,128248,1,0,0:0:0:0:
256,28,128582,1,4,0:3:0:0:
256,352,128915,6,0,P|296:348|360:312,1,90
428,260,129247,1,8,0:0:0:0:
264,158,129414,2,0,P|247:194|246:268,1,90
257,352,129747,1,0,0:0:0:0:
428,260,129914,1,8,0:0:0:0:
434,215,129997,1,0,0:0:0:0:
428,171,130080,1,0,0:0:0:0:
411,129,130165,1,0,0:0:0:0:
384,93,130248,6,0,L|327:43,1,45,2|0,0:0|0:0,0:0:0:0:
215,48,130415,2,0,L|272:98,1,45
277,209,130581,2,0,L|219:158,1,45,10|0,0:0|0:0,0:0:0:0:
108,166,130748,2,0,L|165:216,1,45
182,324,130915,2,2,L|124:273,2,45,2|0|0,0:0|0:0|0:0,0:0:0:0:
327,338,131248,5,8,0:0:0:0:
365,314,131331,1,0,0:0:0:0:
396,282,131414,1,0,0:0:0:0:
416,242,131498,1,0,0:0:0:0:
424,198,131581,6,0,P|403:95|327:11,1,215.999993408203,4|8,0:0|0:0,0:0:0:0:
176,216,132248,1,0,0:0:0:0:
336,220,132414,1,0,0:0:0:0:
256,80,132581,1,8,0:0:0:0:
256,268,132748,6,0,P|308:308|424:232,1,215.999993408203
256,80,133248,2,0,P|192:104|160:136,1,107.999996704102,8|0,0:0|0:0,0:0:0:0:
280,277,133581,1,0,0:0:0:0:
364,127,133748,1,0,0:0:0:0:
208,201,133914,1,8,0:0:0:0:
375,233,134082,1,0,0:0:0:0:
248,100,134248,6,0,P|172:96|100:208,1,215.999993408203,4|8,0:0|0:0,0:0:0:0:
208,200,134748,1,0,0:0:0:0:
248,100,134914,1,0,0:0:0:0:
100,203,135081,1,0,0:0:0:0:
264,288,135248,1,8,0:0:0:0:
332,116,135415,6,0,P|292:24|191:34,1,215.999993408203,0|2,0:0|0:2,0:0:0:0:
191,34,135831,1,2,0:2:0:0:
191,34,135914,1,10,0:2:0:0:
108,148,136081,1,2,0:2:0:0:
200,256,136248,1,2,0:2:0:0:
108,368,136414,1,2,0:2:0:0:
8,256,136581,2,0,P|4:208|35:148,1,107.999996704102,8|0,0:0|0:0,0:0:0:0:
200,256,136914,6,0,P|276:294|398:256,1,215.999993408203,4|8,0:0|0:0,0:0:0:0:
291,136,137414,1,0,0:0:0:0:
130,199,137581,2,0,P|76:218|18:218,1,107.999996704102
47,60,137914,1,8,0:0:0:0:
200,256,138081,6,0,P|276:294|398:256,1,215.999993408203
339,43,138581,2,0,P|324:58|296:183,1,107.999996704102,8|0,0:0|0:0,0:0:0:0:
410,300,138914,2,0,P|403:279|309:193,1,107.999996704102
153,233,139248,2,0,P|173:237|295:199,1,107.999996704102,8|0,0:0|0:0,0:0:0:0:
163,81,139581,6,0,P|142:76|-2:142,1,161.999995056153
14,121,139914,1,8,0:0:0:0:
122,306,140081,2,0,P|201:319|280:303,1,161.999995056153,2|0,0:0|0:0,0:0:0:0:
327,280,140414,1,2,0:0:0:0:
357,237,140498,1,0,0:0:0:0:
357,184,140581,1,8,0:0:0:0:
326,141,140664,1,0,0:0:0:0:
280,116,140748,6,0,P|201:99|71:136,1,215.999993408203,6|0,0:0|0:0,0:0:0:0:
290,215,141248,2,0,L|409:215,1,107.999996704102,8|0,0:0|0:0,0:0:0:0:
387,43,141581,2,0,L|309:59,1,53.9999983520508,0|0,0:0|0:0,0:0:0:0:
325,141,141748,2,0,L|247:125,1,53.9999983520508,0|0,0:0|0:0,0:0:0:0:
237,42,141914,2,0,L|159:58,1,53.9999983520508,8|0,0:0|0:0,0:0:0:0:
175,140,142081,2,0,L|97:124,1,53.9999983520508,0|0,0:0|0:0,0:0:0:0:
44,73,142248,6,0,P|20:164|68:288,1,215.999993408203,4|8,0:0|0:0,0:0:0:0:
156,340,142748,1,0,0:0:0:0:
254,271,142914,2,0,P|294:224|317:155,1,107.999996704102
215,79,143248,1,8,0:0:0:0:
254,271,143414,6,0,P|298:317|446:325,1,215.999993408203
380,188,143914,1,8,0:0:0:0:
256,146,144081,1,0,0:0:0:0:
130,311,144248,1,0,0:0:0:0:
254,271,144415,1,0,0:0:0:0:
148,100,144580,1,8,0:0:0:0:
24,58,144747,1,0,0:0:0:0:
80,232,144914,6,0,P|140:284|221:264,1,161.999995056153,4|0,0:0|0:0,0:0:0:0:
256,204,145248,1,8,0:0:0:0:
432,232,145414,2,0,P|372:284|291:264,1,161.999995056153,4|0,0:0|0:0,0:0:0:0:
256,204,145748,1,8,0:0:0:0:
126,100,145914,2,0,P|255:17|385:99,1,323.999990112305,4|0,0:0|0:0,0:0:0:0:
396,149,146498,5,0,0:0:0:0:
400,202,146581,1,8,0:0:0:0:
386,254,146664,1,0,0:0:0:0:
355,298,146748,1,0,0:0:0:0:
311,329,146831,1,0,0:0:0:0:
260,337,146914,2,0,L|204:337,1,53.9999983520508
260,240,147081,2,0,L|336:240,2,53.9999983520508
112,216,147414,6,0,P|54:134|113:51,1,215.999993408203,4|0,0:0|0:0,0:0:0:0:
260,192,147914,1,8,0:0:0:0:
138,133,148081,1,0,0:0:0:0:
260,72,148248,2,0,P|328:52|396:52,1,107.999996704102,0|0,0:0|0:0,0:0:0:0:
500,64,148581,1,8,0:0:0:0:
260,192,148748,6,0,P|164:216|48:192,1,215.999993408203
260,72,149248,2,0,P|328:52|396:52,1,107.999996704102,8|0,0:0|0:0,0:0:0:0:
467,189,149581,1,0,0:0:0:0:
365,49,149748,1,0,0:0:0:0:
348,241,149914,2,0,P|329:319|302:370,1,107.999996704102,8|0,0:0|0:0,0:0:0:0:
194,143,150248,6,0,P|173:93|163:40,1,107.999996704102,2|0,0:0|0:0,0:0:0:0:
348,40,150581,2,0,P|338:93|318:143,1,107.999996704102,10|0,0:0|0:0,0:0:0:0:
194,343,150915,2,0,P|174:293|164:241,1,107.999996704102,2|0,0:0|0:0,0:0:0:0:
256,56,151248,1,8,0:0:0:0:
256,56,151414,6,0,B|288:148|220:148|258:273,1,215.999993408203,2|0,0:0|0:0,0:0:0:0:
256,267,151831,1,0,0:0:0:0:
256,267,151914,1,8,0:0:0:0:
181,131,152081,1,0,0:0:0:0:
339,133,152248,1,10,0:0:0:0:
257,348,152414,1,10,0:0:0:0:
257,348,152748,6,0,P|174:327|78:227,1,215.999993408203,6|0,0:0|0:0,0:0:0:0:
201,109,153248,2,0,P|192:162|168:210,1,107.999996704102,10|0,0:0|0:0,0:0:0:0:
95,93,153581,1,2,0:0:0:0:
233,8,153748,1,0,0:0:0:0:
297,155,153914,1,8,0:0:0:0:
68,280,154081,6,0,P|136:240|268:288,1,215.999993408203,6|0,0:0|0:0,0:0:0:0:
328,372,154498,1,0,0:0:0:0:
328,372,154581,2,0,P|364:320|368:252,1,107.999996704102,10|0,0:0|0:0,0:0:0:0:
268,67,154914,1,2,0:0:0:0:
219,70,154997,1,0,0:0:0:0:
206,116,155080,1,0,0:0:0:0:
248,144,155164,1,0,0:0:0:0:
285,112,155248,1,10,0:0:0:0:
330,83,155331,1,0,0:0:0:0:
383,73,155414,1,0,0:0:0:0:
435,84,155498,1,0,0:0:0:0:
480,114,155581,5,6,0:0:0:0:
256,192,155664,12,0,156914,0:0:0:0:
204,296,157414,6,0,P|280:256|292:144,1,180
111,154,157914,2,0,L|196:187,1,90
307,23,158248,2,0,L|237:79,1,90
237,79,158498,1,0,0:0:0:0:
237,79,158581,2,0,P|173:63|130:61,1,90
35,244,158914,2,0,L|134:216,1,90
250,186,159248,1,0,0:0:0:0:
101,340,159414,6,0,P|171:312|284:348,1,180
311,350,159831,1,0,0:0:0:0:
355,343,159914,1,0,0:0:0:0:
390,315,159998,1,0,0:0:0:0:
407,274,160081,1,0,0:0:0:0:
312,104,160248,1,0,0:0:0:0:
280,135,160331,1,0,0:0:0:0:
267,177,160414,1,0,0:0:0:0:
278,220,160498,1,0,0:0:0:0:
309,252,160581,1,0,0:0:0:0:
474,34,160748,1,0,0:0:0:0:
474,34,160831,1,0,0:0:0:0:
474,34,160914,6,0,L|378:21,1,90
301,78,161164,1,0,0:0:0:0:
301,78,161248,2,0,L|211:90,1,90
25,111,161581,1,0,0:0:0:0:
125,187,161748,1,0,0:0:0:0:
25,347,161914,1,0,0:0:0:0:
125,271,162081,6,0,P|194:249|310:275,1,180
297,268,162498,1,0,0:0:0:0:
297,268,162581,1,0,0:0:0:0:
158,345,162748,1,0,0:0:0:0:
212,168,162914,1,0,0:0:0:0:
255,344,163081,1,0,0:0:0:0:
89,286,163248,1,0,0:0:0:0:
294,238,163414,1,0,0:0:0:0:
294,238,163498,1,0,0:0:0:0:
294,238,163581,6,0,P|329:198|356:144,1,90
394,63,163831,1,0,0:0:0:0:
394,63,163914,2,0,P|416:101|447:134,1,90
447,134,164164,1,0,0:0:0:0:
447,134,164248,1,0,0:0:0:0:
292,87,164414,1,0,0:0:0:0:
294,238,164581,1,0,0:0:0:0:
509,168,164748,6,0,P|443:135|337:176,1,180
311,194,165164,1,0,0:0:0:0:
270,212,165247,1,0,0:0:0:0:
226,218,165331,1,0,0:0:0:0:
181,213,165414,1,0,0:0:0:0:
140,196,165497,1,0,0:0:0:0:
104,168,165581,2,0,L|58:112,1,45
83,6,165748,2,0,L|128:61,1,45
111,206,165914,2,0,L|65:150,1,45
90,44,166081,2,0,L|135:99,1,45
165,263,166248,6,0,P|244:292|350:251,1,180
496,121,166748,2,0,P|417:92|311:133,1,180
248,216,167248,1,0,0:0:0:0:
160,60,167415,1,0,0:0:0:0:
70,216,167581,5,0,0:0:0:0:
192,216,167748,1,0,0:0:0:0:
132,56,167914,1,0,0:0:0:0:
132,284,168081,1,0,0:0:0:0:
296,168,168248,2,0,B|213:128|213:208|124:168,1,180
208,64,168748,1,0,0:0:0:0:
256,252,168914,6,0,P|320:300|376:300,1,90
432,192,169248,1,0,0:0:0:0:
220,328,169414,1,0,0:0:0:0:
220,328,169498,1,0,0:0:0:0:
220,328,169581,2,0,P|172:324|128:292,1,90
64,156,169914,1,0,0:0:0:0:
204,232,170081,1,0,0:0:0:0:
196,56,170248,5,0,0:0:0:0:
68,160,170414,1,0,0:0:0:0:
204,232,170581,1,0,0:0:0:0:
356,28,170748,1,0,0:0:0:0:
496,148,170914,1,0,0:0:0:0:
364,280,171081,1,0,0:0:0:0:
168,128,171248,2,0,L|276:120,1,90
158,340,187581,6,0,P|230:334|298:250,1,180,14|8,0:1|0:0,0:0:0:0:
350,170,188026,2,0,L|413:244,2,60,8|8|10,0:0|0:0|0:1,0:0:0:0:
256,64,188470,1,0,0:0:0:0:
256,64,188581,1,8,0:0:0:0:
162,170,188914,6,0,P|116:236|184:332,1,180,14|8,0:1|0:0,0:0:0:0:
261,248,189359,1,8,0:1:0:0:
261,248,189470,2,0,L|201:248,1,60,8|10,0:0|0:1,0:0:0:0:
380,168,189803,2,0,L|440:168,1,60,0|8,0:0|0:0,0:0:0:0:
144,52,190248,2,0,P|63:30|22:103,1,180,14|10,0:1|1:0,0:0:0:0:
24,160,190692,1,8,0:0:0:0:
23,217,190803,1,8,0:0:0:0:
23,272,190914,2,0,P|70:342|152:321,1,180,14|10,0:1|1:0,0:0:0:0:
305,229,191581,6,0,P|328:309|257:352,1,180,14|8,0:1|0:0,0:0:0:0:
204,324,192026,1,0,0:0:0:0:
172,272,192137,1,0,0:0:0:0:
204,220,192248,1,10,0:1:0:0:
236,168,192359,1,0,0:0:0:0:
204,116,192470,1,0,0:0:0:0:
172,64,192581,2,0,L|132:8,2,60,10|0|0,0:1|0:0|0:0,0:0:0:0:
204,116,192914,6,0,P|276:124|392:64,1,180,14|8,0:1|0:0,0:0:0:0:
448,152,193359,2,0,L|480:248,1,60,8|8,0:0|0:0,0:0:0:0:
404,288,193581,1,10,0:1:0:0:
384,308,193914,1,10,0:1:0:0:
360,332,194137,1,0,0:0:0:0:
360,332,194248,6,0,P|300:356|196:292,1,180,14|10,1:0|0:1,0:0:0:0:
279,193,194692,2,0,L|292:251,1,60,8|10,0:0|0:1,0:0:0:0:
184,212,194914,1,10,0:1:0:0:
160,192,195248,1,10,0:1:0:0:
136,176,195470,1,0,0:0:0:0:
136,176,195581,6,0,P|96:128|108:36,1,120,14|0,0:1|0:0,0:0:0:0:
133,29,195914,1,8,0:0:0:0:
192,17,196026,1,0,0:0:0:0:
240,51,196137,1,0,0:0:0:0:
261,107,196248,1,8,0:0:0:0:
270,166,196359,1,0,0:0:0:0:
307,212,196470,1,0,0:0:0:0:
360,239,196581,1,10,0:1:0:0:
419,239,196692,1,0,0:0:0:0:
460,196,196803,1,0,0:0:0:0:
471,137,196914,5,10,0:1:0:0:
446,81,197026,1,0,0:0:0:0:
391,56,197137,1,0,0:0:0:0:
331,65,197248,1,8,0:0:0:0:
292,110,197359,1,0,0:0:0:0:
270,165,197470,1,0,0:0:0:0:
233,212,197581,1,8,0:0:0:0:
180,239,197692,1,0,0:0:0:0:
121,239,197803,1,0,0:0:0:0:
80,196,197914,1,10,0:1:0:0:
69,137,198025,1,0,0:0:0:0:
94,81,198137,1,0,0:0:0:0:
149,56,198248,6,0,P|180:51|218:60,1,60,14|0,0:1|0:0,0:0:0:0:
329,166,198470,2,0,P|298:171|260:162,1,60,0|8,0:1|0:0,0:0:0:0:
306,21,198692,2,0,P|311:52|302:90,1,60,0|0,0:1|0:0,0:0:0:0:
173,214,198914,2,0,P|168:183|177:145,1,60,8|0,0:1|0:0,0:0:0:0:
348,272,199137,2,0,P|353:303|344:341,1,60,0|10,0:1|0:1,0:0:0:0:
208,80,199359,2,0,P|203:49|212:11,1,60,0|0,0:1|0:0,0:0:0:0:
256,352,199581,1,4,0:0:0:0:
256,192,199664,12,4,202247,0:2:0:0:
104,144,210248,6,0,B|136:196|172:196|172:196|224:176,1,125.999996154785,6|0,0:0|0:0,0:0:0:0:
256,72,210914,1,0,0:0:0:0:
408,144,211248,2,0,B|376:196|340:196|340:196|288:176,1,125.999996154785,2|0,0:0|0:0,0:0:0:0:
256,72,211748,1,0,0:0:0:0:
256,232,211914,1,0,0:0:0:0:
256,232,212248,6,0,B|288:296|224:296|256:352,1,125.999996154785,2|0,0:0|0:0,0:0:0:0:
384,304,212748,1,0,0:0:0:0:
384,304,212914,2,0,P|416:272|456:192,1,125.999996154785,0|2,0:0|0:0,0:0:0:0:
408,28,213581,2,0,P|376:60|336:140,1,125.999996154785
256,308,214248,5,6,0:0:0:0:
212,236,214581,1,0,0:0:0:0:
300,236,214914,1,0,0:0:0:0:
180,304,215248,1,2,0:0:0:0:
180,140,215581,1,0,0:0:0:0:
343,140,215914,1,0,0:0:0:0:
343,304,216248,5,6,0:0:0:0:
157,220,216581,2,0,P|115:195|97:149,1,90,0|0,0:0|0:0,0:0:0:0:
128,72,217248,2,0,P|170:97|188:143,2,90,2|0|0,0:0|0:0|0:0,0:0:0:0:
256,48,218248,5,4,0:0:0:0:
408,192,218581,1,0,0:0:0:0:
180,128,218914,1,0,0:0:0:0:
332,128,219248,1,4,0:3:0:0:
104,192,219581,1,8,0:0:0:0:
256,352,219914,1,8,0:0:0:0:
256,60,220247,2,0,B|204:108|232:180|232:180|256:192|280:204|280:204|308:276|256:323,1,315,4|0,0:1|0:0,1:2:0:0:
204,252,221581,6,0,L|156:228,1,45,2|0,0:0|0:0,0:0:0:0:
148,96,221748,2,0,L|184:164,1,45
256,180,221914,2,0,L|256:108,1,45,2|0,0:0|0:0,0:0:0:0:
364,96,222081,2,0,L|342:135,1,45
308,252,222248,2,0,L|348:231,1,45,2|0,0:0|0:0,0:0:0:0:
88,160,222914,6,0,P|93:222|206:278,1,180,4|8,0:2|0:0,0:0:0:0:
380,211,223581,1,0,0:2:0:0:
408,304,223747,2,0,P|363:307|323:287,1,90
237,146,224081,6,0,P|224:94|341:26,1,180,4|0,0:0|0:0,0:0:0:0:
310,183,224581,2,0,P|271:220|153:153,1,180,8|0,0:0|0:2,0:0:0:0:
343,108,225081,1,0,0:0:0:0:
377,135,225164,1,0,0:0:0:0:
390,177,225247,1,8,0:0:0:0:
256,320,225414,1,0,0:0:0:0:
121,177,225581,6,0,P|128:120|224:56,1,180,4|8,0:2|0:0,0:0:0:0:
386,191,226081,1,0,0:0:0:0:
283,315,226247,1,0,0:2:0:0:
226,163,226414,2,0,P|266:183|299:212,1,90,0|8,0:0|0:0,0:0:0:0:
222,56,226747,6,0,P|144:93|121:177,1,180,4|0,0:0|0:0,0:0:0:0:
127,208,227164,1,0,0:0:0:0:
139,237,227247,1,8,0:0:0:0:
158,263,227331,1,0,0:0:0:0:
183,283,227414,1,0,0:0:0:0:
210,296,227497,1,0,0:0:0:0:
241,304,227581,5,0,0:2:0:0:
272,304,227665,1,0,0:0:0:0:
302,297,227748,1,0,0:0:0:0:
330,283,227831,1,0,0:0:0:0:
354,263,227915,1,8,0:0:0:0:
373,238,227998,1,0,0:0:0:0:
386,209,228081,1,0,0:0:0:0:
390,178,228165,1,0,0:0:0:0:
382,146,228248,6,0,P|366:107|331:67,1,90,4|0,0:2|0:0,0:0:0:0:
214,220,228581,2,0,P|256:226|307:215,1,90,8|0,0:0|0:0,0:0:0:0:
175,71,228915,2,0,P|146:105|130:146,1,90,0|0,0:2|0:0,0:0:0:0:
96,340,229248,2,0,P|133:314|160:279,1,90,8|0,0:0|0:0,0:0:0:0:
267,81,229581,5,0,0:0:0:0:
129,146,229747,1,0,0:0:0:0:
276,240,229914,1,8,0:0:0:0:
299,261,229998,1,0,0:0:0:0:
327,275,230081,1,0,0:0:0:0:
358,281,230164,1,0,0:0:0:0:
390,279,230247,1,0,0:2:0:0:
419,269,230331,1,0,0:0:0:0:
445,251,230414,1,0,0:0:0:0:
465,227,230497,1,0,0:0:0:0:
476,197,230581,2,0,P|473:153|463:126,1,45,8|0,0:0|0:0,0:0:0:0:
492,44,230748,2,0,P|451:24|423:18,1,45
375,111,230915,6,0,P|331:155|236:182,1,135,4|0,0:0|0:0,0:0:0:0:
264,180,231248,1,8,0:0:0:0:
122,83,231415,2,0,P|182:99|272:200,1,180,2|2,0:0|0:0,0:0:0:0:
273,224,231831,1,0,0:0:0:0:
297,261,231915,1,8,0:0:0:0:
336,281,231998,1,0,0:0:0:0:
379,289,232081,6,0,P|443:245|470:122,1,180,2|10,0:0|1:0,0:0:0:0:
256,36,232581,1,10,1:0:0:0:
224,152,232915,5,0,0:0:0:0:
288,232,233081,1,0,0:0:0:0:
296,160,233248,1,0,0:0:0:0:
216,224,233414,1,0,0:0:0:0:
416,280,233581,6,0,P|460:176|412:84,1,215.999993408203,4|8,0:0|0:0,0:0:0:0:
262,193,234081,1,0,0:0:0:0:
121,293,234248,1,0,0:0:0:0:
109,120,234415,1,0,0:0:0:0:
256,268,234581,1,8,0:0:0:0:
345,162,234748,6,0,P|263:104|174:183,1,215.999993408203,4|0,0:0|0:0,0:0:0:0:
377,246,235247,2,0,P|421:209|432:148,1,107.999996704102,8|0,0:0|0:0,0:0:0:0:
414,29,235581,1,0,0:0:0:0:
512,200,235748,1,0,0:0:0:0:
348,328,235914,2,0,P|304:291|293:230,1,107.999996704102,8|0,0:0|0:0,0:0:0:0:
272,24,236248,6,0,P|194:24|101:51,1,161.999995056153,4|0,0:0|0:0,0:0:0:0:
39,90,236581,1,8,0:0:0:0:
237,155,236748,2,0,P|312:184|377:231,1,161.999995056153,4|0,0:0|0:0,0:0:0:0:
429,299,237080,1,8,0:0:0:0:
143,319,237248,2,0,P|20:254|40:89,1,323.999990112305,4|0,0:0|0:0,0:0:0:0:
86,64,237830,5,0,0:0:0:0:
139,51,237914,1,8,0:0:0:0:
191,63,237997,1,0,0:0:0:0:
232,96,238080,1,0,0:0:0:0:
219,149,238164,1,0,0:0:0:0:
165,149,238247,1,0,0:0:0:0:
147,98,238330,1,0,0:0:0:0:
191,63,238414,1,0,0:0:0:0:
243,49,238497,1,0,0:0:0:0:
296,62,238581,1,8,0:0:0:0:
487,136,238748,6,0,P|438:236|342:278,1,215.999993408203,4|0,0:0|0:0,0:0:0:0:
288,34,239248,2,0,P|343:32|390:74,1,107.999996704102,8|0,0:0|0:0,0:0:0:0:
180,192,239581,1,0,0:0:0:0:
37,115,239748,1,0,0:0:0:0:
174,31,239914,1,8,0:0:0:0:
96,173,240081,6,0,P|90:278|153:363,1,215.999993408203
329,235,240581,2,0,B|277:215|277:215|229:235,1,107.999996704102,8|0,0:0|0:0,0:0:0:0:
407,364,240914,2,0,P|469:278|473:251,1,107.999996704102
426,81,241248,1,8,0:0:0:0:
329,235,241414,6,0,P|270:286|157:227,1,215.999993408203,4|0,0:0|0:0,0:0:0:0:
244,44,241914,1,8,0:0:0:0:
245,195,242081,1,0,0:0:0:0:
329,69,242248,1,0,0:0:0:0:
159,169,242415,1,0,0:0:0:0:
349,179,242581,1,8,0:0:0:0:
139,59,242748,6,0,P|65:110|85:250,1,215.999993408203
88,275,243164,1,0,0:0:0:0:
121,316,243248,1,8,0:0:0:0:
169,340,243330,1,0,0:0:0:0:
223,342,243414,1,0,0:0:0:0:
272,322,243497,1,0,0:0:0:0:
309,283,243581,6,0,P|334:255|343:220,1,53.9999983520508
341,80,243747,2,0,P|316:107|307:143,1,53.9999983520508
426,197,243914,2,0,P|398:172|363:163,1,53.9999983520508
223,165,244080,2,0,P|251:190|286:199,1,53.9999983520508
319,54,244248,6,0,P|262:28|160:90,1,161.999995056153,0|0,0:0|2:0,0:0:0:0:
175,64,244581,2,0,P|159:136|52:247,1,215.999993408203,4|0,0:0|0:0,0:0:0:0:
94,68,245081,1,0,0:0:0:0:
227,177,245248,1,8,0:0:0:0:
67,240,245414,6,0,P|105:318|251:346,1,215.999993408203
227,177,245914,2,0,P|202:239|209:294,1,107.999996704102,8|0,0:0|0:0,0:0:0:0:
416,219,246248,1,0,0:0:0:0:
293,79,246414,1,0,0:0:0:0:
306,264,246581,1,8,0:0:0:0:
408,101,246748,1,0,0:0:0:0:
227,177,246914,6,0,P|158:171|72:50,1,215.999993408203,4|8,0:0|0:0,0:0:0:0:
211,37,247414,1,0,0:0:0:0:
316,206,247581,2,0,P|367:226|428:209,1,107.999996704102
301,37,247914,1,8,0:0:0:0:
246,264,248080,6,0,P|167:319|48:261,1,215.999993408203,0|0,0:0|0:0,0:0:0:0:
112,110,248581,2,0,P|135:159|147:212,1,107.999996704102,8|0,0:0|0:0,0:0:0:0:
256,136,248914,1,0,0:0:0:0:
399,110,249081,2,0,P|376:159|365:212,1,107.999996704102,0|8,0:0|0:0,0:0:0:0:
256,340,249414,1,0,0:0:0:0:
138,247,249581,6,0,P|94:146|151:52,1,215.999993408203,4|8,0:0|0:0,0:0:0:0:
376,64,250080,1,0,0:0:0:0:
313,198,250248,2,0,P|261:186|218:155,1,107.999996704102
376,64,250580,1,8,0:0:0:0:
289,299,250748,6,0,P|197:331|75:312,1,215.999993408203
121,134,251248,1,8,0:0:0:0:
216,47,251414,1,0,0:0:0:0:
289,299,251581,1,0,0:0:0:0:
166,260,251747,1,0,0:0:0:0:
347,72,251914,1,8,0:0:0:0:
375,197,252080,1,0,0:0:0:0:
121,134,252248,6,0,P|140:61|225:51,1,161.999995056153
216,47,252581,1,8,0:0:0:0:
196,196,252748,2,0,P|217:264|338:315,1,161.999995056153,2|0,0:0|0:0,0:0:0:0:
343,311,253081,1,2,0:0:0:0:
387,280,253164,1,0,0:0:0:0:
414,233,253248,1,8,0:0:0:0:
414,179,253331,1,0,0:0:0:0:
380,137,253414,6,0,P|310:121|189:214,1,215.999993408203,6|0,0:0|0:0,0:0:0:0:
196,196,253831,1,0,0:0:0:0:
196,196,253914,1,8,0:0:0:0:
116,313,254081,1,0,0:0:0:0:
80,152,254247,2,0,L|68:60,1,53.9999983520508
196,196,254413,2,0,L|188:132,1,53.9999983520508
284,92,254580,2,0,L|272:0,1,53.9999983520508,8|0,0:0|0:0,0:0:0:0:
400,136,254746,2,0,L|392:72,1,53.9999983520508
488,229,254914,6,0,P|423:309|310:282,1,215.999993408203,4|8,0:0|0:0,0:0:0:0:
240,148,255414,1,0,0:0:0:0:
156,292,255581,2,0,P|54:308|14:285,1,107.999996704102
148,138,255914,1,8,0:0:0:0:
321,292,256081,6,0,P|422:309|488:229,1,215.999993408203
378,108,256581,2,0,P|367:156|405:231,1,107.999996704102,8|0,0:0|0:0,0:0:0:0:
462,53,256914,2,0,P|425:19|341:14,1,107.999996704102
174,133,257248,2,0,P|210:166|294:171,1,107.999996704102,8|0,0:0|0:0,0:0:0:0:
174,36,257581,6,0,P|109:60|99:189,1,161.999995056153,4|0,0:0|0:0,0:0:0:0:
127,223,257914,1,8,0:0:0:0:
338,348,258081,2,0,P|403:324|413:195,1,161.999995056153,4|0,0:0|0:0,0:0:0:0:
385,161,258414,1,8,0:0:0:0:
127,223,258581,2,0,P|282:267|385:160,1,323.999990112305,4|0,0:0|0:0,0:0:0:0:
392,108,259164,1,0,0:0:0:0:
361,63,259247,1,0,0:0:0:0:
316,34,259330,1,0,0:0:0:0:
263,24,259414,1,0,0:0:0:0:
211,35,259497,1,0,0:0:0:0:
166,65,259580,2,0,P|144:84|120:120,1,53.9999983520508
24,100,259747,2,0,P|29:128|48:167,1,53.9999983520508
112,224,259914,1,0,0:0:0:0:
112,224,260081,6,0,P|173:280|305:263,1,215.999993408203,4|0,0:0|0:0,0:0:0:0:
381,71,260581,2,0,P|335:126|337:196,1,107.999996704102,8|0,0:0|0:0,0:0:0:0:
488,195,260914,1,0,0:0:0:0:
382,71,261081,1,0,0:0:0:0:
224,30,261248,1,8,0:0:0:0:
74,90,261414,6,0,P|36:168|87:293,1,215.999993408203
238,116,261914,2,0,P|190:142|159:185,1,107.999996704102,8|0,0:0|0:0,0:0:0:0:
354,344,262248,1,0,0:0:0:0:
418,194,262414,1,0,0:0:0:0:
258,214,262581,1,8,0:0:0:0:
451,301,262748,1,0,0:0:0:0:
470,117,262914,6,0,P|390:106|344:137,1,107.999996704102,2|0,0:0|0:0,0:0:0:0:
206,280,263248,2,0,P|257:295|308:280,1,107.999996704102,10|0,0:0|0:0,0:0:0:0:
144,116,263581,2,0,P|93:101|42:117,1,107.999996704102,2|0,0:0|0:0,0:0:0:0:
204,278,263914,1,8,0:0:0:0:
351,62,264081,6,0,P|256:19|160:62,1,215.999993408203,6|0,0:0|0:0,0:0:0:0:
160,62,264498,1,0,0:0:0:0:
160,62,264581,1,8,0:0:0:0:
268,156,264748,1,0,0:0:0:0:
381,251,264914,1,10,0:0:0:0:
160,340,265081,1,10,0:0:0:0:
160,340,265414,6,0,P|76:312|56:176,1,215.999993408203,6|0,0:0|0:0,0:0:0:0:
192,108,265914,1,10,0:0:0:0:
302,287,266081,1,0,0:0:0:0:
157,252,266248,1,10,0:0:0:0:
336,142,266415,1,0,0:0:0:0:
219,314,266581,1,8,0:0:0:0:
271,89,266748,6,0,P|324:40|476:76,1,215.999993408203,6|0,0:0|0:0,0:0:0:0:
225,284,267248,2,0,P|164:323|97:321,1,107.999996704102,10|0,0:0|0:0,0:0:0:0:
77,84,267581,1,2,0:0:0:0:
130,91,267664,1,0,0:0:0:0:
178,114,267747,1,0,0:0:0:0:
219,150,267830,1,0,0:0:0:0:
254,190,267914,1,8,0:0:0:0:
289,231,267997,1,0,0:0:0:0:
329,267,268080,1,0,0:0:0:0:
377,292,268164,1,0,0:0:0:0:
432,296,268247,5,12,0:0:0:0:
422,241,268330,1,0,0:0:0:0:
412,188,268413,1,0,0:0:0:0:
403,136,268496,1,0,0:0:0:0:
393,82,268580,1,8,0:0:0:0:
207,270,268747,2,0,P|150:314|58:303,1,161.999995056153,8|0,0:0|2:0,0:0:0:0:
154,179,269081,2,0,P|232:169|290:207,1,107.999996704102,8|0,0:0|2:0,0:0:0:0:
297,215,269330,1,8,0:0:0:0:
453,45,269581,5,12,0:0:0:0:
416,52,269664,1,0,0:0:0:0:
378,58,269748,1,0,0:0:0:0:
341,64,269831,1,0,0:0:0:0:
304,70,269914,1,8,0:0:0:0:
154,179,270081,2,0,P|136:250|223:258,1,161.999995056153,8|0,0:0|2:0,0:0:0:0:
358,179,270414,2,0,P|376:250|317:270,1,107.999996704102,8|0,0:0|2:0,0:0:0:0:
305,271,270664,1,8,0:0:0:0:
188,40,270914,5,4,0:0:0:0:
56,152,271081,2,0,P|42:229|68:301,1,107.999996704102,2|8,0:0|0:0,0:0:0:0:
196,336,271414,1,0,0:0:0:0:
256,172,271581,1,0,0:0:0:0:
124,284,271748,1,2,0:0:0:0:
124,284,271831,1,0,0:0:0:0:
124,284,271914,1,8,0:0:0:0:
292,248,272081,1,0,0:0:0:0:
120,152,272248,5,0,0:0:0:0:
284,72,272414,2,0,P|336:72|412:104,1,107.999996704102,2|8,0:0|0:0,0:0:0:0:
492,228,272748,1,0,0:0:0:0:
368,348,272914,1,0,0:0:0:0:
324,180,273081,1,2,0:0:0:0:
324,180,273164,1,0,0:0:0:0:
324,180,273248,1,8,0:0:0:0:
288,348,273414,1,0,0:0:0:0:
288,348,273581,5,0,0:0:0:0:
164,228,273748,2,0,P|116:176|104:104,1,107.999996704102,2|8,0:0|0:0,0:0:0:0:
219,62,274081,1,0,0:0:0:0:
288,275,274248,1,0,0:0:0:0:
105,142,274414,1,2,0:0:0:0:
105,142,274498,1,0,0:0:0:0:
105,142,274581,1,8,0:0:0:0:
330,142,274748,1,0,0:0:0:0:
147,275,274914,5,12,0:0:0:0:
118,299,274997,1,0,0:0:0:0:
85,314,275080,1,0,0:0:0:0:
47,315,275163,1,0,0:0:0:0:
10,315,275248,1,8,0:0:0:0:
105,142,275414,2,0,B|169:124|169:124|169:74|208:40,1,161.999995056153,8|0,0:0|2:0,0:0:0:0:
303,40,275748,2,0,B|342:74|342:124|342:124|399:139,1,107.999996704102,8|0,0:0|2:0,0:0:0:0:
405,141,275997,1,8,0:0:0:0:
256,259,276248,5,12,0:0:0:0:
256,221,276331,1,0,0:0:0:0:
256,183,276414,1,0,0:0:0:0:
256,145,276497,1,0,0:0:0:0:
256,108,276581,1,8,0:0:0:0:
72,164,276747,2,0,B|56:236|56:236|140:284,1,161.999995056153,8|0,0:0|2:0,0:0:0:0:
172,143,277080,2,0,B|188:71|188:71|120:30,1,107.999996704102,8|0,0:0|2:0,0:0:0:0:
111,27,277330,1,8,0:0:0:0:
133,280,277581,5,12,0:0:0:0:
167,296,277664,1,0,0:0:0:0:
201,313,277747,1,0,0:0:0:0:
235,329,277830,1,0,0:0:0:0:
269,346,277914,1,8,0:0:0:0:
414,178,278081,2,0,P|403:96|352:30,1,161.999995056153,8|0,0:0|2:0,0:0:0:0:
259,159,278414,2,0,P|206:180|156:146,1,107.999996704102,8|0,0:0|2:0,0:0:0:0:
64,82,278664,2,0,L|87:237,1,107.999996704102,8|0,0:0|2:0,0:0:0:0:
96,298,278914,5,4,0:3:0:0:
256,192,278997,12,0,284247,0:0:0:0:
