osu file format v14

[General]
AudioFilename: 01. Liar Mask.mp3
AudioLeadIn: 0
PreviewTime: 222914
Countdown: 0
SampleSet: Soft
StackLeniency: 0.4
Mode: 0
LetterboxInBreaks: 1
WidescreenStoryboard: 0

[Editor]
Bookmarks: 8500,81580,224081
DistanceSpacing: 1
BeatDivisor: 2
GridSize: 4
TimelineZoom: 1.6

[Metadata]
Title:Liar Mask
TitleUnicode:Liar Mask
Artist:Mayama Rika
ArtistUnicode:真山りか
Creator:Atsuro
Version:Easy
Source:アカメが斬る!
Tags:Akame ga Kill akg Opening 2 full version LixRei
BeatmapID:566666
BeatmapSetID:238462

[Difficulty]
HPDrainRate:2
CircleSize:3
OverallDifficulty:2
ApproachRate:3
SliderMultiplier:0.9
SliderTickRate:1

[Events]
//Background and Video events
0,0,"bg.png",0,0
//Break Periods
2,15785,19478
2,91583,95250
2,158448,163974
2,187780,200808
//Storyboard Layer 0 (Background)
//Storyboard Layer 1 (Fail)
//Storyboard Layer 2 (Pass)
//Storyboard Layer 3 (Foreground)
//Storyboard Sound Samples

[TimingPoints]
2100,400,4,2,0,60,1,0
2100,-94.3396226415094,4,2,1,60,0,0
15585,333.333333333333,4,2,1,60,1,0
36918,333.333333333333,3,2,1,60,1,0
52917,333.333333333333,4,1,1,100,1,0
52917,-100,4,1,1,60,0,0
55583,-100,4,1,1,70,0,1
90250,-100,4,2,1,60,0,0
112916,333.333333333333,3,2,1,60,1,0
128915,333.333333333333,4,1,1,60,1,0
131581,-100,4,1,1,70,0,1
155581,-100,4,2,1,70,0,0
176914,-100,4,2,1,70,0,1
187581,-100,4,2,1,70,0,0
202248,333.333333333333,3,2,1,50,1,0
210248,-100,3,2,1,70,0,0
221581,333.333333333333,4,1,1,60,1,0
233581,-100,4,1,1,70,0,1
244247,-100,4,1,1,70,0,0
244580,-100,4,1,1,70,0,1
278914,-100,4,2,0,70,0,0
280247,-100,4,2,0,50,0,0
281580,-100,4,2,0,30,0,0
282914,-100,4,2,0,20,0,0

[Colours]
Combo1 : 98,0,98
Combo2 : 139,139,139
Combo3 : 255,0,0
Combo4 : 40,40,40

[HitObjects]
132,292,2100,6,0,P|164:328|216:340,1,95.4000001455689,0|0,0:0|0:0,0:0:0:0:
304,340,2900,2,0,P|349:326|380:291,1,95.4000001455689,2|0,0:0|0:0,0:0:0:0:
339,203,3700,2,0,P|256:164|172:202,1,190.800000291138,0|2,0:0|0:0,0:0:0:0:
123,285,4900,1,0,0:0:0:0:
71,204,5300,6,0,P|36:116|70:29,2,190.800000291138,0|2|0,0:0|0:0|0:0,0:0:0:0:
256,152,7700,1,2,0:0:0:0:
441,204,8500,6,0,P|476:116|441:29,1,190.800000291138,4|2,0:1|0:0,0:0:0:0:
352,60,9700,1,0,0:0:0:0:
308,144,10100,2,0,P|276:200|244:224,1,95.4000001455689,4|0,0:1|0:0,0:0:0:0:
220,308,10900,2,0,L|324:308,1,95.4000001455689,8|2,0:0|0:0,0:0:0:0:
412,304,11700,1,4,0:1:0:0:
488,128,12500,6,0,L|384:128,1,95.4000001455689,2|4,0:0|0:3,0:0:0:0:
296,124,13300,1,4,0:1:0:0:
256,192,13700,12,0,15585,0:0:0:0:
192,60,20918,6,0,P|113:102|62:188,1,180,4|8,0:1|0:0,0:0:0:0:
235,235,22251,1,0,0:0:0:0:
311,282,22585,2,0,L|403:282,1,90,4|8,0:3|0:0,0:0:0:0:
465,113,23585,6,0,P|416:43|313:59,1,180,4|8,0:3|0:0,0:0:0:0:
376,124,24585,2,0,L|356:224,1,90,0|0,0:0|0:0,0:0:0:0:
276,244,25251,2,0,L|258:155,1,90,4|8,0:3|0:0,0:0:0:0:
132,28,26251,6,0,P|64:68|40:172,1,180,2|2,0:0|0:0,0:0:0:0:
96,228,27251,1,0,0:0:0:0:
148,300,27585,2,0,P|106:317|53:306,2,90,2|0|2,0:0|0:0|0:0,0:0:0:0:
284,184,28918,6,0,P|363:151|464:172,1,180,2|2,0:0|0:0,0:0:0:0:
456,256,29918,1,0,0:0:0:0:
404,328,30251,2,0,P|324:360|223:339,1,180,2|2,0:0|0:0,0:0:0:0:
80,248,31585,6,0,B|48:164|48:164|80:76,1,180,4|8,0:1|0:0,0:0:0:0:
152,24,32585,1,0,0:0:0:0:
192,104,32918,2,0,P|255:157|319:104,1,180,4|8,0:3|0:0,0:0:0:0:
480,20,34251,6,0,P|494:104|492:200,1,180,4|8,0:3|0:0,0:0:0:0:
444,276,35251,1,0,0:0:0:0:
376,216,35584,2,0,B|308:192|256:253|256:253|204:192|136:216,1,270,4|0,0:3|0:0,0:0:0:0:
68,160,36918,6,0,P|108:103|215:102,1,180,4|0,0:0|0:0,0:0:0:0:
300,100,37918,2,0,P|386:94|443:160,1,180,2|0,0:0|0:0,0:0:0:0:
436,252,38918,6,0,B|412:316|364:336|364:336|288:312,1,180,2|0,0:0|0:0,0:0:0:0:
212,316,39918,2,0,B|149:336|149:336|101:316|77:252,1,180,2|0,0:0|0:0,0:0:0:0:
44,168,40917,6,0,P|144:144|208:80,1,180,4|0,0:0|0:0,0:0:0:0:
256,164,41917,2,0,L|256:264,2,90,2|0|0,0:0|0:0|0:0,0:0:0:0:
312,93,42917,6,0,P|380:150|468:168,1,180,2|0,0:0|0:0,0:0:0:0:
468,260,43917,2,0,L|360:260,1,90,2|0,0:0|0:0,0:0:0:0:
288,260,44584,1,0,0:0:0:0:
224,324,44917,6,0,P|136:352|88:272,1,180,4|0,0:0|0:0,0:0:0:0:
72,204,45917,2,0,P|91:113|185:112,1,180,2|0,0:0|0:0,0:0:0:0:
236,160,46917,6,0,P|300:176|420:112,1,180,2|0,0:0|0:0,0:0:0:0:
484,96,47917,2,0,L|484:196,2,90,2|0|0,0:0|0:0|0:0,0:0:0:0:
408,44,48917,6,0,P|300:32|288:36,1,90,4|0,0:0|0:0,0:0:0:0:
232,44,49584,1,0,0:0:0:0:
144,24,49917,2,0,B|64:72|64:184|64:184|136:264,1,270,2|2,0:0|0:0,0:0:0:0:
188,304,51251,6,0,L|288:304,1,90,0|0,0:0|0:0,0:0:0:0:
304,216,51917,2,0,L|416:216,2,90,2|0|0,0:0|0:0|0:0,0:0:0:0:
256,139,52917,6,0,P|133:86|115:267,1,360,4|0,0:0|0:0,0:0:0:0:
180,320,54583,2,0,L|288:320,1,90,8|0,0:0|0:0,0:0:0:0:
400,196,55583,6,0,P|371:144|330:100,1,90,4|8,0:0|0:0,0:0:0:0:
289,55,56250,2,0,P|256:105|172:118,2,135,0|0|8,0:0|0:0|0:0,0:0:0:0:
202,32,57583,2,0,L|111:31,1,90,0|8,0:0|0:0,0:0:0:0:
37,82,58250,6,0,P|26:135|39:181,1,90,4|8,0:0|0:0,0:0:0:0:
112,212,58916,2,0,P|151:267|161:346,2,135,0|0|8,0:0|0:0|0:0,0:0:0:0:
183,157,60250,2,0,P|230:146|279:161,1,90,0|8,0:0|0:0,0:0:0:0:
314,234,60916,6,0,P|374:252|475:187,1,180,4|0,0:0|0:0,0:0:0:0:
470,106,61916,2,0,P|400:53|313:68,1,180,8|8,0:0|0:0,0:0:0:0:
276,149,62916,2,0,L|186:149,1,90,0|8,0:0|0:0,0:0:0:0:
223,67,63583,6,0,L|71:68,1,135,0|2,0:0|0:0,0:0:0:0:
53,151,64416,1,2,0:0:0:0:
78,237,64750,2,0,P|126:286|211:287,1,135,6|8,0:0|0:0,0:0:0:0:
279,292,65583,2,0,P|320:292|373:271,1,90,0|8,0:0|0:0,0:0:0:0:
439,224,66250,6,0,P|458:133|430:40,1,180,4|0,0:0|0:0,0:0:0:0:
361,100,67250,2,0,P|312:131|189:92,1,180,8|8,0:0|0:0,0:0:0:0:
135,41,68250,2,0,L|81:126,1,90,0|8,0:0|0:0,0:0:0:0:
43,195,68916,5,4,0:0:0:0:
148,277,69416,1,4,0:0:0:0:
252,191,69916,2,0,P|362:125|475:198,1,270,4|0,0:0|0:0,0:0:0:0:
429,319,71416,6,0,B|365:339|365:280|284:319,1,135,4|8,0:0|0:0,0:0:0:0:
220,358,72250,2,0,P|151:345|116:274,2,135,0|0|8,0:0|0:0|0:0,0:0:0:0:
204,269,73583,2,0,L|204:179,1,90,0|8,0:0|0:0,0:0:0:0:
127,131,74250,6,0,P|203:91|280:131,1,180,2|2,0:0|0:0,0:0:0:0:
328,207,75250,2,0,P|361:233|483:223,2,135,10|0|8,0:0|0:0|0:0,0:0:0:0:
229,299,76750,6,0,P|196:325|92:319,1,135,4|8,0:0|0:0,0:0:0:0:
154,250,77583,2,0,P|188:204|178:130,2,135,0|4|8,0:0|0:0|0:0,0:0:0:0:
100,177,78916,2,0,P|65:120|65:81,1,90,0|8,0:0|0:0,0:0:0:0:
119,27,79583,6,0,P|209:22|266:72,2,135,12|8|4,0:0|0:0|0:3,0:0:0:0:
106,116,80916,2,0,P|166:144|231:133,2,135,12|8|4,0:0|0:0|0:3,0:0:0:0:
43,51,82250,6,0,P|10:125|61:202,1,180,4|0,0:0|0:0,0:0:0:0:
121,267,83250,1,8,0:0:0:0:
194,214,83583,2,0,P|267:172|346:214,1,180,0|0,0:0|0:0,0:0:0:0:
271,264,84583,1,8,0:0:0:0:
352,302,84916,6,0,P|425:250|417:162,1,180,0|0,0:0|0:0,0:0:0:0:
360,100,85916,1,8,0:0:0:0:
256,192,86250,12,2,90250,0:0:0:0:
160,100,96916,6,0,B|108:148|120:216|120:216|160:264,1,180,4|4,0:1|0:3,0:0:0:0:
224,312,97916,1,0,0:0:0:0:
280,244,98250,2,0,L|214:182,2,90,4|0|4,0:3|0:0|0:3,0:0:0:0:
460,252,99583,6,0,L|329:128,1,180,4|4,0:3|0:3,0:0:0:0:
256,76,100583,1,0,0:0:0:0:
180,128,100916,2,0,P|144:192|56:256,1,180,4|4,0:3|0:3,0:0:0:0:
227,319,102250,6,0,P|321:337|375:271,1,180,4|4,0:3|0:3,0:0:0:0:
287,249,103250,1,8,0:3:0:0:
198,233,103583,2,0,P|170:196|160:142,1,90,4|4,0:3|0:3,0:0:0:0:
186,68,104250,2,0,P|223:40|277:30,1,90,4|12,0:3|0:3,0:0:0:0:
330,91,104916,6,0,P|360:156|255:212,1,180,4|4,0:3|0:3,0:0:0:0:
209,262,105916,1,8,0:3:0:0:
276,320,106250,2,0,B|368:360|368:292|460:324,1,180,4|8,0:3|0:0,0:0:0:0:
436,140,107583,6,0,P|364:84|264:92,1,180,8|8,0:0|0:0,0:0:0:0:
244,168,108583,1,0,0:0:0:0:
184,236,108916,2,0,P|128:208|100:168,1,90,8|0,0:0|0:0,0:0:0:0:
80,104,109583,2,0,L|48:284,1,180,8|8,0:0|0:0,0:0:0:0:
220,332,110916,5,8,0:0:0:0:
288,272,111250,2,0,L|392:252,1,90,0|8,0:0|0:0,0:0:0:0:
334,175,111916,2,0,L|422:158,1,90,0|8,0:0|0:0,0:0:0:0:
283,43,112916,6,0,L|179:63,1,90,4|2,0:0|0:3,0:0:0:0:
105,43,113582,1,2,0:3:0:0:
112,132,113916,2,0,P|104:224|52:300,1,180,4|2,0:3|0:3,0:0:0:0:
120,360,114916,6,0,P|172:344|216:348,1,90,4|2,0:3|0:3,0:0:0:0:
292,372,115582,1,2,0:3:0:0:
380,348,115916,2,0,B|436:216|312:216|380:80,1,270,4|4,0:3|0:1,0:0:0:0:
420,8,117249,5,2,0:3:0:0:
332,16,117582,2,0,P|272:36|224:40,1,90,2|4,0:3|0:3,0:0:0:0:
224,128,118249,2,0,P|179:120|137:104,1,90,2|2,0:3|0:3,0:0:0:0:
100,24,118916,6,0,L|60:236,1,180,4|2,0:3|0:3,0:0:0:0:
140,252,119916,2,0,L|123:340,2,90,4|2|4,0:3|0:3|0:3,0:0:0:0:
196,180,120915,6,0,P|236:216|352:168,1,180,4|4,0:1|0:3,0:0:0:0:
400,108,121915,2,0,P|448:192|432:304,1,180,8|4,0:0|0:3,0:0:0:0:
368,320,122915,6,0,P|284:296|176:336,1,180,4|4,0:3|0:3,0:0:0:0:
151,242,123915,2,0,P|280:208|420:248,1,270,8|4,0:0|0:1,0:0:0:0:
492,275,125249,5,0,0:0:0:0:
471,187,125582,2,0,P|448:138|439:91,1,90,4|8,0:3|0:0,0:0:0:0:
387,29,126249,2,0,P|356:73|319:104,1,90,0|4,0:0|0:3,0:0:0:0:
256,44,126915,5,4,0:3:0:0:
182,96,127249,2,0,P|150:66|125:29,2,90,0|4|8,0:0|0:3|0:0,0:0:0:0:
216,180,128249,2,0,L|108:180,1,90,0|4,0:0|0:3,0:0:0:0:
48,220,128915,6,0,P|56:296|104:332,2,135,4|8|0,0:0|0:0|0:0,0:0:0:0:
92,140,130248,2,0,P|160:100|252:144,1,180,0|0,0:0|0:0,0:0:0:0:
345,287,131581,6,0,P|407:247|421:219,1,90,4|8,0:0|0:0,0:0:0:0:
418,144,132248,2,0,P|387:78|302:59,2,135,0|0|8,0:0|0:0|0:0,0:0:0:0:
339,187,133581,2,0,L|232:187,1,90,0|8,0:0|0:0,0:0:0:0:
214,103,134248,6,0,P|173:122|152:160,1,90,4|8,0:0|0:0,0:0:0:0:
143,250,134915,2,0,P|121:288|23:311,2,135,0|0|8,0:0|0:0|0:0,0:0:0:0:
206,313,136248,2,0,L|300:313,1,90,0|8,0:0|0:0,0:0:0:0:
382,289,136915,6,0,P|412:198|375:117,1,180,4|0,0:0|0:0,0:0:0:0:
304,171,137915,2,0,P|228:217|139:213,1,180,8|8,0:0|0:0,0:0:0:0:
78,279,138915,2,0,P|116:301|193:301,1,90,0|8,0:0|0:0,0:0:0:0:
250,307,139581,6,0,P|316:292|369:251,1,135,0|2,0:0|0:0,0:0:0:0:
423,179,140415,1,2,0:0:0:0:
369,106,140748,2,0,P|316:64|250:50,1,135,6|8,0:0|0:0,0:0:0:0:
160,51,141581,2,0,P|100:94|81:139,1,90,0|8,0:0|0:0,0:0:0:0:
90,196,142248,6,0,P|118:230|157:251,1,90,4|8,0:0|0:0,0:0:0:0:
216,182,142915,2,0,P|281:156|337:187,2,135,0|0|8,0:0|0:0|0:0,0:0:0:0:
232,270,144248,2,0,L|334:270,1,90,0|8,0:0|0:0,0:0:0:0:
409,248,144914,5,4,0:0:0:0:
463,124,145414,1,4,0:0:0:0:
346,56,145914,2,0,B|323:115|274:152|274:152|199:113|199:172|111:132,1,270,4|8,0:0|0:0,0:0:0:0:
32,233,147414,6,0,P|55:297|125:326,1,135,4|8,0:0|0:0,0:0:0:0:
174,260,148248,2,0,P|232:290|254:352,2,135,0|0|8,0:0|0:0|0:0,0:0:0:0:
146,174,149581,2,0,L|258:174,1,90,0|8,0:0|0:0,0:0:0:0:
295,241,150248,6,0,P|378:281|451:234,1,180,2|2,0:0|0:0,0:0:0:0:
372,189,151248,2,0,L|373:4,1,180,10|8,0:0|0:0,0:0:0:0:
290,44,152248,6,0,P|254:121|199:133,2,135,0|4|8,0:0|0:0|0:0,0:0:0:0:
199,45,153581,2,0,P|139:72|120:134,2,135,0|4|8,0:0|0:0|0:0,0:0:0:0:
212,134,154914,2,0,L|212:237,1,90,0|8,0:0|0:0,0:0:0:0:
256,192,155581,12,4,158248,0:1:0:0:
151,226,165414,6,0,B|200:264|256:232|256:232|308:264|361:226,1,225,0|4,0:0|0:1,0:0:0:0:
227,44,167081,6,0,P|159:60|119:92,1,90,0|8,0:0|0:0,0:0:0:0:
67,182,167914,6,0,P|107:202|151:208,1,90,8|0,0:0|0:0,0:0:0:0:
229,163,168581,1,8,0:0:0:0:
308,120,168914,6,0,P|352:126|392:146,1,90,4|8,0:0|0:0,0:0:0:0:
372,234,169581,2,0,P|336:259|291:261,1,90,0|8,0:0|0:0,0:0:0:0:
206,290,170248,2,0,P|246:341|332:342,2,135,0|4|8,0:0|0:3|0:0,0:0:0:0:
122,256,171581,6,0,B|90:204|122:148|122:148|90:92|122:44,1,225,4|0,0:1|0:0,0:0:0:0:
196,94,172748,2,0,P|281:124|408:58,1,225,8|4,0:0|0:3,0:0:0:0:
474,19,173914,1,8,0:0:0:0:
496,106,174248,6,0,P|495:183|472:260,1,135,4|0,0:1|0:0,0:0:0:0:
397,271,175081,1,0,0:0:0:0:
336,338,175414,2,0,P|248:346|207:341,2,90,4|4|4,0:3|0:3|0:3,0:0:0:0:
397,271,176414,1,8,0:0:0:0:
265,238,176914,6,0,P|195:180|198:92,1,180,6|0,0:1|0:0,0:0:0:0:
261,34,177914,1,10,0:1:0:0:
311,108,178248,2,0,P|360:142|465:169,2,135,2|0|8,0:1|0:0|0:0,0:0:0:0:
264,187,179581,6,0,P|215:221|161:240,1,90,6|8,0:1|0:0,0:0:0:0:
122,295,180248,2,0,L|280:294,1,135,0|2,0:0|0:1,0:0:0:0:
339,257,181081,1,0,0:0:0:0:
383,179,181414,2,0,P|425:231|405:319,1,135,2|10,0:1|0:1,0:0:0:0:
347,348,182248,6,0,P|266:311|267:205,1,180,6|0,0:1|0:0,0:0:0:0:
292,146,183248,1,10,0:1:0:0:
202,149,183581,2,0,P|143:147|96:123,1,90,2|8,0:1|0:0,0:0:0:0:
98,47,184248,2,0,P|156:48|203:72,1,90,2|8,0:1|0:0,0:0:0:0:
270,88,184914,6,0,B|335:83|379:49|379:49|426:89,1,180,2|0,0:1|0:0,0:0:0:0:
481,161,185914,1,10,0:1:0:0:
426,232,186248,2,0,B|378:272|378:272|335:243,1,90,2|8,0:1|0:0,0:0:0:0:
285,201,186914,2,0,B|225:183|178:229|178:229|96:184,1,180,2|6,0:1|0:1,0:0:0:0:
95,128,202248,6,0,P|168:91|210:162,1,180,4|0,0:0|0:0,0:0:0:0:
301,162,203248,2,0,P|342:91|416:127,1,180,2|0,0:0|0:0,0:0:0:0:
429,217,204248,6,0,B|409:287|347:310|347:310|273:276,1,180,2|0,0:0|0:0,0:0:0:0:
210,289,205248,2,0,B|160:307|160:307|98:284|78:214,1,180,2|0,0:0|0:0,0:0:0:0:
72,128,206248,6,0,P|100:56|208:64,1,180,2|0,0:0|0:0,0:0:0:0:
256,116,207248,2,0,L|256:216,2,90,2|0|0,0:0|0:0|0:0,0:0:0:0:
319,50,208248,6,0,P|404:50|440:128,1,180,2|0,0:0|0:0,0:0:0:0:
436,216,209248,2,0,B|412:260|356:260|324:236|324:236|288:304,1,180,2|0,0:0|0:0,0:0:0:0:
211,281,210248,6,0,B|188:236|188:236|156:260|100:260|76:216,1,180,4|0,0:0|0:0,0:0:0:0:
56,128,211248,1,2,0:0:0:0:
124,68,211581,2,0,P|184:44|216:52,1,90,0|0,0:0|0:0,0:0:0:0:
272,108,212248,6,0,P|332:132|440:68,1,180,2|0,0:0|0:0,0:0:0:0:
476,160,213248,2,0,P|480:216|392:312,1,180,2|0,0:0|0:0,0:0:0:0:
344,244,214248,6,0,L|240:244,2,90,4|0|0,0:0|0:0|0:0,0:0:0:0:
308,160,215248,2,0,L|204:160,2,90,2|0|0,0:0|0:0|0:0,0:0:0:0:
280,76,216248,5,4,0:0:0:0:
192,52,216581,2,0,P|132:48|84:68,1,90,0|0,0:0|0:0,0:0:0:0:
35,116,217247,2,0,P|24:158|35:201,2,90,2|0|0,0:0|0:0|0:0,0:0:0:0:
116,160,218247,6,0,P|127:206|103:262,1,90,4|0,0:0|0:0,0:0:0:0:
72,324,218914,2,0,L|188:324,1,90,0|4,0:0|0:3,0:0:0:0:
251,317,219581,1,8,0:0:0:0:
206,239,219914,1,8,0:0:0:0:
256,192,220247,12,4,221581,0:0:0:0:
352,221,222914,6,0,P|312:202|268:209,1,90,4|8,0:1|0:0,0:0:0:0:
235,293,223581,2,0,P|301:325|364:311,2,135,0|0|8,0:0|0:0|0:0,0:0:0:0:
185,217,224914,2,0,L|185:113,1,90,0|8,0:0|0:0,0:0:0:0:
227,47,225581,6,0,P|265:39|321:50,1,90,4|8,0:0|0:0,0:0:0:0:
384,104,226247,2,0,P|443:102|507:40,2,135,0|0|8,0:0|0:0|0:0,0:0:0:0:
340,183,227581,2,0,P|316:247|336:295,1,90,0|8,0:0|0:0,0:0:0:0:
381,331,228247,6,0,L|193:331,1,180,4|0,0:0|0:0,0:0:0:0:
119,291,229247,1,8,0:0:0:0:
104,200,229581,2,0,P|92:136|120:96,1,90,0|8,0:0|0:0,0:0:0:0:
180,72,230247,2,0,P|192:136|164:176,1,90,0|8,0:0|0:0,0:0:0:0:
270,175,230914,6,0,P|283:109|264:45,1,135,0|2,0:0|0:0,0:0:0:0:
345,6,231747,1,2,0:0:0:0:
425,46,232081,2,0,P|406:110|419:175,1,135,6|10,0:0|0:0,0:0:0:0:
185,309,233581,6,0,P|129:291|101:256,1,90,4|8,0:0|0:0,0:0:0:0:
64,190,234247,2,0,P|60:123|115:68,2,135,0|0|8,0:0|0:0|0:0,0:0:0:0:
146,152,235581,2,0,P|211:139|251:105,1,90,0|8,0:0|0:0,0:0:0:0:
294,63,236247,5,4,0:0:0:0:
422,103,236747,1,4,0:0:0:0:
403,227,237247,2,0,B|365:291|304:260|304:260|222:218|222:314|135:256,1,270,4|0,0:0|0:0,0:0:0:0:
55,183,238747,6,0,P|42:122|112:49,1,135,4|8,0:0|0:0,0:0:0:0:
131,136,239580,2,0,P|197:159|265:125,2,135,0|0|8,0:0|0:0|0:0,0:0:0:0:
150,47,240914,2,0,L|248:47,1,90,0|8,0:0|0:0,0:0:0:0:
328,60,241580,6,0,P|373:78|416:112,1,90,0|8,0:0|0:0,0:0:0:0:
460,176,242247,2,0,P|460:252|420:312,2,135,0|4|8,0:0|0:0|0:0,0:0:0:0:
380,220,243580,2,0,P|336:248|292:252,1,90,0|8,0:0|0:0,0:0:0:0:
208,252,244247,6,0,P|163:244|104:192,1,90,0|12,0:0|0:0,0:0:0:0:
112,132,244914,2,0,P|60:160|40:248,2,135,0|0|8,0:0|0:0|0:0,0:0:0:0:
200,124,246247,2,0,L|292:124,1,90,0|8,0:0|0:0,0:0:0:0:
348,56,246914,6,0,P|376:108|364:172,1,90,4|8,0:0|0:0,0:0:0:0:
322,210,247580,2,0,P|294:262|326:362,2,135,0|0|8,0:0|0:0|0:0,0:0:0:0:
291,124,248914,2,0,L|201:124,1,90,0|8,0:0|0:0,0:0:0:0:
121,81,249580,6,0,P|111:143|139:195,1,90,4|8,0:0|0:0,0:0:0:0:
154,250,250247,2,0,L|19:250,2,135,0|0|8,0:0|0:0|0:0,0:0:0:0:
224,306,251580,2,0,L|325:305,1,90,0|8,0:0|0:0,0:0:0:0:
404,301,252247,6,0,P|440:256|462:165,1,135,0|2,0:0|0:0,0:0:0:0:
452,92,253080,1,2,0:0:0:0:
372,52,253414,2,0,B|320:43|264:72|264:72|216:40|156:52,1,225,6|0,0:0|0:0,0:0:0:0:
72,80,254580,1,8,0:0:0:0:
36,164,254914,6,0,P|24:212|40:260,1,90,4|8,0:0|0:0,0:0:0:0:
116,208,255580,2,0,L|264:208,2,135,0|0|8,0:0|0:0|0:0,0:0:0:0:
136,296,256914,2,0,L|232:296,1,90,0|8,0:0|0:0,0:0:0:0:
316,296,257580,5,4,0:0:0:0:
412,200,258080,1,4,0:0:0:0:
316,104,258580,2,0,P|240:72|136:112,1,180,4|8,0:0|0:0,0:0:0:0:
92,167,259580,6,0,P|67:229|91:291,2,135,0|4|8,0:0|0:0|0:0,0:0:0:0:
160,228,260914,2,0,L|312:228,2,135,0|0|8,0:0|0:0|0:0,0:0:0:0:
184,316,262247,2,0,L|296:316,1,90,0|8,0:0|0:0,0:0:0:0:
364,312,262914,6,0,P|416:272|436:220,1,90,2|10,0:0|0:0,0:0:0:0:
428,160,263580,2,0,P|402:123|312:80,2,135,2|6|8,0:0|0:0|0:0,0:0:0:0:
376,232,264914,2,0,P|321:274|232:248,2,135,2|6|10,0:0|0:0|0:0,0:0:0:0:
298,186,266247,2,0,P|232:180|180:221,2,135,2|6|10,0:0|0:0|0:0,0:0:0:0:
259,267,267580,2,0,P|250:310|226:348,1,90,2|8,0:0|0:0,0:0:0:0:
140,320,268247,2,0,P|101:247|99:182,2,135,12|8|4,0:0|0:0|0:3,0:0:0:0:
60,360,269580,2,0,P|12:236|32:96,1,270,12|4,0:0|0:3,0:0:0:0:
100,160,270914,6,0,P|136:243|241:284,1,180,4|0,0:0|0:0,0:0:0:0:
293,243,271914,1,8,0:0:0:0:
374,282,272247,2,0,P|452:241|486:160,1,180,0|0,0:0|0:0,0:0:0:0:
449,79,273247,1,8,0:0:0:0:
369,119,273580,6,0,B|281:151|281:75|196:122,1,180
121,175,274580,1,8,0:0:0:0:
135,264,274914,2,0,P|181:312|262:306,2,135,12|8|4,0:0|0:0|0:3,0:0:0:0:
217,224,276247,2,0,P|282:226|328:273,2,135,12|8|4,0:0|0:0|0:3,0:0:0:0:
140,180,277580,6,0,P|124:118|160:52,1,135,12|8,0:0|0:0,0:0:0:0:
211,126,278414,2,0,P|283:146|295:146,1,67.5,8|8,0:0|0:0,0:0:0:0:
256,192,278914,12,0,284247,0:0:0:0:
