osu file format v14

[General]
AudioFilename: audio.mp3
AudioLeadIn: 0
PreviewTime: 84911
Countdown: 0
SampleSet: Soft
StackLeniency: 0.8
Mode: 0
LetterboxInBreaks: 0
WidescreenStoryboard: 0

[Editor]
DistanceSpacing: 1.2
BeatDivisor: 8
GridSize: 4
TimelineZoom: 1

[Metadata]
Title:Alyy zakat
TitleUnicode:Алый закат
Artist:Mayak
ArtistUnicode:Маяк
Creator:Gordon123
Version:Normal
Source:
Tags:Река reka ukraine synthwave dreamwave chill nostalgic retrowave retro russian 80s lo-fi Bakari riffy Pjecoo Mortem
BeatmapID:1654469
BeatmapSetID:788262

[Difficulty]
HPDrainRate:4
CircleSize:4
OverallDifficulty:4
ApproachRate:5
SliderMultiplier:1.3
SliderTickRate:1

[Events]
//Background and Video events
0,0,"sunset.jpg",0,0
//Break Periods
//Storyboard Layer 0 (Background)
//Storyboard Layer 1 (Fail)
//Storyboard Layer 2 (Pass)
//Storyboard Layer 3 (Foreground)
//Storyboard Sound Samples

[TimingPoints]
912,857.142857142857,4,2,1,20,1,0
7769,-100,4,2,1,15,0,0
14626,-100,4,2,1,18,0,0
15483,-100,4,2,1,20,0,0
21483,-100,4,2,1,15,0,0
28340,-100,4,2,1,20,0,0
28769,-100,4,2,1,15,0,0
29197,-100,4,2,1,10,0,0
29626,-100,4,2,1,5,0,0
30054,857.142857142857,4,2,1,20,1,0
50625,-100,4,2,1,15,0,0
57482,-100,4,2,1,20,0,0
139768,-100,4,2,1,15,0,0
146625,-100,4,2,1,15,0,0
148339,-100,4,2,1,10,0,0
150054,-100,4,2,1,5,0,0

[Colours]
Combo1 : 255,170,100
Combo2 : 215,179,255
Combo3 : 253,140,140
Combo4 : 182,225,239

[HitObjects]
69,60,912,6,0,L|74:125,1,65,0|0,0:0|0:0,0:0:0:0:
143,159,1769,2,0,P|116:189|52:199,2,97.5,2|0|2,0:0|0:0|0:0,0:0:0:0:
215,67,3697,1,2,0:0:0:0:
324,108,4340,2,0,L|388:103,1,65,2|0,0:0|0:0,0:0:0:0:
421,173,5197,2,0,P|459:134|450:55,2,130
115,238,8626,5,2,0:0:0:0:
178,192,9054,1,0,0:0:0:0:
237,242,9483,2,0,L|228:330,1,65,0|2,0:0|0:0,0:0:0:0:
339,349,10554,1,2,0:0:0:0:
435,282,11197,1,2,0:0:0:0:
484,342,11626,2,0,P|506:311|501:242,1,97.5,2|0,0:0|0:0,0:0:0:0:
455,193,12697,1,0,0:0:0:0:
162,123,15483,6,0,L|154:25,2,97.5,2|0|2,0:0|0:0|0:0,0:0:0:0:
256,54,17411,1,2,0:0:0:0:
369,81,18054,1,2,0:0:0:0:
434,124,18483,2,0,P|466:159|473:207,1,97.5,2|0,0:0|0:0,0:0:0:0:
396,192,19554,1,0,0:0:0:0:
148,321,22340,6,0,L|51:333,2,97.5,2|0|2,0:0|0:0|0:0,0:0:0:0:
257,280,24269,1,2,0:0:0:0:
334,192,24911,2,0,L|401:184,2,65,2|2|0,0:0|0:0|0:0,0:0:0:0:
264,156,26197,1,0,0:0:0:0:
265,77,26626,2,0,P|301:29|369:21,1,130,2|0,0:0|0:0,0:0:0:0:
256,192,28340,12,4,30054,0:0:0:0:
202,328,30911,6,0,P|229:335|270:331,1,65,8|0,0:0|0:0,0:0:0:0:
333,292,31768,1,0,0:0:0:0:
304,219,32196,2,0,P|272:211|240:214,2,65,2|8|0,0:0|0:0|0:0,0:0:0:0:
379,197,33482,2,0,L|390:58,1,130,2|8,0:0|0:0,0:0:0:0:
323,25,34768,1,0,0:0:0:0:
247,42,35196,2,0,L|236:171,1,130,0|8,0:0|0:0,0:0:0:0:
103,253,36911,6,0,P|84:229|74:129,1,130,0|8,0:0|0:0,0:0:0:0:
116,68,38196,1,0,0:0:0:0:
190,44,38625,2,0,L|262:39,1,65,0|2,0:0|0:0,0:0:0:0:
318,84,39482,2,0,L|390:79,1,65,8|0,0:0|0:0,0:0:0:0:
443,128,40339,2,0,P|444:192|412:247,2,130,2|8|0,0:0|0:0|0:0,0:0:0:0:
288,148,42911,1,8,0:0:0:0:
288,148,43768,5,0,0:0:0:0:
330,213,44196,2,0,L|335:289,1,65,0|8,0:0|0:0,0:0:0:0:
259,255,45054,2,0,P|227:250|196:261,1,65,0|0,0:0|0:0,0:0:0:0:
127,296,45911,2,0,P|90:300|62:288,2,65,2|8|0,0:0|0:0|0:0,0:0:0:0:
102,222,47196,2,0,L|109:89,1,130,2|8,0:0|0:0,0:0:0:0:
174,48,48482,1,0,0:0:0:0:
240,88,48911,2,0,P|269:99|374:88,1,130,0|8,0:0|0:0,0:0:0:0:
507,26,50625,5,0,0:0:0:0:
365,91,51482,2,0,P|355:126|358:168,1,65,8|0,0:0|0:0,0:0:0:0:
376,229,52339,1,0,0:0:0:0:
444,265,52768,2,0,L|508:266,2,65,2|8|0,0:0|0:0|0:0,0:0:0:0:
396,327,54054,2,0,L|261:323,1,130,2|8,0:0|0:0,0:0:0:0:
189,309,55339,1,0,0:0:0:0:
129,258,55768,2,0,P|101:210|130:138,1,130,0|8,0:0|0:0,0:0:0:0:
180,89,57054,1,8,0:0:0:0:
257,83,57482,6,0,L|392:78,2,130,4|8|0,0:0|0:0|0:0,0:0:0:0:
108,34,60054,1,8,0:0:0:0:
27,167,60911,2,0,P|23:202|30:236,1,65,2|0,0:0|0:0,0:0:0:0:
76,292,61768,1,8,0:0:0:0:
144,328,62196,2,0,L|221:332,1,65,0|2,0:0|0:0,0:0:0:0:
256,268,63053,1,0,0:0:0:0:
304,332,63482,2,0,L|368:328,1,65,8|0,0:0|0:0,0:0:0:0:
397,255,64339,6,0,P|369:203|393:135,1,130,0|8,0:0|0:0,0:0:0:0:
323,96,65625,1,0,0:0:0:0:
256,138,66054,2,0,L|256:272,1,130,0|8,0:0|0:0,0:0:0:0:
186,302,67339,1,0,0:0:0:0:
121,258,67768,2,0,P|149:206|125:138,1,130,2|8,0:0|0:0,0:0:0:0:
155,68,69054,1,0,0:0:0:0:
232,60,69482,2,0,L|370:54,1,130,2|8,0:0|0:0,0:0:0:0:
489,144,71196,6,0,P|468:171|432:186,1,65,0|0,0:0|0:0,0:0:0:0:
365,204,72054,2,0,L|235:209,1,130,8|0,0:0|0:0,0:0:0:0:
162,181,73339,1,2,0:0:0:0:
88,207,73768,1,8,0:0:0:0:
155,347,74625,2,0,L|284:341,1,130,2|8,0:0|0:0,0:0:0:0:
345,292,75911,1,0,0:0:0:0:
421,306,76339,2,0,P|455:286|458:193,1,130,0|8,0:0|0:0,0:0:0:0:
332,119,78054,5,0,0:0:0:0:
332,119,78911,1,8,0:0:0:0:
264,158,79339,2,0,L|192:162,1,65,2|0,0:0|0:0,0:0:0:0:
129,127,80196,1,2,0:0:0:0:
173,63,80625,2,0,L|237:59,1,65,8|0,0:0|0:0,0:0:0:0:
311,34,81482,2,0,P|372:32|417:91,1,130,2|8,0:0|0:0,0:0:0:0:
384,152,82768,1,0,0:0:0:0:
420,220,83196,2,0,P|379:267|316:266,1,130,0|8,0:0|0:0,0:0:0:0:
256,216,84482,1,8,0:0:0:0:
192,170,84911,6,0,L|119:173,1,65,4|2,0:0|0:0,0:0:0:0:
49,175,85768,1,8,0:0:0:0:
9,325,86625,2,0,L|138:321,1,130,2|8,0:0|0:0,0:0:0:0:
292,345,88339,2,0,L|356:342,1,65,2|2,0:0|0:0,0:0:0:0:
435,340,89196,1,8,0:0:0:0:
474,188,90054,2,0,L|335:192,1,130,2|8,0:0|0:0,0:0:0:0:
267,205,91339,1,0,0:0:0:0:
188,188,91768,6,0,P|161:163|151:129,1,65,2|2,0:0|0:0,0:0:0:0:
156,59,92625,1,8,0:0:0:0:
306,20,93482,2,0,P|353:25|389:61,2,97.5,2|2|0,0:0|0:0|0:0,0:0:0:0:
322,96,95196,2,0,L|310:231,1,130,2|8,0:0|0:0,0:0:0:0:
448,298,96911,2,0,L|459:168,1,130,2|8,0:0|0:0,0:0:0:0:
340,67,98625,6,0,P|307:54|271:51,1,65,2|2,0:0|0:0,0:0:0:0:
199,57,99482,1,8,0:0:0:0:
65,137,100339,2,0,P|46:201|78:262,1,130,2|8,0:0|0:0,0:0:0:0:
215,197,102053,2,0,L|279:199,1,65,2|2,0:0|0:0,0:0:0:0:
340,248,102911,1,8,0:0:0:0:
490,206,103768,2,0,L|476:72,1,130,2|8,0:0|0:0,0:0:0:0:
401,54,105053,1,0,0:0:0:0:
343,106,105482,6,0,L|356:235,1,130,2|8,0:0|0:0,0:0:0:0:
222,315,107196,2,0,P|177:332|129:319,2,97.5,2|2|0,0:0|0:0|0:0,0:0:0:0:
173,253,108911,2,0,L|164:108,1,130,2|8,0:0|0:0,0:0:0:0:
297,41,110625,2,0,L|304:170,1,130,2|8,0:0|0:0,0:0:0:0:
395,297,112339,6,0,P|423:285|447:245,1,65,4|0,0:0|0:0,0:0:0:0:
464,182,113196,1,8,0:0:0:0:
419,32,114053,2,0,P|359:16|295:40,1,130,2|8,0:0|0:0,0:0:0:0:
230,79,115339,1,0,0:0:0:0:
195,149,115768,2,0,L|183:289,1,130,2|8,0:0|0:0,0:0:0:0:
52,194,117482,2,0,L|63:64,1,130,2|8,0:0|0:0,0:0:0:0:
218,47,119196,6,0,P|250:59|290:59,1,65,2|2,0:0|0:0,0:0:0:0:
355,38,120053,1,8,0:0:0:0:
460,152,120911,2,0,P|474:193|452:252,2,97.5,2|2|0,0:0|0:0|0:0,0:0:0:0:
395,196,122625,2,0,L|262:189,1,130,2|8,0:0|0:0,0:0:0:0:
159,303,124339,2,0,L|288:309,1,130,2|8,0:0|0:0,0:0:0:0:
364,288,125625,1,0,0:0:0:0:
424,241,126053,6,0,P|450:209|425:127,1,130,2|8,0:0|0:0,0:0:0:0:
279,83,127768,2,0,L|148:80,1,130,2|8,0:0|0:0,0:0:0:0:
87,127,129053,1,0,0:0:0:0:
77,204,129482,2,0,P|91:237|120:262,1,65,2|2,0:0|0:0,0:0:0:0:
179,296,130339,1,8,0:0:0:0:
330,332,131196,2,0,P|376:345|431:323,2,97.5,2|2|0,0:0|0:0|0:0,0:0:0:0:
374,267,132911,6,0,L|372:131,1,130,2|8,0:0|0:0,0:0:0:0:
234,210,134625,2,0,L|162:213,1,65,2|2,0:0|0:0,0:0:0:0:
143,138,135482,2,0,L|207:135,1,65,8|0,0:0|0:0,0:0:0:0:
285,127,136339,2,0,P|311:136|350:235,1,130,2|8,0:0|0:0,0:0:0:0:
224,311,138054,2,0,P|170:277|155:215,1,130,2|8,0:0|0:0,0:0:0:0:
191,146,139339,1,8,0:0:0:0:
256,103,139768,6,0,L|400:100,2,130,4|8|0,0:0|0:0|0:0,0:0:0:0:
127,191,142339,1,8,0:0:0:0:
249,288,143196,2,0,L|393:285,2,130,0|8|0,0:0|0:0|0:0,0:0:0:0:
127,191,145768,1,8,0:0:0:0:
256,192,146625,12,4,150054,0:0:0:0:
