osu file format v5

[General]
AudioFilename: Seikan Hikou.mp3
AudioLeadIn: 0
PreviewTime: -1
Countdown: 1
SampleSet: Normal
StackLeniency: 0.7
Mode: 0
LetterboxInBreaks: 1
EditorBookmarks: 17677,81342,95998,180731

[Metadata]
Title:Seikan Hikou
Artist:May Nakabayashi
Creator:Al-Azif
Version:Normal
Source:
Tags:Macross F

[Difficulty]
HPDrainRate:4
CircleSize:4
OverallDifficulty:5
SliderMultiplier:1.6
SliderTickRate:2

[Events]
//Background and Video events
0,0,"bg.jpg"
//Break Periods
2,81542,94798
//Storyboard Layer 0 (Background)
//Storyboard Layer 1 (Failing)
//Storyboard Layer 2 (Passing)
//Storyboard Layer 3 (Foreground)
//Storyboard Sound Samples
//Background Colour Transformations
3,100,163,162,255

[TimingPoints]
19052,458.015267175572,4,1,0,87,1

[Colours]
Combo1 : 233,90,201
Combo2 : 123,160,238
Combo3 : 128,255,255
Combo4 : 255,255,128
Combo5 : 134,134,255

[HitObjects]
64,64,19052,1,0
223,63,19510,1,0
382,62,19968,1,0
159,292,20884,6,0,B|243:351|339:338|375:214,1,240
391,178,21800,1,8
151,168,22487,5,0
187,96,22716,2,2,B|244:19|355:42,2,160,2|2|2
131,246,24090,1,0
200,284,24319,1,0
278,299,24548,2,0,B|361:314|408:284|449:209|429:141,1,240,0|8
403,91,25464,1,8
115,48,26380,6,0,B|58:97|52:161|108:224,2,160,8|8|8
266,57,27754,2,0,B|330:121,1,80,2|2
382,166,28212,1,8
323,220,28441,1,8
260,269,28670,2,0,B|183:194,1,80,2|2
122,213,29128,1,8
298,50,29815,6,0,B|369:50|433:94|445:164|427:221,1,240,0|0
384,275,30731,1,8
315,234,30960,1,0
262,294,31189,1,8
194,250,31418,1,8
49,197,33708,5,8
105,140,33937,1,0
161,196,34166,1,0
219,141,34395,1,8
278,194,34624,1,8
438,54,35540,6,0,B|320:42|325:172|247:186,1,240,0|8
174,203,36456,1,8
69,95,37143,6,0,B|114:43|165:65,1,80,0|2
270,147,37830,2,2,B|248:198|191:244|113:232,1,160,2|2
282,315,38746,1,8
355,283,38975,1,8
410,225,39204,2,2,B|462:172|469:106|384:42|327:55,1,240
260,48,40120,1,2
99,192,41036,5,0
258,191,41494,1,8
417,193,41952,1,0
402,33,42410,6,2,B|295:74,1,80,10|2
253,91,42868,1,0
278,166,43097,2,0,B|170:213,1,80,2|10
130,228,43555,1,10
130,228,43784,1,10
344,336,44471,6,0,B|290:337|267:261,1,80,0|0
341,242,44929,2,0,B|328:192|252:175,1,80,0|0
210,208,45387,2,0,B|159:197|151:137,1,80,0|0
207,95,45845,2,0,B|205:54|131:31,1,80,0|0
286,52,47677,6,0,B|190:52,1,80
169,123,48135,2,0,B|265:123,1,80,2|2
162,257,48822,1,8
322,260,49281,6,0,B|418:260,1,80
364,189,49739,2,0,B|268:189,1,80,8|8
139,121,50426,5,2
139,121,50884,6,2,B|81:207|169:275,1,160,2|10
300,330,51800,6,0,B|360:323|375:258,1,80,0|0
410,222,52258,2,0,B|405:163|321:159,1,80,0|8
293,207,52716,2,0,B|234:201|233:131,1,80,0|0
273,87,53174,2,0,B|287:31|354:26,1,80,0|8
400,59,53632,1,8
441,177,54777,5,2
387,236,55006,1,2
236,291,55464,2,2,B|170:334|144:340|159:228|106:259|70:303|45:269|47:216,1,240
118,79,56609,1,0
186,120,56838,2,2,B|287:180,1,80,2|8
323,202,57296,1,0
451,106,57754,5,8
383,62,57983,1,0
303,71,58212,1,0
272,145,58441,1,8
220,296,58899,6,2,B|143:336|26:271|102:147,1,240,2|0
117,101,59815,1,8
189,67,60044,1,8
260,103,60273,1,8
283,179,60502,2,2,B|296:246|371:237,1,80,2|0
411,223,60960,2,2,B|473:183|459:113|421:73,1,160,2|0
256,192,61647,12,4,62563
466,174,63021,6,0,B|401:253,1,80,0|0
348,280,63479,1,8
269,264,63708,1,8
235,191,63937,1,8
174,42,64395,5,0
174,42,64853,6,0,B|113:33|52:61|67:164,1,160,0|0
65,206,65540,2,8,B|69:267,2,40,8|8|8
215,260,66227,6,2,B|275:294|347:285|385:229,1,160,10|2
365,91,67143,2,2,B|305:47|233:56|194:116,1,160,10|2
91,188,68059,2,8,B|280:188,1,160
330,190,68746,2,8,B|426:190,2,80
446,64,70349,6,0,B|342:64,1,80,8|0
351,142,70807,2,0,B|250:141,1,80
224,206,71265,1,0
64,207,71723,5,2
64,207,72181,6,2,B|78:146|137:118|223:128,1,160
266,125,72868,2,0,B|340:126,2,40,8|8|8
163,247,73555,6,0,B|165:350,1,80
244,326,74013,1,0
323,325,74242,2,0,B|322:212,1,80,0|8
332,85,74929,6,0,B|294:33|230:45,1,80,0|0
186,46,75387,1,8
202,205,75845,6,0,B|151:230|99:171,1,80,0|0
57,156,76303,1,8
242,308,76990,5,0
318,283,77219,1,0
383,237,77448,2,8,B|441:184|427:117|367:69,1,160
330,44,78135,1,8
170,44,78593,1,0
101,84,78822,1,0
72,158,79051,2,0,B|53:215|75:278|129:298,1,160
256,192,80197,12,0,81342
256,192,95998,12,0,97372
431,294,98059,1,8
382,241,98288,2,0,B|301:122|178:184|114:49,1,320,8|8
58,212,99662,6,0,B|122:212|144:161,1,80
179,120,100120,2,0,B|243:120|270:181,1,80,8|8
288,224,101494,2,0,B|311:279|386:274,1,80
416,294,101952,2,0,B|480:262|483:214,1,80,8|8
447,127,103326,2,0,B|424:67|363:65,1,80
324,53,103784,2,0,B|270:53|242:105,1,80,8|8
256,224,105158,2,0,B|197:287|160:256,1,80
120,285,105616,2,0,B|50:257|50:201,1,80,8|8
64,320,106990,6,0,B|129:191|391:318|288:65|480:32,1,480
352,192,109281,5,2
272,190,109510,1,2
192,190,109739,2,2,B|117:160|75:248|9:162,1,160
149,75,110655,6,0,B|350:75,1,160,0|0
451,147,111571,1,2
227,233,112258,2,0,B|35:233,1,160,0|0
198,142,113174,1,2
277,146,113403,1,2
49,65,114319,6,0,B|95:36|162:74,1,80,0|0
164,128,114777,2,0,B|206:164|266:122,1,80,0|0
280,69,115235,1,2
464,284,116151,6,0,B|401:345|333:190|233:272,1,240,0|8
164,281,117067,1,8
76,59,117754,5,2
155,58,117983,1,2
314,60,118441,2,0,B|388:47|443:101|431:162,1,160,0|8
377,288,119357,1,2
297,290,119586,1,2
217,293,119815,2,2,B|162:301|115:294|70:213,1,160
79,151,120502,1,8
79,151,120731,1,8
293,66,121647,6,2,B|366:92|373:3|464:100,2,160,2|10|2
141,117,123021,6,0,B|132:194|176:217,1,80,8|0
199,258,123479,2,2,B|250:302|324:206|365:294,2,160,2|10|2
50,276,125082,6,0,B|52:214|124:195,1,80
168,207,125540,2,0,B|230:205|234:130,1,80,8|0
217,84,125998,2,0,B|246:20|304:49,1,80,0|0
431,83,126685,1,8
447,161,126914,2,2,B|451:229|394:277|331:256,2,160
326,56,128288,5,0
256,95,128517,1,0
258,174,128746,1,0
188,214,128975,1,0
45,286,129433,1,8
39,126,129891,6,0,B|49:72|126:65,1,80,0|0
134,139,130349,2,0,B|182:141|221:84,1,80,8|0
289,241,131036,2,2,B|254:291|209:315|143:292,2,160
237,89,132410,6,2,B|335:35|344:214|448:194,1,240,2|10
327,314,133555,2,0,B|287:330|217:309,1,80,2|2
168,310,134013,2,0,B|118:311|91:236,1,80,10|10
70,111,134700,5,0
125,53,134929,1,0
204,46,135158,1,0
273,85,135387,5,8
320,149,135616,1,8
167,198,136074,2,0,B|167:289|208:319|298:339|343:284,1,240,0|8
409,159,137219,2,0,B|410:63,2,80,2|2|8
329,157,137906,1,0
200,61,138364,6,0,B|122:75|134:140,1,80,0|8
135,182,138822,2,0,B|140:225|228:241,1,80,0|0
333,157,139510,6,2,B|412:229|369:341|246:299,1,240,10|2
191,276,140426,1,8
131,222,140655,1,0
141,142,140884,1,0
203,91,141113,1,0
282,91,141342,1,8
332,152,141571,2,0,B|363:201|301:256,1,80
256,192,142029,12,8,143174
332,73,143632,2,0,B|396:137,1,80,2|2
393,209,144090,2,0,B|329:273,2,80,10|10|10
240,162,145006,6,0,B|189:147|130:171,1,80
81,169,145464,2,2,B|15:180|9:267|100:271,1,160,2|2
167,273,146151,2,0,B|228:274,2,40,8|8|8
184,113,146838,6,2,B|248:71|361:99,1,160,10|2
449,209,147754,2,2,B|409:280|299:266,1,160,10|2
230,263,148441,1,0
151,247,148670,2,2,B|52:195|116:92,1,160,10|2
150,49,149357,5,8
150,49,149586,1,8
150,49,149815,1,8
439,147,150960,6,0,B|439:258,1,80
367,263,151418,2,0,B|367:174,1,80,8|0
293,150,151876,2,0,B|294:258|294:226,1,80
228,276,152334,6,0,B|130:254|71:180|145:42|245:69,1,320,8|8
303,65,153479,2,8,B|357:64,2,40
403,189,154166,6,0,B|283:190,1,80,8|0
243,190,154624,1,2
163,190,154853,2,0,B|66:189,1,80,0|8
166,325,155540,6,0,B|220:308|249:243,1,80,2|2
277,214,155998,1,8
123,168,156456,2,0,B|131:107|184:84,1,80,2|2
218,45,156914,1,8
434,149,157601,5,0
414,226,157830,1,0
360,285,158059,2,2,B|330:314|271:311|188:303,1,160
125,297,158746,1,8
58,151,159204,1,2
125,107,159433,1,2
185,158,159662,1,2
292,276,160120,1,8
434,82,160807,6,0,B|334:81,1,80
320,153,161265,2,0,B|424:154,1,80
273,251,161952,6,2,B|81:251,2,160,10|10|10
409,167,163326,5,8
317,35,163784,1,8
172,103,164242,1,8
256,238,164700,1,8
135,343,165158,6,2,B|49:343,1,80,2|0
55,263,165616,1,8
53,103,166074,2,2,B|252:103,1,160,2|10
372,99,166990,2,10,B|467:120|469:189|408:225,1,160
377,270,167677,6,2,B|287:270,2,80,6|2|2
55,152,169281,5,0
110,209,169510,1,0
169,155,169739,1,0
226,211,169968,1,0
284,156,170197,1,0
443,161,170655,6,2,B|468:210|433:313|193:279,1,320,2|2
126,269,171800,6,8,B|79:269,2,40
93,116,172487,6,0,B|150:29|149:29,1,80,8|0
216,47,172945,1,0
295,48,173174,2,0,B|351:127,1,80,0|8
257,249,173861,2,0,B|138:248,2,80,2|2|8
416,262,174777,1,2
450,189,175006,1,2
431,111,175235,2,2,B|417:48|339:22|286:98,1,160
234,108,175922,5,0
234,108,176151,1,8
234,108,176380,1,0
104,310,177067,6,0,B|171:339|249:331|279:276,1,160,8|0
325,262,177754,1,0
375,200,177983,2,0,B|389:117|296:57,1,160,8|0
71,109,179128,1,0
109,179,179357,1,0
188,182,179586,1,0
224,252,179815,1,0
376,204,180273,5,12
256,192,180731,12,4,183479
