osu file format v5

[General]
AudioFilename: Maximum the Hormone - Zetsubou Billy.MP3
AudioLeadIn: 0
PreviewTime: -1
Countdown: 1
SampleSet: Normal
StackLeniency: 0.7
Mode: 0
LetterboxInBreaks: 1

[Metadata]
Title:Zetsubou Billy
Artist:Maximum the Hormone
Creator:Ayasato-chan
Version:Normal
Source:
Tags:Death Note

[Difficulty]
HPDrainRate:7
CircleSize:7
OverallDifficulty:5
SliderMultiplier:1.4
SliderTickRate:1

[Events]
//Background and Video events
0,0,"f_DeathNote11m_71e11fa.jpg"
//Break Periods
2,62939,70939
2,124670,134689
2,181786,186180
//Storyboard Layer 0 (Background)
//Storyboard Layer 1 (Failing)
//Storyboard Layer 2 (Passing)
//Storyboard Layer 3 (Foreground)
//Storyboard Sound Samples
//Background Colour Transformations
3,100,163,162,255

[TimingPoints]
0,576.923076923077,4,1,0,100,1

[HitObjects]
92,76,15865,5,0
92,98,16298,1,0
92,98,16586,1,0
119,76,16875,1,0
119,76,17163,1,0
164,100,18750,5,0
165,136,19038,1,0
192,109,19471,1,0
208,128,19759,1,0
208,128,19903,1,0
413,216,21346,5,0
413,189,21778,1,0
443,200,22067,1,0
441,172,22355,1,0
441,172,22788,1,0
440,151,22932,1,0
440,129,23221,1,0
440,103,23653,1,0
440,103,23942,1,0
440,78,24375,1,0
440,78,24663,1,0
440,78,24807,1,0
314,135,25384,5,0
262,159,25817,1,0
256,124,26394,1,0
288,139,26682,1,0
288,139,26971,1,0
288,139,27115,1,0
288,139,27403,1,0
6,190,28125,2,0,B|462:190,4,420
66,188,35769,2,0,B|90:156|105:147|118:144,12,35
94,132,38653,1,0
145,128,38942,1,0
170,114,39230,1,0
176,96,39519,1,0
176,96,39663,1,0
392,134,41682,5,0
388,163,42259,1,0
361,125,42548,1,0
363,86,42836,1,0
388,85,43557,1,0
398,112,43990,1,0
379,115,44423,1,0
129,222,45721,5,0
135,188,46298,1,0
175,166,47163,5,0
183,132,47596,1,0
201,156,48317,1,0
391,212,49038,1,0
399,179,49615,1,0
376,184,50336,1,0
378,156,50913,1,0
77,172,52500,5,0
121,172,52932,1,0
109,127,53653,1,0
72,198,54375,2,0,B|128:198,13,35
66,141,57259,1,0
105,134,57692,1,0
247,105,58846,5,0
247,105,59134,1,0
278,127,59423,1,0
278,127,59567,1,0
278,127,59711,1,0
278,127,59855,1,0
351,124,60432,1,0
344,100,61730,5,0
247,154,62740,1,0
103,91,72115,5,0
95,121,72548,1,0
126,92,72836,1,0
126,119,73269,1,0
126,119,73557,1,0
126,119,73846,1,0
27,193,74855,2,0,B|212:192,3,175
116,144,77884,1,0
189,129,78317,1,0
208,84,79038,1,0
236,102,79615,1,0
392,118,81490,5,0
392,189,81778,1,0
392,118,82067,1,0
392,167,82355,1,0
392,167,82644,1,0
392,143,83076,1,0
392,143,83365,1,0
392,143,83509,1,0
392,143,83653,1,0
392,143,83942,1,0
343,143,84230,1,0
344,105,84663,1,0
370,128,85384,1,0
380,107,85961,1,0
380,107,86250,1,0
380,107,86394,1,0
380,107,86538,1,0
356,112,86971,1,0
141,148,88557,5,0
144,117,88990,1,0
172,141,89567,1,0
159,105,89855,1,0
159,105,90288,1,0
190,93,90576,1,0
190,93,91009,1,0
193,129,91298,1,0
148,129,92019,1,0
148,129,92163,1,0
148,129,92451,1,0
150,93,92740,1,0
231,136,93461,5,0
243,168,94182,1,0
313,168,95048,1,0
313,168,95192,1,0
313,168,95336,1,0
313,168,95480,1,0
313,143,95913,1,0
342,139,96490,1,0
346,171,97355,1,0
268,147,97932,1,0
182,105,98509,5,0
142,132,99230,1,0
147,97,99807,1,0
97,122,100096,1,0
32,128,100673,1,0
63,182,101826,2,0,B|102:183,8,35
5,156,103990,2,0,B|64:156|-31:162,6,70
66,138,106298,1,0
249,136,107163,1,0
344,177,108605,5,0
355,156,109182,1,0
366,179,109903,1,0
398,148,110625,1,0
394,110,111201,1,0
366,126,111923,1,0
370,98,112500,1,0
200,120,113942,5,0
207,146,114663,1,0
226,120,115384,1,0
226,120,115528,1,0
226,120,115817,1,0
226,120,115961,1,0
226,120,116105,1,0
226,120,116250,1,0
226,120,116538,1,0
226,120,116682,1,0
226,120,116971,1,0
226,120,117115,1,0
226,120,117403,1,0
226,120,117548,1,0
35,176,119567,6,0,B|256:178,5,210
133,90,136298,5,0
124,124,136442,1,0
146,112,136875,1,0
146,112,137019,1,0
146,112,137307,1,0
200,113,137740,1,0
260,173,139038,5,0
272,144,139326,1,0
289,176,139615,1,0
309,132,140048,1,0
34,183,141634,2,0,B|190:183,3,140
292,184,144663,2,0,B|462:182,3,140
124,151,147836,1,0
153,134,148413,1,0
163,161,148990,1,0
336,155,149711,5,0
341,124,150576,1,0
360,152,151298,1,0
380,122,151730,1,0
79,97,152596,1,0
76,176,153317,1,0
122,145,154038,1,0
128,100,154471,1,0
73,116,155192,1,0
52,182,156634,2,0,B|110:184,7,35
188,190,158076,2,0,B|251:183,6,35
350,190,159230,2,0,B|420:188,7,35
326,147,160673,2,0,B|370:142,6,35
66,142,162548,1,0
66,142,162692,1,0
140,142,163413,1,0
140,142,163701,1,0
247,142,164711,1,0
247,142,165000,1,0
384,143,165865,1,0
384,143,166298,1,0
169,169,167307,1,0
172,129,167596,1,0
194,155,167884,1,0
268,135,168605,5,0
274,87,168894,1,0
308,110,169182,1,0
302,165,169903,1,0
264,136,170192,1,0
284,108,170480,1,0
355,144,171057,1,0
387,112,171490,1,0
387,112,171778,1,0
177,123,172500,5,0
152,141,172788,1,0
151,108,173076,1,0
192,146,173653,1,0
164,165,173942,1,0
164,165,174230,1,0
243,123,174951,5,0
272,96,175240,1,0
277,120,175528,1,0
204,136,176105,1,0
144,152,176394,1,0
116,190,177115,2,0,B|299:192,6,175
120,110,187644,1,0
115,141,188221,1,0
138,124,188798,1,0
253,124,189663,5,0
240,140,190240,1,0
253,124,190817,1,0
264,144,191538,1,0
187,145,192836,1,0
197,165,193125,1,0
197,165,193413,1,0
197,165,193557,1,0
218,146,193701,1,0
218,146,193990,1,0
218,146,194134,1,0
218,146,194278,1,0
316,103,195000,5,0
288,84,195576,1,0
294,126,196153,1,0
376,121,196875,1,0
68,97,198173,1,0
64,143,198605,1,0
81,116,199038,1,0
81,116,199182,1,0
149,112,199471,1,0
145,72,199903,1,0
343,123,200769,5,0
341,165,201201,1,0
376,143,201634,1,0
376,143,201778,1,0
387,103,202211,1,0
256,140,203509,5,0
253,168,203942,1,0
256,140,204375,1,0
256,140,204519,1,0
210,134,204807,1,0
242,97,205096,1,0
258,210,206105,5,0
272,170,206538,1,0
240,175,206971,1,0
214,211,207403,1,0
281,192,208269,5,0
140,207,208846,1,0
24,205,209423,1,0
52,203,210144,2,0,B|320:200,1,245
73,158,212740,1,0
132,134,213173,1,0
132,134,213461,1,0
132,134,213605,1,0
48,228,214038,1,0
256,192,214759,12,0,217932
