osu file format v5

[General]
AudioFilename: Maximum the Hormone - Zetsubou Billy.MP3
AudioLeadIn: 0
PreviewTime: -1
Countdown: 1
SampleSet: Normal
StackLeniency: 0.7
Mode: 0
LetterboxInBreaks: 1

[Metadata]
Title:Zetsubou Billy
Artist:Maximum the Hormone
Creator:Ayasato-chan
Version:Hard
Source:
Tags:Death Note

[Difficulty]
HPDrainRate:7
CircleSize:7
OverallDifficulty:7
SliderMultiplier:1.4
SliderTickRate:1

[Events]
//Background and Video events
0,0,"f_DeathNote11m_71e11fa.jpg"
//Break Periods
2,62939,70939
2,124670,134689
2,181786,186180
//Storyboard Layer 0 (Background)
//Storyboard Layer 1 (Failing)
//Storyboard Layer 2 (Passing)
//Storyboard Layer 3 (Foreground)
//Storyboard Sound Samples
//Background Colour Transformations
3,100,163,162,255

[TimingPoints]
0,576.923076923077,4,1,0,100,1

[HitObjects]
124,131,15937,1,0
124,152,16225,1,0
124,152,16442,1,0
124,152,16875,1,0
124,152,17163,1,0
237,190,18822,5,0
245,168,19110,1,0
263,204,19471,1,0
263,204,19831,1,0
263,204,19975,1,0
331,131,21418,5,0
332,156,21706,1,0
331,131,22067,1,0
331,131,22355,1,0
328,104,22716,1,0
305,109,23004,1,0
305,109,23365,1,0
264,133,23942,1,0
277,105,24302,1,0
277,105,24591,1,0
176,142,25240,5,0
176,142,25456,1,0
176,142,25600,1,0
176,142,25745,1,0
183,191,26322,1,0
204,168,26682,1,0
204,168,26971,1,0
204,168,27115,1,0
204,168,27331,1,0
251,168,27836,5,0
269,119,28197,1,0
284,147,28485,1,0
329,192,28990,1,0
361,150,29350,1,0
368,112,29711,1,0
368,112,29855,1,0
368,112,30072,1,0
289,112,30576,5,0
238,161,31009,1,0
240,108,31586,1,0
241,79,31947,1,0
197,93,32379,1,0
164,175,33317,5,0
165,149,33677,1,0
192,164,33966,1,0
201,133,34326,1,0
201,133,34687,1,0
201,133,34975,1,0
268,145,35625,5,0
292,107,35913,1,0
293,129,36274,1,0
293,129,36418,1,0
342,176,37211,5,0
307,193,37932,1,0
303,132,38653,5,0
303,132,38870,1,0
264,135,39302,1,0
264,135,39519,1,0
228,96,40312,1,0
191,108,41033,1,0
159,162,41682,5,0
194,192,42187,1,0
152,208,42548,1,0
155,172,42836,1,0
120,170,43557,1,0
136,147,43846,1,0
166,176,44423,1,0
89,228,45793,5,0
88,191,46298,1,0
256,192,47091,12,0,48389
77,177,49254,5,0
146,159,49687,1,0
180,214,50264,1,0
219,159,50985,1,0
357,244,52500,5,0
364,208,52932,1,0
387,245,53653,1,0
395,126,54375,1,0
370,153,54951,1,0
375,115,55673,1,0
319,147,56250,1,0
226,216,57115,5,0
228,177,57692,1,0
260,205,58341,1,0
284,156,59134,1,0
284,156,59350,1,0
284,156,59495,1,0
284,156,59711,1,0
284,156,59855,1,0
236,158,60576,5,0
152,142,72115,5,0
146,183,72475,1,0
168,152,72836,1,0
168,152,73197,1,0
168,152,73485,1,0
227,155,73846,1,0
356,193,74783,5,0
354,152,75144,1,0
390,175,75793,1,0
390,136,76442,1,0
266,192,77307,5,0
275,154,77668,1,0
233,189,77956,1,0
232,149,78317,1,0
176,149,78605,1,0
116,191,78966,1,0
39,232,79615,1,0
11,252,79975,1,0
256,192,80913,12,0,82716
93,156,83437,5,0
128,115,83798,1,0
254,123,85384,5,0
195,182,86033,1,0
199,137,86394,1,0
268,164,86971,5,0
280,118,87331,1,0
298,159,87836,1,0
318,120,88557,1,0
350,161,88918,1,0
382,121,89495,1,0
350,115,89855,1,0
290,149,90576,1,0
288,116,91298,1,0
219,184,91947,5,0
220,151,92235,1,0
220,151,92524,1,0
191,161,92668,1,0
191,161,92884,1,0
189,129,93389,1,0
216,101,94182,1,0
303,224,94975,5,0
325,199,95625,1,0
340,184,95841,1,0
357,158,96418,1,0
353,125,97283,1,0
234,202,98004,5,0
232,172,98509,1,0
261,191,98798,1,0
268,160,99158,1,0
293,121,99807,1,0
330,151,100168,1,0
349,110,100673,1,0
286,220,101971,5,0
295,181,102548,1,0
258,208,102980,1,0
204,171,103413,5,0
223,124,103918,1,0
235,161,104567,1,0
321,173,105360,5,0
325,131,105937,1,0
346,173,106586,1,0
354,136,107235,1,0
171,238,108750,5,0
173,188,109182,1,0
199,220,109831,1,0
212,180,110697,1,0
240,157,111201,1,0
264,189,111850,1,0
309,219,112500,1,0
456,122,113365,5,0
406,143,113942,1,0
383,97,114591,1,0
319,144,115384,1,0
319,144,115456,1,0
319,144,115673,1,0
319,144,115817,1,0
319,144,116033,1,0
319,144,116177,1,0
319,144,116322,1,0
319,144,116466,1,0
319,144,116610,1,0
319,144,116826,1,0
319,144,116971,1,0
319,144,117187,1,0
319,144,117331,1,0
256,192,118846,12,0,121009
76,169,122307,5,0
120,175,122884,1,0
120,175,123245,1,0
120,175,123461,1,0
159,66,136081,5,0
135,109,136442,1,0
182,102,136730,1,0
182,102,136947,1,0
182,102,137091,1,0
230,68,137524,1,0
232,168,138966,5,0
232,168,139326,1,0
245,192,139687,1,0
261,205,140048,1,0
306,156,140336,1,0
336,52,142139,5,0
323,95,142572,1,0
323,95,142716,1,0
376,112,143076,1,0
320,148,143365,1,0
136,232,145024,5,0
136,204,145312,1,0
170,228,145673,1,0
170,228,145961,1,0
196,167,146610,1,0
237,195,147043,1,0
268,136,147692,1,0
292,191,148485,1,0
321,153,148990,1,0
245,131,149350,1,0
220,172,149855,1,0
112,166,150504,5,0
128,128,150937,1,0
148,172,151225,1,0
114,222,151586,1,0
114,222,151802,1,0
170,228,152163,1,0
187,184,152596,1,0
232,224,153028,1,0
337,237,153677,5,0
362,188,154038,1,0
372,246,154615,1,0
363,120,155408,1,0
296,152,155841,1,0
296,152,156201,1,0
286,136,156562,1,0
286,136,156706,1,0
165,170,157283,1,0
165,170,157500,1,0
165,170,157644,1,0
159,214,158076,1,0
197,207,158437,1,0
197,207,158581,1,0
290,172,159230,5,0
290,172,159519,1,0
293,116,159735,1,0
338,173,160384,1,0
338,173,160528,1,0
355,145,160961,1,0
383,103,161610,1,0
269,210,162259,5,0
261,154,162620,1,0
221,204,162908,1,0
221,204,163052,1,0
212,140,163413,1,0
175,188,163846,1,0
151,132,164134,1,0
151,132,164350,1,0
195,82,164711,1,0
361,155,165432,5,0
361,155,165649,1,0
315,218,165937,1,0
323,156,166298,1,0
355,208,166658,1,0
274,203,167307,1,0
188,202,167596,1,0
144,202,167956,1,0
256,192,169110,12,0,171634
60,122,172427,5,0
89,180,172716,1,0
123,111,173004,1,0
142,156,173653,1,0
189,118,173942,1,0
168,187,174302,1,0
117,216,174879,1,0
128,172,175240,1,0
194,203,175528,1,0
207,144,176177,1,0
228,169,176466,1,0
228,169,176754,1,0
249,162,177548,5,0
262,140,177980,1,0
293,133,178557,1,0
222,185,179206,1,0
220,114,179639,1,0
184,124,180072,1,0
174,154,180432,1,0
215,160,181081,1,0
246,106,181586,1,0
174,50,187572,5,0
158,89,188149,1,0
196,72,188798,1,0
188,114,189591,1,0
159,144,190240,1,0
191,158,190817,1,0
227,127,191466,1,0
347,196,193052,5,0
361,148,193341,1,0
318,192,193557,1,0
330,145,193918,1,0
267,187,194350,1,0
290,132,194711,1,0
236,152,195000,1,0
269,98,195360,1,0
214,120,195649,1,0
241,68,196009,1,0
170,103,196370,1,0
195,63,196658,1,0
172,80,196947,1,0
227,200,198173,5,0
228,158,198605,1,0
263,164,198966,1,0
263,164,199182,1,0
264,115,199471,1,0
298,125,199759,1,0
400,205,200841,5,0
376,167,201274,1,0
339,201,201634,1,0
336,147,201850,1,0
336,147,201995,1,0
309,141,202283,1,0
174,220,203437,5,0
175,184,203942,1,0
205,193,204302,1,0
206,152,204807,1,0
206,152,204951,1,0
246,100,205456,1,0
316,178,206177,5,0
292,208,206682,1,0
303,158,207043,1,0
303,158,207187,1,0
277,135,207475,1,0
194,181,208269,5,0
122,204,208846,1,0
117,140,209495,1,0
123,182,210144,1,0
256,192,211153,12,0,213750
