osu file format v5

[General]
AudioFilename: Maximum the Hormone - Zetsubou Billy.MP3
AudioLeadIn: 0
PreviewTime: -1
Countdown: 1
SampleSet: Normal
StackLeniency: 0.7
Mode: 0
LetterboxInBreaks: 1

[Metadata]
Title:Zetsubou Billy
Artist:Maximum the Hormone
Creator:Ayasato-chan
Version:Easy
Source:
Tags:Death Note

[Difficulty]
HPDrainRate:7
CircleSize:6
OverallDifficulty:4
SliderMultiplier:1.4
SliderTickRate:1

[Events]
//Background and Video events
0,0,"f_DeathNote11m_71e11fa.jpg"
//Break Periods
2,62939,70939
2,124670,134689
2,181786,186180
//Storyboard Layer 0 (Background)
//Storyboard Layer 1 (Failing)
//Storyboard Layer 2 (Passing)
//Storyboard Layer 3 (Foreground)
//Storyboard Sound Samples
//Background Colour Transformations
3,100,163,162,255

[TimingPoints]
0,576.923076923077,4,1,0,100,1

[HitObjects]
127,92,16298,1,0
127,92,16586,1,0
127,92,16875,1,0
127,92,17163,1,0
350,112,18894,1,0
329,137,19182,1,0
358,139,19471,1,0
350,112,19903,1,0
163,131,21490,5,0
156,163,21778,1,0
204,160,22067,1,0
241,117,22355,1,0
263,154,22644,1,0
229,189,22932,1,0
188,212,23365,1,0
157,179,23942,1,0
177,131,24230,1,0
212,160,24519,1,0
251,164,24951,1,0
400,151,25528,5,0
391,110,25817,1,0
374,144,26394,1,0
334,118,27115,1,0
119,186,27836,5,0
158,170,28125,1,0
148,221,28413,1,0
133,140,28990,1,0
186,195,29711,1,0
388,176,30432,5,0
400,131,30865,1,0
412,184,31153,1,0
383,210,31586,1,0
360,149,32307,1,0
56,168,33317,5,0
87,218,33750,1,0
106,157,34038,1,0
140,188,34326,1,0
87,218,34615,1,0
8,209,35048,1,0
40,176,35625,2,0,B|464:170,4,385
96,153,43269,1,0
218,153,43557,1,0
206,111,43990,1,0
278,132,44423,1,0
406,201,45721,5,0
407,154,46298,1,0
250,135,47163,1,0
207,158,47596,1,0
253,162,48317,1,0
363,80,49615,5,0
340,116,50192,1,0
373,113,50913,1,0
108,196,52355,5,0
108,162,52932,1,0
138,193,53509,1,0
326,147,54519,1,0
344,114,54951,1,0
352,149,55673,1,0
375,132,56250,1,0
214,148,57548,5,0
202,177,58269,1,0
237,179,58846,1,0
49,170,59855,2,0,B|406:173,2,350
95,108,72259,5,0
86,133,72548,1,0
95,108,72836,1,0
123,122,73125,1,0
123,122,73557,1,0
121,156,73846,1,0
346,156,74711,5,0
330,183,75000,1,0
368,184,75432,1,0
371,154,75721,1,0
179,142,77596,5,0
168,121,78028,1,0
179,142,78317,1,0
179,142,78605,1,0
219,125,79038,1,0
213,164,79615,1,0
400,132,80625,1,0
372,126,80769,1,0
176,130,81634,5,0
169,164,81923,1,0
213,145,82355,1,0
222,112,82644,1,0
257,128,83076,1,0
242,165,83509,1,0
256,199,83798,1,0
408,152,84519,5,0
409,100,84807,1,0
430,137,85096,1,0
430,137,85384,1,0
383,159,85673,1,0
383,159,85961,1,0
383,159,86105,1,0
375,116,86682,1,0
132,106,87259,5,0
115,145,87836,1,0
95,104,88557,1,0
132,94,88846,1,0
182,152,89567,1,0
132,152,90000,1,0
142,126,90576,1,0
54,191,91875,6,0,B|452:189,3,385
66,142,97932,1,0
103,136,98509,1,0
103,100,98798,1,0
378,131,99807,5,0
387,95,100240,1,0
424,137,100673,1,0
169,132,101971,1,0
161,160,102548,1,0
206,152,102980,1,0
245,89,103269,1,0
299,96,103846,1,0
325,80,104567,1,0
208,196,105432,5,0
250,196,105865,1,0
237,152,106586,1,0
282,166,107163,1,0
384,196,108750,1,0
334,208,109182,1,0
359,171,109759,1,0
208,134,110769,5,0
215,95,111201,1,0
178,109,111923,1,0
171,75,112500,1,0
419,144,113798,5,0
426,106,114519,1,0
452,132,115240,1,0
33,159,116538,2,0,B|449:159,5,385
104,80,136009,5,0
105,110,136442,1,0
104,80,136730,1,0
147,94,137019,1,0
147,94,137307,1,0
192,97,137596,1,0
40,162,138750,2,0,B|197:160,3,140
41,164,142355,1,0
137,124,142644,1,0
172,136,143076,1,0
172,136,143365,1,0
59,175,144807,6,0,B|316:176,2,245
253,148,148269,1,0
335,108,148701,1,0
321,140,148990,1,0
256,141,149855,5,0
260,96,150576,1,0
289,120,151298,1,0
344,134,151875,1,0
235,117,152596,1,0
173,154,153317,1,0
181,100,154038,1,0
219,103,154615,1,0
36,168,156634,6,0,B|90:167,5,35
360,156,157932,2,0,B|397:153,6,35
216,155,159230,2,0,B|280:155,5,35
407,171,160528,2,0,B|461:166,6,35
62,161,162403,1,0
178,150,163413,1,0
319,161,164711,1,0
430,166,165865,1,0
244,178,166730,5,0
121,185,167307,1,0
143,153,167596,1,0
167,192,167884,1,0
363,160,168605,1,0
373,203,168894,1,0
405,163,169182,1,0
338,96,169903,1,0
294,160,170192,1,0
297,98,170480,1,0
195,93,171057,1,0
171,143,171490,1,0
170,99,171634,1,0
310,169,172355,5,0
341,124,172788,1,0
340,155,172932,1,0
416,168,173653,1,0
419,129,173942,1,0
416,168,174230,1,0
215,158,174951,1,0
215,114,175240,1,0
215,158,175528,1,0
103,156,176105,1,0
121,102,176394,1,0
103,156,176682,1,0
64,159,177115,1,0
256,192,178701,12,0,181586
151,108,187500,5,0
180,111,187932,1,0
148,152,188221,1,0
102,193,189230,2,0,B|214:200,6,105
126,148,192836,1,0
213,108,193269,1,0
200,140,193557,1,0
256,116,193990,1,0
336,140,194567,5,0
360,172,195000,1,0
307,199,195288,1,0
336,140,195576,1,0
304,160,196009,1,0
281,114,196298,1,0
309,104,196586,1,0
309,104,197019,1,0
304,160,197307,1,0
205,135,198173,5,0
231,85,198605,1,0
237,128,198894,1,0
237,128,199038,1,0
308,133,199471,1,0
280,107,199759,1,0
304,181,200625,1,0
275,162,201201,1,0
274,122,201634,1,0
274,122,201778,1,0
290,88,202067,1,0
424,118,203509,5,0
389,166,203942,1,0
392,117,204230,1,0
392,117,204375,1,0
425,152,204807,1,0
435,114,205096,1,0
228,124,206105,5,0
232,167,206538,1,0
199,144,206971,1,0
199,144,207115,1,0
270,140,207403,1,0
120,155,208701,5,0
109,206,209423,1,0
143,178,210000,1,0
256,192,211153,12,0,213317
