osu file format v5

[General]
AudioFilename: 03 - Kuso Breakin Nou Breakin Lily.mp3
AudioLeadIn: 0
PreviewTime: -1
Countdown: 1
SampleSet: Normal
StackLeniency: 0.7
Mode: 0

[Metadata]
Title:Kuso Breakin Nou Breakin Lily
Artist:Maximum The Hormone
Creator:Rorono
Version:Normal

[Difficulty]
HPDrainRate:4
CircleSize:5
OverallDifficulty:5
SliderMultiplier:1
SliderTickRate:1

[Events]
//Background and Video events
0,0,"maximumthehormone1280x1tm0.jpg"
//Break Periods
2,38003,49135
2,84332,96246
2,159497,167148
2,232514,234217
//Storyboard Layer 0 (Background)
//Storyboard Layer 1 (Failing)
//Storyboard Layer 2 (Passing)
//Storyboard Layer 3 (Foreground)
//Storyboard Sound Samples
//Background Colour Transformations
3,100,163,162,255

[TimingPoints]
68004,517.241379310345,4,1,0,100

[HitObjects]
96,64,14639,1,0
96,192,15398,1,0
96,320,16452,1,0
416,320,17831,1,0
416,128,19555,1,0
416,64,21094,5,0
256,64,21854,1,0
128,64,22993,1,0
128,256,24132,1,0
256,192,24892,1,0
256,192,25651,1,0
96,288,26791,5,0
256,288,27550,1,0
416,288,28310,1,0
416,288,28689,1,0
96,64,29728,6,0,B|416:64,1,300
416,64,31727,1,0
192,64,32314,1,0
96,288,32867,6,0,B|480:288,1,300
192,224,34765,1,0
128,64,35525,1,0
128,64,35905,1,0
288,64,36284,1,0
288,64,36664,1,0
448,64,37044,1,0
448,64,37424,1,0
448,64,37803,1,0
128,128,50335,5,0
128,128,50715,1,0
128,128,51094,1,0
128,128,51474,1,0
256,128,51854,1,0
256,128,52234,1,0
256,128,52613,1,0
416,128,53373,1,0
416,128,53753,1,0
416,128,54132,1,0
96,64,56031,6,0,B|448:64,1,300
448,192,57831,2,0,B|96:192,1,300
96,320,59555,2,0,B|448:320,1,300
96,320,61727,5,0
96,320,62107,1,0
96,320,62487,1,0
96,320,62867,1,0
96,320,63246,1,0
96,64,64765,5,0
96,64,65145,1,0
96,64,65525,1,0
96,64,65905,1,0
96,64,66284,1,0
352,64,68004,5,0
352,64,68384,1,0
352,64,68764,1,0
352,64,69144,1,0
352,64,69523,1,0
256,192,71042,5,0
256,192,71422,1,0
256,192,71802,1,0
256,192,72182,1,0
256,192,72561,1,0
96,64,73952,5,0
96,192,74728,1,0
96,320,75245,1,0
96,320,75590,1,0
416,320,76797,1,0
416,192,77677,1,0
416,64,78436,1,0
416,64,79196,1,0
128,64,79955,5,0
128,224,80335,1,0
128,320,81094,1,0
128,320,81710,1,0
256,320,82831,5,0
256,192,83373,1,0
256,96,83753,1,0
256,32,84132,1,0
96,96,97446,5,0
96,128,97843,1,0
96,160,98241,1,0
96,192,98639,1,0
96,224,99037,1,0
96,256,99435,1,0
96,320,99833,1,0
160,320,100231,5,0
160,256,100629,1,0
160,224,101026,1,0
160,192,101424,1,0
160,160,101822,1,0
160,128,102220,1,0
160,96,102618,1,0
352,96,103414,5,0
352,128,103811,1,0
352,160,104209,1,0
352,224,104607,1,0
352,256,105005,1,0
352,288,105403,1,0
352,320,105801,1,0
192,320,106597,5,0
192,288,106994,1,0
192,256,107392,1,0
192,256,107790,1,0
192,224,108188,1,0
192,192,108586,1,0
192,160,108984,1,0
128,32,109779,5,0
160,32,110177,1,0
192,32,110575,1,0
224,32,110973,1,0
224,32,111371,1,0
256,32,111769,1,0
288,32,112167,1,0
352,128,112962,5,0
320,128,113360,1,0
288,128,113758,1,0
288,128,114156,1,0
256,128,114554,1,0
224,128,114952,1,0
192,128,115350,1,0
64,128,116107,6,0,B|64:352,3,200
256,320,120245,1,0
256,320,121279,1,0
416,320,122113,2,0,B|416:96,3,200
256,96,125935,1,0
256,96,126333,1,0
256,96,126731,1,0
256,96,127129,1,0
256,96,127527,1,0
256,192,128081,12,0,129673
256,192,130469,1,0
256,192,130866,1,0
256,192,131264,12,0,132458
256,192,133176,1,0
256,192,133435,1,0
64,96,134210,6,0,C|64:320,2,200
160,64,136834,1,0
256,64,137232,1,0
384,64,137630,1,0
384,64,138028,1,0
384,64,138426,1,0
160,64,139641,5,0
224,64,140535,1,0
288,64,140915,1,0
352,64,141295,1,0
352,64,141674,1,0
352,64,142054,1,0
352,192,142814,1,0
256,192,143193,1,0
128,192,143953,1,0
128,192,144333,1,0
128,192,144712,1,0
128,192,145092,1,0
128,64,145590,5,0
128,64,146107,2,0,B|128:352,2,200
256,192,148176,12,0,151279
64,64,151538,5,0
64,64,151797,1,0
64,64,152055,1,0
160,64,152572,1,0
288,64,152831,1,0
288,64,153090,1,0
288,64,153607,1,0
416,64,153866,1,0
416,160,154383,1,0
416,160,154641,1,0
416,160,154900,1,0
416,256,155417,1,0
320,256,155676,1,0
320,256,155935,1,0
320,256,156193,1,0
224,256,156710,1,0
160,160,157228,5,0
224,160,157486,1,0
288,160,157745,1,0
352,160,158521,1,0
384,160,158779,1,0
416,160,159297,1,0
128,64,168607,6,0,C|128:128,12,50
128,224,172228,2,0,C|128:288,8,50
160,96,175590,1,0
192,96,175848,1,0
224,96,176107,1,0
256,96,176624,1,0
256,96,177141,1,0
256,96,177400,1,0
256,96,177659,1,0
384,224,178693,5,0
384,224,178952,1,0
384,224,179210,1,0
320,224,179728,1,0
288,224,180245,1,0
256,224,180504,1,0
224,224,180762,1,0
128,64,181797,5,0
128,192,182486,1,0
128,320,183348,1,0
128,320,183693,1,0
416,320,184900,1,0
416,64,186452,1,0
416,64,188004,5,0
256,64,188693,1,0
128,64,189555,1,0
128,64,189900,1,0
128,320,191107,1,0
416,320,192486,1,0
416,64,194038,5,0
416,64,194210,1,0
256,64,194728,1,0
256,64,195072,1,0
128,64,195590,1,0
128,64,195762,1,0
128,320,196969,1,0
256,320,197659,1,0
416,320,198348,1,0
416,192,199900,5,0
416,192,200245,1,0
256,192,200762,1,0
256,192,200935,1,0
96,192,201452,1,0
96,192,201797,1,0
96,64,202831,1,0
256,64,203693,1,0
384,64,204038,1,0
384,64,205935,5,0
384,192,206624,1,0
384,320,207314,1,0
384,320,207659,1,0
64,64,208866,2,0,C|64:320,2,233.333333333333
64,64,211797,5,0
256,64,212486,1,0
416,64,213176,1,0
416,64,213521,1,0
416,288,214555,2,0,C|64:288,1,333.333333333333
96,64,217486,5,0
96,64,217831,1,0
96,64,218176,1,0
96,64,218521,1,0
256,64,218866,1,0
256,64,219124,1,0
256,64,219383,1,0
256,64,219728,1,0
256,64,220072,1,0
384,64,220590,2,0,C|384:320|64:320,1,566.666666666667
85,320,223693,5,0
85,320,224038,1,0
85,320,224383,1,0
64,192,224900,1,0
64,192,225245,1,0
64,192,225417,1,0
64,192,225762,1,0
192,64,226452,2,0,C|448:64|448:352,1,533.333333333333
256,192,229210,12,0,230245
256,192,230590,12,0,232314
256,192,235417,12,0,239383
