osu file format v5

[General]
AudioFilename: Kuso Breakin Nou Breakin Lily 1.wmv.MP3
AudioLeadIn: 0
PreviewTime: -1
Countdown: 1
SampleSet: Normal
StackLeniency: 0.7
Mode: 0

[Metadata]
Title:Kuso Breakin Nou Breakin Lily
Artist:Maximum The Hormone
Creator:Rorono
Version:Easy

[Difficulty]
HPDrainRate:4
CircleSize:4
OverallDifficulty:4
SliderMultiplier:1.4
SliderTickRate:1

[Events]
//Background and Video events
1,0,"Kuso Breakin Nou Breakin Lily 1.wmv"
//Break Periods
2,40768,45142
2,73537,84874
2,137822,148624
2,204965,206660
2,210680,212195
2,216930,218802
//Storyboard Layer 0 (Background)
//Storyboard Layer 1 (Failing)
//Storyboard Layer 2 (Passing)
//Storyboard Layer 3 (Foreground)
//Storyboard Sound Samples
//Background Colour Transformations
3,100,163,162,255

[TimingPoints]
5480,535.714285714286,4,1,0,100

[HitObjects]
96,64,6551,1,0
256,64,7444,1,0
384,64,8158,1,0
384,64,8515,1,0
416,320,9587,1,0
96,320,11015,1,0
96,64,12444,5,0
96,192,13337,1,0
96,320,14051,1,0
96,320,14408,1,0
256,192,16194,1,0
256,192,16551,1,0
256,192,16908,1,0
96,64,18337,6,0,B|448:64,2,280
96,64,20480,1,0
96,64,20837,1,0
96,128,21551,2,0,B|96:352,2,140
96,128,23158,1,0
96,320,23694,6,0,B|448:320|448:320|448:96,1,560
256,96,26730,1,0
192,96,27265,1,0
192,96,27980,1,0
64,96,29587,5,0
256,96,30658,1,0
416,96,31462,1,0
416,96,31997,1,0
256,192,33872,1,0
256,192,34408,1,0
256,192,34676,1,0
96,64,34944,6,0,B|448:64,2,280
64,288,37890,2,0,B|448:288,2,350
96,96,46462,5,0
96,96,46819,1,0
416,96,47801,1,0
416,96,48158,1,0
416,288,49140,2,0,B|64:288,2,280
384,64,51819,5,0
384,192,52444,1,0
384,320,53158,1,0
96,320,54765,1,0
96,192,55390,1,0
96,64,56194,1,0
128,64,57712,2,0,B|448:64,2,280
256,192,60122,12,0,62801
96,96,63515,1,0
256,96,64230,1,0
384,96,64944,1,0
384,96,65301,1,0
384,320,66551,1,0
256,320,67265,1,0
96,320,67801,1,0
96,160,68515,1,0
96,160,68694,1,0
64,64,69051,6,0,C|448:64|448:320,1,653.333333333333
256,224,72265,5,0
256,224,72622,1,0
256,224,72980,1,0
256,224,73337,1,0
96,64,86194,5,0
256,64,86908,1,0
416,64,87622,1,0
416,64,88337,1,0
416,192,89051,1,0
416,320,89765,1,0
256,320,90480,1,0
256,320,91194,1,0
96,128,91908,5,0
96,128,92801,1,0
96,128,93515,1,0
96,128,94230,1,0
256,128,94944,1,0
256,128,95747,1,0
256,128,96551,1,0
256,128,97265,1,0
416,128,98158,5,0
416,128,98872,1,0
416,128,99587,1,0
416,128,100301,1,0
256,288,101194,1,0
256,288,101908,1,0
256,288,102622,1,0
256,288,103515,1,0
64,320,104230,6,0,C|448:320|416:64|416:64|64:64,2,1073.33333333333
64,320,113158,1,0
64,320,113872,1,0
64,320,114587,1,0
256,192,115658,5,0
128,64,116015,6,0,C|256:64,3,93.3333333333333
384,64,117980,1,0
384,64,118337,1,0
384,192,118694,6,0,C|288:192,3,93.3333333333333
384,320,120837,1,0
384,320,121194,1,0
96,320,121551,5,0
96,192,122265,1,0
96,64,122980,1,0
96,64,123337,1,0
384,64,124408,6,0,C|384:320,2,233.333333333333
64,64,127265,5,0
256,64,127801,1,0
416,64,128515,1,0
416,192,129408,1,0
416,192,129587,1,0
416,320,131551,1,0
416,320,132087,1,0
416,320,132444,1,0
96,320,132980,5,0
96,320,133515,1,0
256,320,134587,1,0
256,320,134944,1,0
256,192,136015,1,0
256,192,136372,1,0
256,192,136908,1,0
256,192,137265,1,0
256,192,137622,1,0
96,64,149944,5,0
96,192,151015,1,0
96,192,151730,1,0
96,320,152444,1,0
256,320,153158,1,0
416,320,153872,1,0
416,320,154587,1,0
256,192,155301,5,0
256,192,155837,1,0
256,192,156194,1,0
256,192,156908,1,0
256,192,157265,1,0
256,192,157622,1,0
416,64,158337,5,0
416,64,158872,1,0
416,64,159230,1,0
416,64,159944,1,0
416,64,160301,1,0
416,64,160658,1,0
128,64,161551,5,0
128,64,162265,1,0
128,64,162980,1,0
128,64,163337,1,0
128,64,163694,1,0
96,288,164587,5,0
96,288,165301,1,0
96,288,166015,1,0
96,288,166372,1,0
96,288,166730,1,0
96,288,167622,6,0,C|416:288,2,280
416,64,170658,2,0,C|416:320,2,233.333333333333
352,64,173515,2,0,C|64:64,2,280
96,96,176372,2,0,C|128:320,1,186.666666666667
256,64,177980,2,0,C|384:288,1,233.333333333333
96,64,179408,5,0
96,64,179765,1,0
256,64,180301,1,0
256,64,180480,1,0
416,64,181015,1,0
416,64,181194,1,0
416,288,182444,1,0
256,288,183158,1,0
96,288,183872,1,0
96,64,185301,5,0
96,64,185480,1,0
96,192,186015,1,0
96,192,186372,1,0
96,320,186730,1,0
96,320,187087,1,0
416,320,188247,1,0
416,192,188872,1,0
416,64,189587,1,0
96,64,191015,6,0,C|416:64,1,280
384,192,193872,2,0,C|96:192,1,280
96,320,196551,2,0,C|448:320,2,326.666666666667
96,320,199408,1,0
96,320,199765,1,0
96,320,200122,1,0
96,320,200480,1,0
96,64,202265,5,0
96,64,202622,1,0
96,64,202980,1,0
96,64,203337,1,0
352,64,203694,5,0
352,64,204051,1,0
352,64,204408,1,0
352,64,204765,1,0
416,320,207980,5,0
416,320,208158,1,0
416,320,208515,1,0
416,320,208872,1,0
96,320,209408,1,0
96,320,209587,1,0
96,320,209944,1,0
96,320,210301,1,0
256,192,213515,12,0,216730
256,192,220122,12,0,224408
