osu file format v14

[General]
AudioFilename: Nothing at all.mp3
AudioLeadIn: 2000
PreviewTime: 91908
Countdown: 0
SampleSet: Soft
StackLeniency: 0.7
Mode: 0
LetterboxInBreaks: 0
WidescreenStoryboard: 0

[Editor]
Bookmarks: 121912,135037,181912
DistanceSpacing: 1
BeatDivisor: 4
GridSize: 4
TimelineZoom: 1

[Metadata]
Title:Nothing At All
TitleUnicode:Nothing At All
Artist:Maxi Trusso
ArtistUnicode:Maxi Trusso
Creator:mancuso_JM_
Version:Hard
Source:
Tags:S.O.S mancusojuanmattos
BeatmapID:797605
BeatmapSetID:363223

[Difficulty]
HPDrainRate:6
CircleSize:4
OverallDifficulty:6
ApproachRate:7.5
SliderMultiplier:1.8
SliderTickRate:1

[Events]
//Background and Video events
0,0,"I've to go.jpg",0,0
Video,-360,"mantrussojuanmaxi.avi"
//Break Periods
2,122108,134208
//Storyboard Layer 0 (Background)
//Storyboard Layer 1 (Fail)
//Storyboard Layer 2 (Pass)
//Storyboard Layer 3 (Foreground)
//Storyboard Sound Samples

[TimingPoints]
33,468.75,4,2,2,70,1,0
10345,-100,4,2,2,55,0,0
10462,-100,4,2,2,70,0,0
10579,-100,4,2,2,55,0,0
10697,-100,4,2,2,70,0,0
12454,-100,4,2,2,55,0,0
12572,-100,4,2,2,70,0,0
14329,-100,4,2,2,55,0,0
14447,-100,4,2,2,70,0,0
15033,-125,4,2,1,55,0,0
22533,-111.111111111111,4,2,1,45,0,0
22650,-111.111111111111,4,2,1,70,0,0
30033,-100,4,2,2,70,0,0
30970,-100,4,2,2,55,0,0
31087,-100,4,2,2,70,0,0
32845,-100,4,2,2,55,0,0
32962,-100,4,2,2,70,0,0
34720,-100,4,2,2,55,0,0
34837,-100,4,2,2,70,0,0
36595,-100,4,2,2,55,0,0
36712,-100,4,2,2,70,0,0
38470,-100,4,2,2,55,0,0
38587,-100,4,2,2,70,0,0
40345,-100,4,2,2,55,0,0
40462,-100,4,2,2,70,0,0
42220,-100,4,2,2,55,0,0
42572,-100,4,2,2,70,0,0
49720,-100,4,2,2,55,0,0
49837,-100,4,2,2,70,0,0
56283,-100,4,3,2,70,0,0
58158,-100,4,2,2,70,0,0
88392,-100,4,2,2,45,0,0
91908,-100,4,2,2,70,0,1
92845,-100,4,2,2,55,0,1
92962,-100,4,2,2,70,0,1
93783,-100,4,2,2,55,0,1
93900,-100,4,2,2,70,0,1
94720,-100,4,2,2,55,0,1
94954,-100,4,2,2,70,0,1
95658,-100,4,2,2,55,0,1
95775,-100,4,2,2,70,0,1
96595,-100,4,2,2,55,0,1
96829,-100,4,2,2,70,0,1
100345,-100,4,2,2,55,0,1
100579,-100,4,2,2,70,0,1
101283,-100,4,2,2,55,0,1
101400,-100,4,2,2,70,0,1
102220,-100,4,2,2,55,0,1
102454,-100,4,2,2,70,0,1
103158,-100,4,2,2,55,0,1
103275,-100,4,2,2,70,0,1
104095,-100,4,2,2,55,0,1
104329,-100,4,2,2,70,0,1
106908,-100,4,2,2,70,0,0
118158,-100,4,3,2,70,0,0
120033,-100,4,2,2,70,0,0
135033,-100,4,3,0,55,0,0
135970,-100,4,3,0,60,0,0
136908,-100,4,2,2,70,0,0
164095,-100,4,2,2,55,0,0
164212,-100,4,2,2,70,0,0
164329,-100,4,2,2,55,0,0
164447,-100,4,2,2,70,0,0
165970,-100,4,3,2,70,0,0
166908,-100,4,2,2,70,0,1
167025,-100,4,2,2,70,0,0
171595,-100,4,2,2,55,0,0
171712,-100,4,2,2,70,0,0
171829,-100,4,2,2,55,0,0
172064,-100,4,2,2,70,0,0
177220,-100,4,2,2,55,0,0
177337,-100,4,2,2,70,0,0
179329,-100,4,2,2,55,0,0
179564,-100,4,2,2,70,0,0
180736,-100,4,3,2,70,0,0
181673,-100,4,3,2,55,0,0
181908,-100,4,2,2,55,0,0

[Colours]
Combo1 : 81,81,255
Combo2 : 0,164,164
Combo3 : 255,100,26

[HitObjects]
8,148,33,5,4,0:3:0:0:
64,80,267,1,2,0:0:0:0:
108,160,501,2,0,L|196:141,1,90,8|0,0:0|0:0,0:0:0:0:
252,212,970,1,4,0:3:0:0:
316,276,1204,1,2,0:0:0:0:
336,364,1439,2,0,L|424:345,1,90,8|0,0:0|0:0,0:0:0:0:
476,272,1908,6,0,P|467:227|470:183,1,90,4|2,0:3|0:0,0:0:0:0:
392,140,2376,2,0,P|394:95|386:51,1,90,8|0,0:0|0:0,0:0:0:0:
304,16,2845,1,4,0:3:0:0:
256,92,3079,1,2,0:0:0:0:
184,144,3314,2,0,P|158:106|125:76,1,90,8|0,0:0|0:0,0:0:0:0:
40,112,3783,6,0,B|72:204|16:204|45:288,1,180,4|8,0:3|0:0,0:0:0:0:
124,332,4486,2,0,B|156:304|144:248|144:248|180:284|225:268,1,180,0|2,0:3|0:0,0:0:0:0:
304,224,5189,1,8,0:0:0:0:
376,280,5423,1,0,0:0:0:0:
376,280,5892,5,2,0:0:0:0:
456,320,6126,1,8,0:0:0:0:
464,232,6361,1,0,0:0:0:0:
308,144,6829,1,2,0:0:0:0:
314,54,7064,1,8,0:0:0:0:
394,92,7298,1,0,0:0:0:0:
308,144,7533,6,0,L|218:136,1,90,4|0,0:0|0:0,0:0:0:0:
160,212,8001,1,8,0:0:0:0:
160,212,8236,2,0,L|340:228,1,180,2|0,0:0|0:0,0:0:0:0:
388,316,8939,1,8,0:0:0:0:
388,316,9173,2,0,L|208:300,1,180,2|0,0:0|0:0,0:0:0:0:
151,367,9876,6,0,P|122:334|84:310,1,90,8|2,0:0|0:0,0:0:0:0:
19,247,10345,2,0,P|14:203|19:158,1,90,4|4,0:3|0:3,0:0:0:0:
68,80,10814,1,8,0:0:0:0:
124,8,11048,1,2,0:0:0:0:
196,60,11283,5,4,0:3:0:0:
256,128,11517,2,0,P|261:172|256:216,1,90,2|8,0:0|0:0,0:0:0:0:
220,300,11986,2,0,P|283:241|364:268,2,180,2|2|2,0:0|0:0|0:0,0:0:0:0:
176,380,13158,5,4,0:3:0:0:
132,300,13392,2,0,P|123:255|112:212,1,90,2|8,0:0|0:0,0:0:0:0:
23,194,13861,2,0,P|74:127|164:138,2,180,2|2|2,0:0|0:0|0:0,0:0:0:0:
24,284,15033,5,4,0:0:0:0:
152,348,15501,2,0,B|188:332|188:332|206:229,1,144,2|0,0:0|0:0,0:0:0:0:
256,96,16439,1,0,0:0:0:0:
306,229,16908,2,0,B|324:332|324:332|360:348,1,144,2|0,0:0|0:0,0:0:0:0:
500,308,17845,2,0,B|482:205|482:205|446:189,1,144
344,84,18783,6,0,L|273:99,1,72,0|2,0:0|0:0,0:0:0:0:
248,176,19251,2,0,L|180:150,1,72,0|2,0:0|0:0,0:0:0:0:
16,280,20423,5,2,0:0:0:0:
16,280,20658,2,0,L|83:305,1,72,0|2,0:0|0:0,0:0:0:0:
112,380,21126,2,0,L|183:365,1,72,2|0,0:0|0:0,0:0:0:0:
220,296,21595,2,0,L|288:318,1,72,2|2,0:0|0:0,0:0:0:0:
356,280,22064,1,0,0:0:0:0:
428,312,22298,1,0,0:0:0:0:
484,240,22533,6,0,P|479:199|482:159,1,80.9999975280763,4|0,0:0|0:0,0:0:0:0:
461,72,23001,2,0,L|300:91,1,161.999995056153,2|2,0:0|0:0,0:0:0:0:
211,91,23704,2,0,L|51:72,1,161.999995056153,2|0,0:0|0:0,0:0:0:0:
12,152,24408,6,0,L|92:165,1,80.9999975280763,2|0,0:0|0:0,0:0:0:0:
156,224,24876,1,2,0:0:0:0:
192,304,25111,1,0,0:0:0:0:
264,352,25345,2,0,B|324:312|324:312|413:312,1,161.999995056153,2|2,0:0|0:0,0:0:0:0:
492,356,26048,1,0,0:0:0:0:
476,268,26283,6,0,P|471:227|475:187,1,80.9999975280763,2|2,0:0|0:0,0:0:0:0:
460,100,26751,1,0,0:0:0:0:
460,100,26986,2,0,B|400:92|380:112|360:132|300:124,1,161.999995056153,2|0,0:0|0:0,0:0:0:0:
227,175,27689,2,0,P|201:145|167:123,1,80.9999975280763,2|0,0:0|0:0,0:0:0:0:
84,156,28158,6,0,P|110:186|144:208,1,80.9999975280763,4|2,0:3|0:3,0:0:0:0:
176,292,28626,1,2,0:3:0:0:
300,372,28861,1,2,0:3:0:0:
212,372,29095,1,4,0:3:0:0:
336,292,29329,1,4,0:3:0:0:
367,208,29564,2,0,P|401:186|428:156,1,80.9999975280763,4|4,0:3|0:3,0:0:0:0:
396,64,30033,6,0,P|313:56|294:136,1,180,4|8,0:0|0:0,0:0:0:0:
276,224,30736,1,0,0:0:0:0:
284,244,30853,1,0,0:0:0:0:
292,264,30970,2,0,L|200:244,1,90,8|0,0:3|0:0,0:0:0:0:
116,272,31439,2,0,P|100:229|76:192,1,90,8|0,0:0|0:0,0:0:0:0:
19,120,31908,6,0,P|40:79|69:45,1,90,4|0,0:3|0:0,0:0:0:0:
156,20,32376,2,0,P|167:63|190:102,1,90,8|0,0:0|0:0,0:0:0:0:
204,120,32728,1,0,0:0:0:0:
224,132,32845,2,0,P|249:94|284:67,1,90,8|0,0:3|0:0,0:0:0:0:
376,72,33314,1,0,0:0:0:0:
444,12,33548,1,0,0:0:0:0:
484,91,33783,6,0,P|500:180|486:268,1,180,4|8,0:3|0:0,0:0:0:0:
440,344,34486,2,0,B|408:312|408:312|363:312,1,90,2|8,0:0|0:3,0:0:0:0:
304,244,34954,1,0,0:0:0:0:
264,152,35189,1,8,0:0:0:0:
176,120,35423,1,0,0:0:0:0:
84,124,35658,6,0,P|72:80|67:35,1,90,2|0,0:3|0:0,0:0:0:0:
176,120,36126,2,0,P|187:163|192:208,1,90,10|0,0:0|0:0,0:0:0:0:
144,284,36595,1,8,0:3:0:0:
204,352,36829,1,0,0:0:0:0:
204,352,37064,2,0,L|296:340,1,90
344,268,37533,6,0,P|328:179|344:91,2,180,4|8|8,0:3|0:0|0:3,0:0:0:0:
352,356,38704,1,0,0:0:0:0:
276,308,38939,2,0,P|248:272|213:244,1,90,8|0,0:0|0:0,0:0:0:0:
140,192,39408,6,0,B|132:136|84:132|84:132|132:128|140:72,2,180,4|8|8,0:3|0:0|0:3,0:0:0:0:
120,280,40579,1,0,0:0:0:0:
160,360,40814,1,8,0:0:0:0:
240,316,41048,1,0,0:0:0:0:
220,228,41283,6,0,L|408:204,2,180,4|8|8,0:3|0:0|0:3,0:0:0:0:
149,171,42454,2,0,P|187:145|231:139,2,90,4|8|0,0:3|0:0|0:0,0:0:0:0:
80,116,43158,6,0,P|91:72|96:27,1,90,4|4,0:3|0:3,0:0:0:0:
149,171,43626,2,0,P|137:214|132:259,1,90,8|0,0:0|0:0,0:0:0:0:
232,344,44095,1,4,0:3:0:0:
232,344,44329,1,4,0:3:0:0:
320,224,44564,1,8,0:0:0:0:
320,224,44798,1,4,0:3:0:0:
468,207,45033,6,0,P|477:118|455:31,1,180,4|0,0:0|0:0,0:0:0:0:
376,72,45736,2,0,P|387:115|380:159,1,90,0|2,0:0|0:0,0:0:0:0:
320,224,46204,1,0,0:0:0:0:
248,280,46439,2,0,L|158:272,1,90,8|0,0:0|0:0,0:0:0:0:
100,344,46908,6,0,L|279:359,1,180,2|8,0:0|0:0,0:0:0:0:
368,336,47611,1,0,0:0:0:0:
440,280,47845,2,0,P|451:191|431:103,1,180,2|8,0:0|0:0,0:0:0:0:
356,52,48548,1,2,0:0:0:0:
356,143,48783,6,0,P|367:187|360:231,1,90,4|0,0:3|0:0,0:0:0:0:
280,188,49251,2,0,P|268:144|275:100,2,90,8|2|8,0:0|0:0|0:3,0:0:0:0:
360,231,49954,1,0,0:0:0:0:
440,276,50189,2,0,P|451:319|444:363,1,90,8|0,0:0|0:0,0:0:0:0:
364,324,50658,5,4,0:3:0:0:
284,284,50892,1,2,0:0:0:0:
264,372,51126,2,0,L|241:193,1,180,2|2,0:0|0:0,0:0:0:0:
160,152,51829,2,0,P|148:108|150:64,1,90,2|8,0:0|0:0,0:0:0:0:
224,12,52298,1,0,0:0:0:0:
308,44,52533,6,0,P|319:87|317:131,1,90,4|0,0:3|0:0,0:0:0:0:
248,192,53001,2,0,B|188:192|188:192|136:176|136:176|70:176,1,180,10|2,0:0|0:0,0:0:0:0:
56,264,53704,2,0,B|121:264|121:264|173:280|173:280|233:280,1,180,2|2,0:0|0:0,0:0:0:0:
296,344,54408,5,4,0:3:0:0:
296,344,54876,2,0,P|327:313|368:294,1,90,8|0,0:0|0:0,0:0:0:0:
448,248,55345,2,0,P|451:203|444:158,1,90,2|0,0:0|0:0,0:0:0:0:
396,84,55814,1,8,0:0:0:0:
324,28,56048,1,0,0:0:0:0:
288,112,56283,6,0,L|198:104,1,90,4|0,0:0|0:0,0:0:0:0:
86,184,56751,2,0,L|176:192,1,90,8|0,0:2|0:0,0:0:0:0:
265,291,57220,2,0,L|176:284,1,90,4|0,0:0|0:0,0:0:0:0:
66,364,57689,2,0,L|156:372,1,90,8|0,0:2|0:0,0:0:0:0:
265,291,58158,5,2,0:0:0:0:
340,196,58392,1,2,0:0:0:0:
364,316,58626,1,8,0:0:0:0:
504,204,59095,2,0,P|507:159|500:114,1,90,4|4,0:3|0:3,0:0:0:0:
407,24,59564,2,0,P|403:68|410:113,1,90,8|4,0:0|0:3,0:0:0:0:
504,204,60033,5,4,0:0:0:0:
420,364,60501,1,8,0:0:0:0:
356,196,60970,1,2,0:0:0:0:
340,108,61204,1,0,0:0:0:0:
268,52,61439,2,0,L|178:59,1,90,8|0,0:0|0:0,0:0:0:0:
112,124,61908,6,0,P|128:212|116:300,1,180,2|8,0:0|0:0,0:0:0:0:
48,360,62611,2,0,B|96:348|116:300|116:300|185:350,1,180,2|0,0:0|0:0,0:0:0:0:
276,344,63314,2,0,P|317:360|361:356,1,90,8|0,0:0|0:0,0:0:0:0:
436,308,63783,6,0,B|436:276|436:276|440:252|440:252|440:218,1,90,4|2,0:3|0:0,0:0:0:0:
376,152,64251,1,8,0:0:0:0:
328,76,64486,2,0,B|280:96|256:128|256:128|232:96|184:76,1,180,2|2,0:0|0:0,0:0:0:0:
136,152,65189,1,8,0:0:0:0:
184,256,65423,6,0,B|232:236|256:204|256:204|280:236|328:256,1,180,2|2,0:0|0:0,0:0:0:0:
408,296,66126,1,8,0:0:0:0:
336,348,66361,2,0,P|256:383|176:348,1,180,2|2,0:0|0:0,0:0:0:0:
116,280,67064,2,0,P|87:246|51:218,1,90,8|0,0:0|0:0,0:0:0:0:
11,135,67533,6,0,P|3:91|12:47,1,90,4|2,0:3|0:0,0:0:0:0:
88,92,68001,1,8,0:0:0:0:
88,91,68236,2,0,P|169:57|255:78,1,180,2|2,0:0|0:0,0:0:0:0:
232,164,68939,1,8,0:0:0:0:
232,164,69173,6,2,P|317:185|399:151,1,180,2|0,0:0|0:0,0:0:0:0:
460,84,69876,1,8,0:0:0:0:
476,172,70111,2,0,B|476:232|476:232|492:292|492:292|492:360,1,180,2|0,0:0|0:0,0:0:0:0:
404,372,70814,2,0,L|314:360,1,90,8|0,0:0|0:0,0:0:0:0:
256,292,71283,5,4,0:3:0:0:
196,356,71517,1,2,0:0:0:0:
140,284,71751,1,8,0:0:0:0:
136,192,71986,2,0,P|210:151|278:203,2,180,2|2|2,0:0|0:0|0:0,0:0:0:0:
99,108,73158,6,0,P|137:83|180:71,1,90,4|0,0:3|0:0,0:0:0:0:
256,24,73626,1,8,0:0:0:0:
300,104,73861,2,0,L|479:92,1,180,2|2,0:0|0:0,0:0:0:0:
488,112,74447,1,0,0:0:0:0:
496,132,74564,1,8,0:0:0:0:
492,220,74798,1,0,0:0:0:0:
416,272,75033,6,0,P|449:301|492:315,2,90,4|0|8,0:0|0:0|0:0,0:0:0:0:
360,200,75736,1,0,0:0:0:0:
308,124,75970,2,0,B|268:164|270:205|270:205|244:172|191:170,1,180,2|8,0:0|0:0,0:0:0:0:
202,259,76673,1,0,0:0:0:0:
148,96,76908,6,0,P|193:24|275:43,1,180,4|8,0:3|0:0,0:0:0:0:
308,124,77611,2,0,B|268:164|270:205|270:205|244:172|191:170,1,180,2|0,0:0|0:0,0:0:0:0:
124,224,78314,1,8,0:0:0:0:
256,347,78783,6,0,P|294:324|338:319,2,90,4|2|8,0:3|0:0|0:0,0:0:0:0:
180,299,79486,2,0,P|253:249|341:234,1,180,2|0,0:0|0:0,0:0:0:0:
428,256,80189,1,8,0:0:0:0:
500,204,80423,2,0,P|507:114|487:27,2,180,2|2|2,0:0|0:0|0:0,0:0:0:0:
428,256,81595,2,0,L|439:345,1,90,4|8,0:3|0:3,0:0:0:0:
328,256,82064,2,0,L|316:166,1,90,8|0,0:0|0:0,0:0:0:0:
256,100,82533,5,4,0:0:0:0:
172,72,82767,1,2,0:0:0:0:
148,160,83001,1,8,0:0:0:0:
96,234,83236,2,0,B|136:262|185:244|185:244|156:290|179:324,1,180,2|2,0:0|0:0,0:0:0:0:
256,372,83939,1,8,0:0:0:0:
332,324,84173,2,0,B|356:290|327:244|327:244|376:262|416:234,1,180,2|0,0:0|0:0,0:0:0:0:
364,160,84876,5,8,0:0:0:0:
340,72,85111,1,0,0:0:0:0:
256,100,85345,1,2,0:0:0:0:
256,100,85814,1,8,0:0:0:0:
218,276,86283,6,0,P|173:272|131:287,2,90,4|2|8,0:0|0:0|0:0,0:0:0:0:
305,255,86986,2,0,P|373:308|455:280,1,180,2|2,0:0|0:0,0:0:0:0:
460,192,87689,1,8,0:0:0:0:
460,192,87923,2,0,B|412:176|404:124|404:124|384:168|335:167,2,180,2|2|2,0:0|0:0|0:0,0:0:0:0:
256,192,89329,12,2,91439,0:0:0:0:
172,36,91908,6,0,P|256:8|340:36,1,180,4|8,0:0|0:0,0:0:0:0:
300,116,92611,1,2,0:0:0:0:
212,116,92845,1,4,0:3:0:0:
256,192,93079,1,0,0:0:0:0:
256,192,93314,1,8,0:0:0:0:
172,348,93783,6,0,P|256:376|340:348,1,180,4|8,0:0|0:0,0:0:0:0:
300,268,94486,1,2,0:0:0:0:
212,268,94720,1,4,0:3:0:0:
256,192,94954,1,0,0:0:0:0:
256,192,95189,1,8,0:0:0:0:
339,35,95658,6,0,P|255:7|172:35,1,180,4|8,0:0|0:0,0:0:0:0:
112,104,96361,2,0,P|93:144|84:188,1,90,2|4,0:0|0:3,0:0:0:0:
128,268,96829,1,0,0:0:0:0:
196,328,97064,1,8,0:0:0:0:
236,248,97298,1,2,0:0:0:0:
265,164,97533,6,0,P|300:191|321:231,1,90,4|2,0:3|0:0,0:0:0:0:
368,308,98001,2,0,P|351:219|364:131,1,180,10|2,0:0|0:0,0:0:0:0:
404,52,98704,1,2,0:0:0:0:
316,68,98939,2,0,L|227:82,1,90,8|0,0:0|0:0,0:0:0:0:
144,44,99408,6,0,B|92:56|52:24|52:24|15:97,1,180,4|8,0:0|0:0,0:0:0:0:
28,188,100111,1,2,0:0:0:0:
20,276,100345,1,4,0:3:0:0:
96,320,100579,1,0,0:0:0:0:
184,292,100814,2,0,P|209:254|245:229,1,90,8|0,0:0|0:0,0:0:0:0:
296,304,101283,6,0,L|257:128,1,180,4|8,0:0|0:0,0:0:0:0:
332,76,101986,2,0,L|354:163,1,90,2|4,0:0|0:3,0:0:0:0:
444,156,102454,1,0,0:0:0:0:
444,156,102689,2,0,L|466:243,1,90,8|0,0:0|0:0,0:0:0:0:
447,334,103158,6,0,B|377:343|357:281|357:281|295:303,1,180,4|8,0:0|0:0,0:0:0:0:
212,332,103861,1,2,0:0:0:0:
212,332,104095,1,4,0:3:0:0:
132,372,104329,1,0,0:0:0:0:
132,372,104564,1,8,0:0:0:0:
68,312,104798,1,0,0:0:0:0:
28,232,105033,6,0,P|19:187|24:143,1,90,4|2,0:3|0:0,0:0:0:0:
107,43,105501,2,0,P|116:87|112:132,1,90,10|0,0:0|0:0,0:0:0:0:
160,208,105970,2,0,L|252:196,1,90,2|0,0:0|0:0,0:0:0:0:
328,152,106439,1,8,0:0:0:0:
380,80,106673,1,0,0:0:0:0:
432,152,106908,6,0,P|440:196|435:240,1,90,4|0,0:0|0:0,0:0:0:0:
380,312,107376,2,0,B|288:340|292:280|204:304,1,180,8|2,0:0|0:0,0:0:0:0:
132,356,108079,1,0,0:0:0:0:
127,264,108314,2,0,P|132:219|123:175,1,90,8|0,0:0|0:0,0:0:0:0:
36,160,108783,6,0,L|215:148,1,180,2|8,0:0|0:0,0:0:0:0:
256,68,109486,1,0,0:0:0:0:
297,148,109720,2,0,L|476:160,1,180,2|8,0:0|0:0,0:0:0:0:
480,252,110423,1,0,0:0:0:0:
474,342,110658,6,0,P|433:326|401:295,1,90,4|0,0:3|0:0,0:0:0:0:
344,224,111126,1,8,0:0:0:0:
344,224,111361,2,0,B|256:196|256:256|168:232,1,180,2|2,0:0|0:0,0:0:0:0:
212,151,112064,2,0,P|254:136|298:133,1,90,8|0,0:0|0:0,0:0:0:0:
376,88,112533,5,4,0:3:0:0:
456,52,112767,1,2,0:0:0:0:
464,140,113001,1,10,0:0:0:0:
376,296,113470,1,2,0:0:0:0:
464,296,113704,1,0,0:0:0:0:
428,212,113939,1,8,0:0:0:0:
341,181,114173,2,0,B|276:156|276:228|256:174|236:228|236:156|171:181,1,180,2|0,0:0|0:0,0:0:0:0:
174,271,114876,6,0,P|256:302|338:271,2,180,8|2|8,0:0|0:0|0:0,0:0:0:0:
108,208,116048,1,0,0:0:0:0:
104,116,116283,2,0,B|113:68|96:23|96:23|124:64|170:57,1,180,2|8,0:0|0:0,0:0:0:0:
256,28,116986,1,0,0:0:0:0:
341,57,117220,2,0,B|388:64|415:23|415:23|398:68|408:116,1,180,2|8,0:0|0:0,0:0:0:0:
456,192,117923,1,0,0:0:0:0:
483,280,118158,6,0,P|439:279|398:261,1,90,4|0,0:0|0:0,0:0:0:0:
336,200,118626,2,0,B|298:224|298:224|253:216,1,90,8|0,0:2|0:0,0:0:0:0:
216,136,119095,1,4,0:3:0:0:
136,96,119329,1,0,0:0:0:0:
64,152,119564,1,8,0:2:0:0:
88,240,119798,1,0,0:0:0:0:
132,319,120033,6,0,P|165:290|205:269,1,90,2|2,0:0|0:0,0:0:0:0:
273,210,120501,2,0,B|297:250|294:293|294:293|317:258|372:246,1,180,10|0,0:0|0:0,0:0:0:0:
420,172,121204,2,2,P|383:96|302:115,1,180,2|0,0:0|0:0,0:0:0:0:
216,136,121908,5,4,0:0:0:0:
84,244,135033,6,0,P|75:288|84:332,1,90
179,227,135501,2,0,P|187:183|178:140,1,90
87,44,135970,2,0,P|78:88|87:131,1,90,8|8,0:0|0:0,0:0:0:0:
178,140,136439,1,4,0:0:0:0:
256,41,136673,1,8,0:0:0:0:
334,140,136908,6,0,P|341:184|333:230,1,90,4|0,0:0|0:0,0:0:0:0:
299,311,137376,2,0,P|263:283|221:268,2,90,8|2|0,0:0|0:0|0:0,0:0:0:0:
376,360,138079,1,2,0:0:0:0:
456,320,138314,1,8,0:0:0:0:
456,320,138548,2,0,P|473:231|455:144,1,180,2|2,0:0|0:0,0:0:0:0:
408,68,139251,6,0,P|374:97|330:107,1,90,8|0,0:0|0:0,0:0:0:0:
255,159,139720,2,0,P|222:130|180:114,1,90,2|2,0:0|0:0,0:0:0:0:
120,180,140189,1,8,0:0:0:0:
120,180,140423,2,0,P|140:258|218:239,1,180,2|2,0:0|0:0,0:0:0:0:
300,279,141126,6,0,P|276:317|241:346,2,90,8|2|0,0:0|0:0|0:0,0:0:0:0:
224,232,141829,2,0,P|247:194|282:165,1,90,2|8,0:0|0:0,0:0:0:0:
376,164,142298,2,0,P|333:88|247:78,1,180,2|2,0:0|0:0,0:0:0:0:
172,128,143001,1,8,0:0:0:0:
104,188,143236,2,0,P|63:107|55:18,2,180,2|2|2,0:0|0:0|0:0,0:0:0:0:
164,256,144408,5,4,0:0:0:0:
240,304,144642,2,0,L|329:296,1,90,2|8,0:0|0:0,0:0:0:0:
404,248,145111,1,0,0:0:0:0:
476,189,145345,2,0,P|480:145|469:102,2,90,2|2|8,0:0|0:0|0:0,0:0:0:0:
395,151,146048,2,0,P|315:115|229:135,1,180,2|2,0:0|0:0,0:0:0:0:
152,180,146751,5,8,0:0:0:0:
100,256,146986,2,0,B|140:284|189:266|189:266|160:312|166:347,1,180,2|2,0:0|0:0,0:0:0:0:
256,328,147689,1,8,0:0:0:0:
345,347,147923,2,0,B|352:312|323:266|323:266|372:284|412:256,1,180,2|2,0:0|0:0,0:0:0:0:
476,191,148626,6,0,P|479:147|469:103,1,90,8|0,0:0|0:0,0:0:0:0:
400,48,149095,1,2,0:0:0:0:
316,12,149329,1,2,0:0:0:0:
292,100,149564,1,8,0:0:0:0:
292,100,149798,2,0,B|232:100|232:100|176:84|176:84|114:84,1,180,2|2,0:0|0:0,0:0:0:0:
28,112,150501,1,8,0:0:0:0:
96,172,150736,2,0,B|156:172|156:172|212:188|212:188|273:188,2,180,2|2|2,0:0|0:0|0:0,0:0:0:0:
44,248,151908,6,0,P|71:283|89:324,1,90,4|0,0:0|0:0,0:0:0:0:
20,384,152376,2,0,P|86:328|173:342,1,180,8|2,0:0|0:0,0:0:0:0:
256,376,153079,1,2,0:0:0:0:
336,336,153314,1,8,0:0:0:0:
424,316,153548,2,0,B|449:251|377:251|431:231|377:211|449:211|424:146,1,180,2|0,0:0|0:0,0:0:0:0:
376,67,154251,6,0,P|335:88|291:96,1,90,8|0,0:0|0:0,0:0:0:0:
276,112,154603,2,0,B|252:76|252:76|205:79,1,90,2|0,0:0|0:0,0:0:0:0:
192,96,154954,1,2,0:0:0:0:
104,72,155189,1,8,0:0:0:0:
64,152,155423,2,0,P|53:240|73:327,1,180,2|2,0:0|0:0,0:0:0:0:
148,372,156126,6,0,P|173:334|208:307,1,90,8|0,0:0|0:0,0:0:0:0:
303,307,156595,2,0,P|338:334|364:372,1,90,2|2,0:0|0:0,0:0:0:0:
438,328,157064,1,8,0:0:0:0:
438,328,157298,2,0,P|458:240|448:152,1,180,2|2,0:0|0:0,0:0:0:0:
420,68,158001,1,8,0:0:0:0:
332,56,158236,2,0,B|276:52|256:16|256:16|236:52|180:56,2,180,2|2|2,0:0|0:0|0:0,0:0:0:0:
367,140,159408,6,0,P|364:184|374:228,1,90,4|0,0:0|0:0,0:0:0:0:
388,244,159759,1,0,0:0:0:0:
404,260,159876,1,8,0:0:0:0:
364,340,160111,2,0,L|264:328,1,90,2|0,0:0|0:0,0:0:0:0:
192,368,160579,1,0,0:0:0:0:
168,364,160697,1,0,0:0:0:0:
144,360,160814,1,8,0:0:0:0:
72,308,161048,1,2,0:0:0:0:
24,232,161283,6,0,P|15:187|21:143,1,90
32,124,161634,1,0,0:0:0:0:
48,108,161751,1,8,0:0:0:0:
124,56,161986,1,0,0:0:0:0:
124,56,162220,2,0,P|146:94|179:125,1,90,2|0,0:0|0:0,0:0:0:0:
251,183,162689,1,8,0:0:0:0:
251,183,162923,2,0,P|312:124|399:140,1,180,2|0,0:0|0:0,0:0:0:0:
339,216,163626,6,0,P|335:260|347:303,1,90,8|0,0:0|0:0,0:0:0:0:
416,364,164095,2,0,L|508:352,2,90,4|8|8,0:3|0:3|0:0,0:0:0:0:
324,372,164798,1,0,0:0:0:0:
236,376,165033,5,4,0:3:0:0:
176,308,165267,2,0,P|183:263|174:219,1,90,2|8,0:0|0:0,0:0:0:0:
108,164,165736,1,0,0:0:0:0:
29,119,165970,2,0,P|21:164|30:208,1,90,4|4,0:3|0:0,0:0:0:0:
108,164,166439,1,8,0:2:0:0:
188,124,166673,1,4,0:3:0:0:
216,40,166908,6,0,L|395:32,1,180,4|8,0:0|0:0,0:0:0:0:
484,60,167611,1,0,0:0:0:0:
508,148,167845,2,0,L|328:155,1,180,2|0,0:0|0:0,0:0:0:0:
272,224,168548,1,0,0:0:0:0:
188,260,168783,6,0,P|217:293|258:312,2,90,2|0|8,0:0|0:0|0:0,0:0:0:0:
124,196,169486,1,0,0:0:0:0:
123,195,169720,2,0,P|160:277|172:366,1,180,2|8,0:0|0:0,0:0:0:0:
84,384,170423,2,0,P|47:302|35:213,1,180,2|0,0:0|0:0,0:0:0:0:
60,128,171126,6,0,P|102:114|138:87,1,90,8|0,0:0|0:0,0:0:0:0:
216,132,171595,2,0,P|205:175|203:220,1,90,4|8,0:3|0:3,0:0:0:0:
240,304,172064,1,8,0:0:0:0:
316,352,172298,1,0,0:0:0:0:
404,324,172533,6,0,P|414:280|416:235,1,90,4|2,0:3|0:0,0:0:0:0:
364,164,173001,2,0,B|358:129|387:83|387:83|338:101|298:73,1,180,10|2,0:0|0:0,0:0:0:0:
216,32,173704,1,0,0:0:0:0:
128,56,173939,1,8,0:0:0:0:
64,120,174173,2,0,P|55:209|63:299,1,180,2|0,0:0|0:0,0:0:0:0:
136,356,174876,6,0,P|185:286|269:301,2,180,8|2|8,0:0|0:0|0:0,0:0:0:0:
48,344,176048,1,0,0:0:0:0:
48,344,176283,2,0,B|48:296|48:296|32:216|32:216|32:165,1,180,2|8,0:0|0:0,0:0:0:0:
92,96,176986,1,0,0:0:0:0:
180,84,177220,2,0,P|161:44|129:13,2,90,4|2|8,0:3|0:0|0:0,0:0:0:0:
256,136,177923,2,0,B|228:176|176:177|176:177|220:209|226:244,1,180,2|2,0:0|0:0,0:0:0:0:
280,320,178626,6,0,P|319:298|361:284,1,90,8|0,0:0|0:0,0:0:0:0:
452,272,179095,1,4,0:3:0:0:
488,192,179329,1,4,0:3:0:0:
452,112,179564,1,8,0:0:0:0:
362,112,179798,1,0,0:0:0:0:
400,192,180033,6,0,P|313:185|273:108,1,180,4|8,0:0|0:0,0:0:0:0:
212,44,180736,2,0,L|122:51,1,90,0|4,0:0|0:0,0:0:0:0:
26,147,181204,2,0,L|116:140,1,90,8|8,0:0|0:2,0:0:0:0:
192,188,181673,1,4,0:0:0:0:
256,252,181908,5,4,0:0:0:0:
